#TITLE:True Blue (STARDOM Remix);
#ARTIST:かめりあ;
#ARTISTTRANSLIT:Camellia;
#MUSIC:True Blue (STARDOM Remix).ogg;
#BANNER:True Blue (STARDOM Remix).png;
#BACKGROUND:True Blue (STARDOM Remix)-bg.png;
#CDTITLE:./CDTitles/DANCERUSH STARDOM.png;
#SAMPLESTART:91.268;
#SAMPLELENGTH:15;
#BPMS:0=142;
#BGSTAGE:27;

//--------------- dance-single - XLev450X-bSP ----------------
#NOTES:
     dance-single:
     XLev450X:
     Beginner:
     2:
     0,0,0,0,0:
0000
0000
0000
0000
,
0000
0000
0000
0000
,
0000
0000
0000
0000
,
0000
0000
0000
0000
,
0000
0000
0000
0000
,
0000
0000
0000
0000
,
0000
0000
0000
0000
,
0000
0000
0000
0000
,
0000
0000
0000
0000
,
0001
0000
0001
0000
,
0001
0000
0000
0000
,
0010
0000
1000
0000
,
0010
0000
0000
0000
,
1000
0000
1000
0000
,
1000
0000
0000
0000
,
0001
0000
0000
0000
,
0010
0000
0000
0000
,
1000
0000
0000
0000
,
0100
0000
0000
0000
,
0001
0010
0000
0000
,
0000
0000
0000
0000
,
0100
0010
0000
0000
,
0000
0000
0000
0000
,
1000
0000
0001
0000
,
0010
0000
0000
0000
,
1000
0000
0100
0000
,
1000
0000
0000
0000
,
1001
0000
0000
0000
,
0010
0000
0100
0000
,
0010
0000
0000
0000
,
1000
0000
0001
0000
,
0010
0000
0000
0000
,
0100
0000
0000
0000
,
1000
0000
0000
0000
,
0001
0000
0000
0000
,
0010
0000
0000
0000
,
0100
0000
0000
0000
,
0001
0000
0000
0000
,
1000
0000
0000
0000
,
1001
0000
0000
0000
,
0000
0000
0000
0000
,
0010
0000
0000
0000
,
0000
0000
0000
0000
,
0110
0000
0000
0000
,
0000
0000
0000
0000
,
1000
0000
0000
0000
,
0000
0000
0000
0000
,
0001
0001
0000
0000
,
0000
0000
0000
0000
,
1000
1000
0000
0000
,
0000
0000
0000
0000
,
0010
0010
0000
0000
,
0000
0000
0000
0000
,
0100
0100
0000
0000
,
2002
0000
3003
0000
,
0010
0000
1000
0000
,
0010
0000
0000
0000
,
0001
0000
0010
0000
,
0001
0000
0000
0000
,
0100
0000
0010
0000
,
0100
0000
0000
0000
,
1000
0000
0100
0000
,
1000
0000
0000
0000
,
1010
0000
0000
0000
,
0000
0000
0000
0000
,
0101
0000
0000
0000
,
0000
0000
0000
0000
,
0001
0000
1000
0000
,
0001
0000
0000
0000
,
0010
0000
1000
0000
,
0010
0000
0000
0000
;

//--------------- dance-single - XLev450X-BSP ----------------
#NOTES:
     dance-single:
     XLev450X:
     Easy:
     6:
     0,0,0,0,0:
0000
0000
0000
0000
,
0000
0000
0000
0000
,
0000
0000
0000
0000
,
0000
0000
0000
0000
,
0000
0000
0000
0000
,
0000
0000
0000
0000
,
0000
0000
0000
0000
,
0000
0000
0000
0000
,
0000
0000
0000
0000
,
0010
0000
1000
0000
,
0001
0000
0100
0000
,
0010
0000
1000
0000
,
0001
0000
0100
0000
,
0001
0001
1000
0010
,
0200
0000
0000
0000
0000
0000
0000
0000
0000
0000
0000
0000
0000
0000
0000
0000
0000
0000
0000
0000
0000
0000
0000
0000
0000
0000
0000
0000
0000
0300
0000
0000
,
1000
0010
1000
0000
,
0001
0010
0001
0000
,
0100
0010
0100
0000
,
1000
0000
0001
0000
,
1000
0010
1000
0000
,
0100
0001
0100
0000
,
0001
1000
0001
0000
,
2002
0000
0000
0000
0000
0000
0000
0000
0000
0000
0000
0000
0000
0000
0000
0000
0000
0000
0000
0000
0000
0000
0000
0000
0000
0000
0000
0000
0000
0000
0000
0000
0000
0000
0000
0000
0000
3003
0000
0000
0000
0000
0000
0000
0000
0000
0000
0000
,
1000
0010
1000
0100
,
0001
0010
0100
0000
,
0010
0000
0001
0000
,
1000
0000
0000
0000
,
0010
1000
0100
0001
,
0010
0100
0010
0000
,
0001
0000
1000
0000
,
0001
0000
0000
0000
0100
0000
0000
0000
2002
0000
0000
0000
0000
3003
0000
0000
,
0001
0000
1000
0000
,
0001
0000
0000
0000
,
1000
0000
0010
0000
,
1000
0000
0000
0000
,
0010
0000
0100
0000
,
0010
0000
0000
0000
,
0001
0000
0010
0000
,
0001
0000
0000
0000
,
0002
0000
0010
0000
,
0010
0000
0013
0000
,
2000
0000
0100
0000
,
0100
0000
3100
0000
,
0020
0000
0100
0000
,
0100
0000
0130
0000
,
0200
0000
1000
0000
,
1000
0000
1300
0000
,
0001
0000
1000
0000
,
0001
0000
0000
0000
,
1000
0000
0010
0000
,
1000
0000
0000
0000
,
0010
0010
0100
0000
,
0001
1000
0001
0000
,
0010
0000
1000
0000
,
2002
0000
0000
3003
,
0010
1000
0010
0000
,
0001
0010
1000
0000
,
0100
0010
0100
0000
,
0001
0010
0001
0000
,
1000
1000
0001
0100
,
0010
1000
0010
0000
,
1000
1000
0001
0100
,
0010
0100
0001
0000
,
2000
0000
0000
3000
0002
0000
0000
0003
,
2000
0000
0000
0000
0000
0000
3000
0000
,
0020
0000
0000
0000
0000
0000
0000
0030
0200
0000
0000
0000
0000
0000
0000
0300
,
0020
0000
0000
0000
0000
0000
0000
0030
,
1000
0001
1000
0010
,
0100
0001
0010
1000
,
0001
0100
0010
0100
,
2002
0000
0000
0000
,
3003
0000
0000
0000
0000
0000
0000
0000
0000
0000
0000
0000
0000
0000
0000
0000
0000
0000
0000
0000
0000
0000
0000
0000
0000
0000
0000
0000
0000
0000
0000
0000
0000
0000
0000
0000
0000
0000
0000
0000
0000
0000
0000
0000
0000
0000
0000
0000
0000
0000
0000
0000
0000
0000
0000
0000
0000
0000
0000
0000
0000
0000
0000
0000
0000
0000
0000
0000
0000
0000
0000
0000
0000
0000
0000
0000
0000
0000
0000
0000
0000
0000
0000
0000
0000
0000
0000
0000
0000
0000
0000
0000
0000
0000
0000
0000
0000
0000
0000
0000
0000
0000
0000
0000
0000
0000
0000
0000
0000
0000
0000
0000
0000
0000
0000
0000
0000
0000
0000
0000
0000
0000
0000
0000
0000
0000
0000
0000
0000
0000
0000
0000
0000
0000
0000
0000
0000
0000
0000
0000
0000
0000
0000
0000
0000
0000
0000
0000
0000
0000
0000
0000
0000
0000
0000
0000
0000
0000
0000
0000
0000
0000
0000
0000
0000
0000
0000
0000
0000
0000
0000
0000
0000
0000
0000
0000
0000
0000
0000
0000
0000
0000
0000
0000
0000
0000
0000
0000
0000
0000
0000
0000
;

//--------------- dance-single - XLev450X-DSP ----------------
#NOTES:
     dance-single:
     XLev450X:
     Medium:
     9:
     0,0,0,0,0:
0000
0000
0000
0000
,
0000
0000
0000
0000
,
0000
0000
0000
0000
,
0000
0000
0000
0000
,
0000
0000
0000
0000
,
0000
0000
0000
0000
,
0000
0000
0000
0000
,
0000
0000
0000
0000
,
0000
0000
0000
0000
,
2000
0000
0010
0000
0001
0000
0001
3000
,
0002
0000
0100
0000
1000
0000
1000
0003
,
2000
0000
0010
0000
0001
0000
0001
3000
,
0002
1000
0100
1003
,
2000
3100
0002
0013
2000
3100
0002
0010
,
1003
0000
1001
1001
,
0020
0000
0130
0000
0002
0023
0130
0000
,
2000
0000
3010
0000
2000
3200
0302
0023
,
0130
0000
0001
0000
2000
3200
0301
0000
,
0001
0000
1000
0000
0002
0023
2030
3200
,
0301
0000
1000
0000
0002
0023
1030
0000
,
1000
0000
0001
0000
2000
3200
0302
0023
,
1030
0010
0100
2002
,
0000
0000
0000
3003
,
0002
0023
0032
0023
0032
0000
0010
0000
,
0100
0000
1003
0000
2000
3200
2300
3200
,
2300
0100
0010
3001
,
0020
0001
0100
0031
,
1000
0100
2000
3200
2300
3200
2300
0000
,
0100
0010
0100
3010
,
0002
0010
0100
0103
,
0000
0110
0110
0000
,
1001
0000
0001
0000
,
0010
0000
0100
1000
,
0100
0000
0010
0000
,
0001
0000
0100
1000
,
0100
0000
0001
0000
,
0010
0000
0001
0100
,
0010
0100
0010
0001
,
0010
0000
2002
3003
,
0002
0000
0000
0000
1000
0000
0100
0003
,
2000
0000
0001
0010
,
0002
0000
0000
3000
,
0000
0000
0100
1003
,
0200
0000
0000
0000
0001
0000
0001
0300
,
0020
0000
0000
0000
1000
0000
0100
0030
,
0200
0000
0000
0000
0001
0000
0010
0300
,
0000
1001
0101
1010
,
0002
0000
1000
0000
0100
0000
1000
0003
,
0200
0001
0010
0001
,
0002
0000
0000
0300
1000
0003
2000
0000
,
0001
0000
0010
0000
0001
3000
0000
0000
,
0002
0023
1030
0000
2000
3200
0301
0000
,
0002
0023
0032
0103
0000
0000
0000
0000
,
1001
1001
1001
1001
,
2002
0000
0000
3003
0000
0000
0000
0000
,
0200
0010
0001
0010
,
0001
0000
0010
0000
0001
0000
0010
0300
,
0020
1000
0100
1000
,
0100
0000
1000
0000
0100
0000
0100
0030
,
1000
0000
2000
3200
2300
3200
1300
0000
,
2000
3200
2300
3200
2300
0000
0100
0000
,
0010
0000
0001
3000
0200
0000
0001
0000
,
0010
0000
1000
0300
0000
0000
0000
0000
,
0000
0002
1003
0100
,
0020
0030
0000
0000
1001
0000
1001
0000
,
2002
0000
0000
3003
0100
0000
0010
0000
,
2000
3000
0002
0003
1000
0000
0000
0000
,
0200
0000
0001
0000
0010
0300
0002
0000
,
1000
0000
0100
0000
0100
0000
1000
0003
,
0002
0013
2000
3100
0002
0013
1000
0000
,
0220
0000
0000
0000
0000
0000
0000
0000
0000
0000
0000
0000
0000
0000
0000
0000
0000
0000
0000
0000
0000
0000
0000
0000
0000
0000
0000
0000
0000
0000
0000
0000
0000
0000
0000
0000
0000
0000
0000
0000
0000
0000
0000
0000
0000
0000
0000
0000
0000
0000
0000
0000
0000
0000
0000
0000
0000
0000
0000
0000
0000
0000
0000
0000
0000
0000
0000
0000
0000
0000
0000
0000
0000
0000
0000
0000
0000
0000
0000
0000
0000
0000
0000
0000
0000
0000
0000
0000
0000
0000
0000
0000
0000
0000
0000
0330
;

//--------------- dance-single - XLev450X-ESP ----------------
#NOTES:
     dance-single:
     XLev450X:
     Hard:
     13:
     0,0,0,0,0:
0000
0000
0000
0000
,
0000
0000
0000
0000
,
0000
0000
0000
0000
,
0000
0000
0000
0000
,
0000
0000
0000
0000
,
0000
0000
0000
0000
,
0000
0000
0000
0000
,
0000
0000
0000
0000
,
0000
0000
0000
0000
,
0001
0000
0000
1000
0000
0000
0001
0000
0000
0100
0000
0000
0010
0000
0000
0000
,
1000
0000
0000
0001
0000
0000
0100
0000
0000
1000
0000
0000
0001
0000
0000
0000
,
0100
0000
0000
0010
0000
0000
1000
0000
0000
0100
0000
0000
0001
0000
0000
0000
,
1000
0000
0000
0010
0000
0000
0100
0000
0000
1000
0000
0000
0001
0000
0100
0000
,
1000
0000
0000
0001
0000
0000
0010
0000
0000
1000
0000
0000
0100
0000
0000
0010
0000
0000
1000
0000
0000
0100
0000
0000
0001
0000
0000
0000
0100
0000
0000
0000
1000
0000
0000
0000
0001
0000
0000
0000
0010
0000
0000
0000
0100
0000
0000
0000
,
2000
0000
0000
0000
0001
0000
0001
0000
0001
0000
0000
0001
0000
0000
3001
0000
,
1000
0000
0001
0000
1000
0010
0100
1000
,
0001
0000
0001
0000
1000
0010
0100
1000
,
0010
0000
0001
0000
0010
0001
0010
0001
,
1000
0001
0100
1000
0001
1000
0010
0100
,
1000
0001
1000
0000
0010
1000
0010
0100
,
1000
0010
1000
0000
0001
0100
1000
0001
,
0010
0000
0000
1000
0000
0000
0001
0000
0000
1000
0000
0000
0010
0000
0001
0000
1000
0000
0010
0000
0000
0100
0000
0000
,
2002
0000
0000
3003
,
0001
0000
1000
0000
0010
1000
0100
1000
,
0001
0000
1001
0000
0001
1000
0010
1000
,
0010
0100
1000
0000
0001
0010
0001
0000
,
1000
0100
1000
0010
0100
1000
0010
0000
,
1001
1001
0001
1000
0010
1000
0100
0000
,
0010
1000
0100
0000
0001
0010
0001
0000
,
1000
0100
1000
0001
1000
0010
0100
1000
,
0000
0000
0001
0000
1000
0000
0010
0000
0100
0000
0000
0001
0000
0000
1000
0000
,
0001
0000
0000
0000
0000
0000
0000
0000
1000
0000
0000
0000
0010
0000
0000
0100
,
0000
0000
0000
0000
0001
0000
0100
0000
1000
0000
0000
0001
0000
0000
1000
0000
,
0001
0000
0000
0000
1000
0000
0000
0010
0000
0000
1000
0000
0010
0000
0000
0100
,
0000
0001
1000
0000
0010
1000
0010
0000
,
0101
0000
0000
0000
0000
0000
0000
0000
0010
0000
1000
0000
0010
0000
0000
0001
,
0000
0000
0010
0000
0001
0000
1000
0000
0100
0000
0000
1000
0000
0000
0100
0000
,
0001
0000
0100
0000
0001
0000
0000
0000
1000
0000
0001
0000
1000
0000
0000
0001
,
0000
0000
0000
0100
0000
0000
1000
0000
0000
0010
0000
0000
1000
0000
0001
0000
1000
0000
0100
0000
0010
0000
1000
0000
,
0002
1000
1000
1003
,
0020
0100
0100
0130
,
1000
0001
0001
0001
,
0020
0001
0001
0031
,
0200
1000
1000
1300
,
0020
0100
0100
0130
,
0002
1000
1000
1003
,
2001
0000
0001
0000
0001
0000
3001
0000
,
1000
0000
0001
0000
1000
0000
0010
0000
1000
0000
0100
0000
1000
0000
0001
1000
,
0010
0000
0100
0000
1000
0000
0001
0000
1000
0000
0010
0000
0100
0000
1000
0100
,
0001
0000
0010
0000
1000
0000
0100
0000
1000
0000
0010
0000
1000
0000
0010
0001
,
0100
0000
1000
0000
0001
0000
0010
0000
1000
0001
0010
0000
0100
0000
1000
0100
,
0001
0000
0100
0000
0010
0000
1000
0100
0001
0000
0100
0000
1000
0000
0001
1000
,
0010
0000
1000
0000
0100
0000
1000
0010
0001
0000
0010
0000
0100
0000
1000
0010
,
0001
0000
0000
0010
0000
0000
0100
0000
0000
0001
0000
0000
1000
0000
0000
0001
0000
0000
0100
0000
0000
1000
0000
0000
0001
0000
0000
0000
0010
0000
0000
0000
0100
0000
0000
0000
1000
0000
0000
0000
0001
0000
0000
0000
0010
0000
0000
0000
,
2000
0000
0000
0000
0001
0000
0001
0000
0001
0000
0000
0001
0000
0000
3001
0000
,
0001
1000
0010
1000
0100
1000
0001
0010
,
1000
0010
0101
0000
0001
1000
0010
1000
,
0100
1000
0010
0100
1000
0010
1000
0010
,
1000
0010
0011
0000
0001
1000
1001
0000
,
0001
1000
0100
1000
0001
0010
0100
1000
,
0001
0010
1010
0000
0010
0100
0110
0000
,
0001
1000
0001
0100
1000
0001
0010
1000
,
0000
0000
0001
0000
0100
0000
1000
0000
1001
0000
0000
0001
0000
0000
0010
0000
,
1000
0000
0000
0000
0000
0000
0000
0000
0001
0000
0000
0000
0100
0000
0000
0010
,
0000
0000
0000
0000
1000
0000
0010
0000
0001
0000
0000
1000
0000
0000
0001
0000
,
1000
0000
0000
0000
0001
0000
0000
0100
0000
0000
0001
0000
0100
0000
0000
0010
,
0000
0000
0000
1000
0000
0000
0001
0000
0000
0000
0000
0000
0100
0000
0001
0000
0010
0000
0100
0000
1000
0000
0001
0000
,
0100
0000
0001
1000
0010
0000
0100
1000
,
0010
0000
0010
0001
1000
0100
1000
0001
,
0010
1000
0100
1000
0001
0100
1000
0001
,
0000
0000
1000
0000
0000
0010
0000
0000
0100
0000
0000
1000
0000
0000
2002
0000
,
3003
0000
0000
0000
;
