#TITLE:Touchin' (RGR-Special);
#ARTIST:The Lonely Hearts;
#MUSIC:Touchin' (RGR-Special).ogg;
#BANNER:Touchin' (RGR-Special).png;
#BACKGROUND:Touchin' (RGR-Special)-bg.png;
#CDTITLE:./CDTITLES/Dance Dance Revolution HOTTEST PARTY.png;
#SAMPLESTART:50.510;
#SAMPLELENGTH:15.000;
#SELECTABLE:YES;
#OFFSET:0.000;
#BPMS:0.000=120;
#BGSTAGE:3;
#DISPLAYBPM:120;

//--------------- dance-single - XLev450X ----------------
#NOTES:
     dance-single:
     XLev450X:
     Challenge:
     13:
     0,0,0,0,0:
0000
0000
0000
0000
,
0000
0000
0000
0000
,
0001
1000
0010
0100
0000
0001
1000
0010
,
0000
0000
0001
0000
1000
0000
0010
0000
0001
0000
0000
0010
0000
0000
1000
0000
,
0010
0100
0001
1000
0000
0001
0100
0001
,
0000
0000
1000
0000
0010
0000
0100
0000
0001
0000
0000
1000
0000
0000
0010
0000
,
0001
1000
0010
0100
0010
0001
1000
0010
,
0100
0000
0001
1000
0100
0000
0010
0000
0001
0000
1000
0010
1000
0100
0001
0010
,
0100
0010
0001
1000
0001
0010
0100
0001
,
0010
0100
0001
0010
0100
1000
0001
1000
0010
0100
0001
1000
0100
1000
0001
0100
,
0001
0000
1000
0000
0010
0100
0001
1000
,
0020
0000
0000
0030
0000
0000
0001
0000
1000
0000
0010
0000
0100
0000
0001
0000
,
2000
3000
0001
0100
0010
0000
0001
1000
,
0010
0000
0000
0000
0100
0000
0001
0000
1000
0000
0010
0001
0010
0000
1000
0000
,
0010
0000
0000
0100
0000
0000
0001
0000
1000
0000
0000
0000
0001
0000
0100
0000
,
0010
0000
0000
1000
0000
0000
0100
0000
0001
0000
0100
0000
0010
1000
0001
0100
,
0010
0000
0000
0100
0000
0000
0010
0000
1000
0000
0000
0010
0000
0000
0100
0000
,
0010
0000
0000
0001
0000
0000
1000
0000
0002
0000
0003
0000
0010
0000
0000
0000
,
1000
0001
0100
0000
0010
0000
1000
0000
0002
0000
0003
0000
0200
0000
0300
0000
,
0010
0001
0010
0000
1000
0000
0010
0000
0200
0000
0300
0000
0002
0000
0003
0000
,
1000
0010
1000
0000
0001
0000
0100
0000
0001
0100
0001
0000
1000
0000
0010
0000
,
1000
0001
0100
0000
0010
0000
1000
0000
0001
0100
0010
0000
0001
0000
1000
0000
,
0010
0000
0000
0100
0000
0000
0001
0000
1000
0000
0000
0010
0000
0000
0100
0000
,
0001
0000
0000
1000
0000
0000
0010
0000
0100
0000
0000
0001
0000
0000
1000
0000
,
0001
0000
1000
0010
0100
0000
0001
1000
0010
0000
0100
0001
1000
0000
0010
0000
,
0100
0001
1000
0100
0002
0003
0010
0100
1000
0000
0001
0000
0100
0000
0001
0000
,
1000
0000
0000
0010
0000
0000
0001
0000
0200
0000
0300
0000
0002
0000
0003
0000
,
1000
0000
0000
0010
0000
0000
0100
0000
0001
0000
0000
0000
1000
0000
0000
0000
,
0202
0303
0000
0000
2020
3030
0000
0000
0010
0000
0100
0000
0001
0000
0000
0000
,
0010
0001
0010
0000
1000
0000
0100
0000
1000
0100
1000
0000
0010
0000
0100
0000
,
0002
0000
0000
0003
0000
0000
0001
1000
0010
0000
0100
0000
0001
0000
1000
0000
,
0010
0000
0100
0001
2000
0000
3000
0010
,
0200
0000
0300
0001
2000
0000
3000
0010
,
2002
0000
0000
3003
0000
0000
1000
0001
0010
0000
1000
0000
0001
0000
0100
0000
,
0010
0000
0000
0100
0000
0000
1000
0000
0001
0000
0000
0000
0100
0000
0000
0000
,
0010
0000
0000
0001
0000
0000
1000
0000
0001
0000
0000
0000
0010
0000
0000
0000
,
2000
0000
3000
0000
0001
1000
0010
0000
0100
0000
1000
0000
0010
0000
1000
0000
,
0001
0010
0001
0000
1000
0000
0010
0000
0100
1000
0100
0000
0010
0000
0100
0000
,
0002
0000
0000
0000
0003
0000
0010
1000
0100
0000
0001
0000
1000
0000
0010
0000
,
0100
0000
0000
0001
0000
0000
1000
0000
0010
0000
0000
1000
0000
0000
0001
0000
,
0010
0100
1000
0010
0100
0010
0001
1000
,
0020
0000
0030
0000
0100
0000
0001
0000
1000
0010
0100
0000
0001
0000
0100
0000
,
0001
0000
0000
0010
0000
0000
1000
0000
0010
0000
0000
0001
0000
0000
0100
0000
,
0001
0000
0000
0100
0000
0000
1000
0000
0010
0000
0000
0100
0000
0000
0001
0000
,
1000
0001
0100
0010
1000
0001
0100
0010
,
1000
0010
0001
1000
0001
0000
0100
0000
0001
0000
1000
0010
0000
0100
0001
0000
,
0010
0001
1000
0010
0100
0000
0001
0000
,
1000
0000
0010
0100
0001
0000
1000
0010
,
0001
0010
0001
0000
1000
0000
0010
0000
0100
0000
0000
0000
1000
0000
0000
0000
,
0001
0100
0001
0100
0010
0000
1000
0000
0001
0000
0100
0000
0010
0000
0000
0000
,
1000
0100
0001
0000
0100
0000
0010
0000
1000
0000
0001
0010
0100
0001
2200
0000
,
0000
3300
0000
0000
0000
0000
0000
0000
;
