#TITLE:Tori-no-kimochi;
#ARTIST:猫叉Master+;
#TITLETRANSLIT:The Feeling of Birds;
#ARTISTTRANSLIT:Nekomata Master+;
#GENRE:WORLD/ELECTRONICA;
#MUSIC:Tori-no-kimochi.ogg;
#BANNER:Tori-no-kimochi.png;
#BACKGROUND:Tori-no-kimochi-bg.png;
#CDTITLE:./CDTitles/bm IIDX 23 copula.png;
#SAMPLESTART:96.042;
#SAMPLELENGTH:15;
#OFFSET:-0.113;
#BPMS:0=132;
#BGSTAGE:16;

//--------------- dance-single - XLev450X+-bSP ----------------
#NOTES:
     dance-single:
     XLev450X+:
     Beginner:
     1:
     0,0,0,0,0:
0000
0000
0000
0000
,
0000
0000
0000
0000
,
0000
0000
0000
0000
,
0000
0000
0000
0000
,
0000
0000
0000
0000
,
0000
0000
0000
0000
,
0000
0000
0000
0000
,
0000
0000
0000
0000
,
0001
0000
0000
0000
,
0000
0000
0000
0000
,
1000
0000
0000
0000
,
0000
0000
0000
0000
,
0010
0000
0000
0000
,
0000
0000
0000
0000
,
0100
0000
0000
0000
,
0000
0000
0000
0000
,
0001
0000
1000
0000
,
0001
0000
0000
0000
,
0010
0000
0100
0000
,
0010
0000
0000
0000
,
0010
0000
1000
0000
,
0010
0000
0000
0000
,
0001
0000
0100
0000
,
0001
0000
0000
0000
,
1000
0000
0000
0000
,
0001
0000
0000
0000
,
0010
0000
0000
0000
,
0100
0000
1000
0000
,
0001
0000
0000
0000
,
0100
0000
0010
0000
,
1000
0000
0000
0000
,
0100
0000
0000
0000
,
0101
0000
0000
0000
,
1010
0000
0000
0000
,
1001
0000
0000
0000
,
0000
0000
0000
0000
,
0110
0000
0000
0000
,
1100
0000
0000
0000
,
0011
0000
0000
0000
,
0000
0000
0000
0000
,
1000
0000
0000
0000
,
0001
0000
0000
0000
,
0100
0000
0000
0000
,
0010
0000
0000
0000
,
1000
0000
0000
0000
,
0001
0000
0000
0000
,
0100
0000
0000
0000
,
0010
0000
0000
0000
,
1000
0000
0000
0000
,
0000
0000
0000
0000
,
0001
0000
0000
0000
,
0000
0000
0000
0000
,
0000
0000
0000
0000
,
0010
0000
0010
0000
,
0010
0000
0000
0000
,
1000
0000
0001
0000
,
0100
0000
0000
0000
,
0010
0000
0001
0000
,
0010
0000
0000
0000
,
1000
0000
0100
0000
,
0001
0000
0000
0000
,
0010
0000
1000
0000
,
1000
0000
0001
0000
,
0100
0000
0000
0000
,
0010
0000
0000
0000
,
1000
0000
0010
0000
,
0100
0000
0000
0000
,
0001
0000
1000
0000
,
0010
0000
0000
0000
,
1001
0000
0000
0000
;

//--------------- dance-single - XLev450X+-BSP ----------------
#NOTES:
     dance-single:
     XLev450X+:
     Easy:
     3:
     0,0,0,0,0:
0000
0000
0000
0000
,
0000
0000
0000
0000
,
0000
0000
0000
0000
,
0000
0000
0000
0000
,
0000
0000
0000
0000
,
0000
0000
0000
0000
,
0000
0000
0000
0000
,
0000
0000
0000
0000
,
1000
0000
0001
0000
,
0100
0000
0010
0000
,
1000
0000
0000
0000
,
0001
0000
0000
0000
,
0100
0000
0001
0000
,
1000
0000
0010
0000
,
0100
0000
0000
0000
,
0101
0000
0000
0000
,
0001
1000
0001
0000
,
1000
0000
0010
0000
,
1000
0010
0100
0000
,
0001
0000
0100
0000
,
0001
1000
0001
0000
,
0010
0000
0100
0000
,
1000
0001
0100
0010
,
1001
0000
0000
0000
,
0010
0000
1000
0000
,
0001
0100
0001
0000
,
1000
0000
0010
0000
,
0100
0000
0000
0000
,
1000
0000
0001
0000
,
0100
0001
1000
0000
,
0010
0000
1000
0000
,
0001
0000
0000
0000
,
0010
0100
0010
0000
,
1000
0000
0001
0000
,
0010
0001
0010
0000
,
0000
0000
0000
0000
,
1000
0100
0010
0000
,
1000
0000
0010
0000
,
0100
0001
0100
0000
,
0000
0000
0000
0000
,
1000
0000
0001
0000
,
0100
0000
0010
0000
,
1000
0000
0001
0000
,
0000
0000
0000
0000
,
0001
0000
1000
0000
,
0010
0000
0100
0000
,
0010
0000
1000
0000
,
0000
0000
0000
0000
,
0001
0000
0000
0000
,
1000
0000
0000
0000
,
0010
0000
0000
0000
,
0100
0000
0000
0000
,
0000
0000
0000
0000
,
0001
1000
0001
0000
,
0010
0000
1000
0000
,
0100
0000
0000
0000
,
0001
0000
0100
0000
,
1000
0000
0010
0000
,
0100
0000
0010
0000
,
0001
0000
0000
0000
,
1000
0000
0000
0000
,
0001
0000
1000
0000
,
0010
0000
0100
0000
,
0001
0000
0000
0000
,
0000
0000
0000
0000
,
0010
0000
1000
0000
,
0100
0000
0010
0000
,
0100
0000
0000
0000
,
0001
0000
1000
0000
,
0001
0000
0100
0000
,
0010
0000
1000
0000
;

//--------------- dance-single - XLev450X+-DSP ----------------
#NOTES:
     dance-single:
     XLev450X+:
     Medium:
     5:
     0,0,0,0,0:
0000
0000
0000
0000
,
0000
0000
0000
0000
,
0000
0000
0000
0000
,
0000
0000
0000
0000
,
0000
0000
0000
0000
,
0000
0000
0000
0000
,
0000
0000
0000
0000
,
0000
0000
0000
0000
,
1000
0000
0001
0000
,
1000
0000
0010
0000
,
0100
0000
0000
0000
,
0001
1000
0001
0000
,
0010
0000
0100
0000
,
0001
0000
1000
0000
,
0010
0000
0000
0000
,
1000
0001
0100
0000
,
0010
0000
1000
0010
,
0100
0000
1000
0001
,
0100
0000
0010
0000
,
1000
0000
0001
0000
,
0100
0001
0100
0000
,
1000
0010
1000
0000
,
0010
0000
0100
0000
,
0101
0000
0000
0000
,
1000
0000
0001
0000
,
1000
0000
0000
0000
,
0100
0000
1000
0000
,
0010
0000
0000
0000
,
0100
0001
1000
0000
,
0100
0000
1000
0000
,
0010
0000
0000
0000
,
0001
0000
1000
0000
,
0010
0100
0001
0000
,
1000
0010
1000
0000
,
0100
0000
0001
0000
,
0000
0000
0000
0000
,
0100
0010
1000
0000
,
0100
0000
0001
0000
,
0010
1000
0100
0000
,
0001
0000
0000
0000
,
1000
0000
0010
0000
,
0100
0000
0001
0000
,
1000
0010
0100
0000
,
0001
0000
1000
0000
,
0001
0010
0001
0000
,
0100
0000
1000
0000
,
0100
0010
0100
0000
,
0000
0000
0000
0000
,
0101
0000
1010
0000
,
0110
0000
0011
0000
,
1100
0000
0110
0000
,
1000
0001
0100
0000
,
0000
0000
0000
0000
,
0001
1000
0001
0000
,
0100
0010
1000
0000
,
0100
0000
0001
0000
,
1000
0010
1000
0000
,
0100
0000
0001
0000
,
0010
0000
1000
0000
,
0100
0001
1000
0000
,
0010
0000
0000
0000
,
1000
0000
0001
0000
,
0100
0000
0010
0000
,
1000
0010
1000
0000
,
0100
0000
0001
0000
,
1000
0001
0100
0000
,
0010
0000
1000
0000
,
0100
0001
1000
0000
,
0010
0000
0100
0000
,
0001
0000
1000
0000
,
0001
0000
0100
0000
;

//--------------- dance-single - XLev450X+-ESP ----------------
#NOTES:
     dance-single:
     XLev450X+:
     Hard:
     7:
     0,0,0,0,0:
0000
0000
0000
0000
,
0000
0000
0000
0000
,
0000
0000
0000
0000
,
0000
0000
0000
0000
,
0000
0000
0000
0000
,
0000
0000
0000
0000
,
0000
0000
0000
0000
,
0000
0000
0000
0000
,
1000
0001
0100
0000
,
1000
0000
0001
0000
0010
0001
0010
0000
,
1000
0001
0100
0000
,
0010
0000
1000
0000
0010
0100
0001
0000
,
1000
0001
0100
0000
,
0010
1000
0100
0010
,
1000
0001
0100
0000
,
0001
0000
1000
0000
0001
0100
0001
0000
,
1000
0010
0100
0000
,
0010
0000
0100
0000
0010
1000
0010
0000
,
0100
0001
1000
0000
,
0010
0000
0100
0000
0001
1000
0001
0100
,
0010
1000
0001
0000
,
0100
0000
0010
0000
0001
1000
0010
0000
,
0100
0000
0001
0000
1000
0010
0100
0000
,
1001
0000
0000
0000
,
0001
1000
0010
0000
,
1000
0010
0100
0001
,
1000
0010
0100
0000
,
0001
0000
1000
0000
0010
0100
0010
0000
,
1000
0001
0100
0000
,
0010
1000
0001
0100
,
0010
1000
0001
0000
,
0100
0000
0001
0000
1000
0010
1000
0000
,
0000
0001
0100
0010
,
0100
0001
1000
0000
,
0001
0100
0010
1000
,
0100
0000
0001
0000
0001
1000
0001
0000
,
0100
0010
1000
0000
,
0100
0010
1000
0000
,
0001
0000
0100
0000
0010
0100
0001
0000
,
1000
0000
0010
0000
1000
0001
0100
0000
,
0010
1000
0001
0000
,
0100
1000
0001
0100
,
0010
1000
0001
0000
,
0100
0000
0010
0000
1000
0001
0100
0000
,
0010
1000
0001
0000
,
1000
0001
0100
0000
,
0010
0001
1000
0010
,
0100
0000
0001
0000
1000
0001
0100
0000
,
0010
0000
1000
0000
,
0001
0000
0100
0000
,
0010
0000
1000
0001
,
0100
0000
0010
0000
,
0000
0000
0000
0000
,
1000
0000
0001
0000
0100
0010
1000
0000
,
0001
0100
0001
1000
,
0010
0000
0100
0000
,
0010
0000
1000
0000
0001
0010
0001
0000
,
1000
0010
0100
0000
,
0101
0000
1010
0000
,
0010
0100
0001
0000
,
1000
0010
0100
0000
,
1000
0001
0100
0000
,
0010
0000
1000
0000
0010
0100
0001
0000
,
1000
0010
0100
0000
,
0101
0000
1010
0000
,
0010
0100
0001
0000
,
1000
0000
0010
0000
0100
0010
0100
0000
,
1000
0001
0100
0000
,
0001
0000
1000
0000
0010
0100
0001
0000
,
1000
0000
0001
0000
,
0100
0000
0010
0000
;
