#TITLE:遠い世界の時と空;
#ARTIST:Qrispy Joybox;
#TITLETRANSLIT:Tooi sekai no toki to sora;
#BANNER:Tooi sekai no toki to sora.png;
#BACKGROUND:Tooi sekai no toki to sora-bg.png;
#CDTITLE:./CDTitles/NOSTALGIA FORTE.png;
#MUSIC:Tooi sekai no toki to sora.ogg;
#OFFSET:1.173;
#SAMPLESTART:56.633;
#SAMPLELENGTH:15;
#DISPLAYBPM:161:184;
#BPMS:0=184,175=161.943,177=180;
#BGSTAGE:16;

//--------------- dance-single - XLev450X-bSP ----------------
#NOTES:
     dance-single:
     XLev450X:
     Beginner:
     2:
     0,0,0,0,0:
0000
0000
0000
0000
,
0000
0000
0000
0000
,
0000
0000
0000
0000
,
0000
0000
0000
0000
,
0000
0000
0000
0000
,
0000
0000
0000
0000
,
0000
0000
0000
0000
,
0001
0000
0000
0001
,
0000
0000
0001
0000
,
0000
0000
0000
0000
,
1000
0000
0000
1000
,
0000
0000
1000
0000
,
0000
0000
0000
0000
,
0010
0000
0000
0010
,
0000
0000
0010
0000
,
0000
0000
0000
0000
,
0100
0000
0000
0100
,
0000
0000
0100
0000
,
0000
0000
0000
0000
,
0001
0000
0000
1000
,
0000
0000
0001
0000
,
0000
0000
0000
0000
,
1000
0000
0000
0001
,
0000
0000
1000
0000
,
0000
0000
0000
0000
,
0010
0000
0000
0100
,
0000
0000
0010
0000
,
0000
0000
0000
0000
,
1000
0000
0000
0100
,
0000
0000
1000
0000
,
0000
0000
0000
0000
,
0001
0000
0000
0010
,
0000
0000
0001
0000
,
0000
0000
0000
0000
,
0100
0000
0000
0100
,
0000
0000
0010
0000
,
0000
0000
0000
0000
,
0010
0000
0000
0010
,
0000
0000
0100
0000
,
0000
0000
0000
0000
,
0001
0000
0000
1000
,
0000
0000
0001
0000
,
0000
0000
0000
0000
,
0010
0000
0000
0000
,
0000
0010
0000
0000
,
0010
0000
0000
0010
,
0000
0000
0000
0000
,
0000
0100
0000
0000
,
0100
0000
0000
0100
,
0000
0000
0000
0000
,
0000
0001
0000
0000
,
1000
0000
0000
0001
,
0000
0000
0000
0000
,
0000
0100
0000
0000
,
0010
0000
0000
0100
,
0000
0000
0000
0000
,
0000
1000
0000
0000
,
0100
0000
0000
1000
,
0000
0000
0000
0000
,
0000
0001
0000
0000
,
0010
0000
0000
0001
,
0000
0000
0000
0000
,
0000
0100
0000
0000
,
0010
0000
0000
0100
,
0000
0000
0000
0000
,
0000
1000
0000
0000
,
1000
0000
0000
0100
,
0000
0000
0000
0000
,
0000
0001
0000
0000
,
0000
0000
0000
1000
,
0000
0000
0000
0000
,
0000
0001
0000
0000
,
0000
0000
0000
1001
;

//--------------- dance-single - XLev450X-BSP ----------------
#NOTES:
     dance-single:
     XLev450X:
     Easy:
     5:
     0,0,0,0,0:
0000
0000
0000
0000
,
0000
0000
0000
0000
,
0000
0000
0000
0000
,
0000
0000
0000
0000
,
0000
0000
0000
0000
,
0000
0000
0000
0000
,
0000
0000
0000
0000
,
0001
0010
0001
0000
,
0000
0000
0010
1000
,
0010
0000
0000
0000
,
0100
1000
0100
0000
,
0000
0000
0010
0000
,
0000
0100
0000
0000
,
0001
1000
0001
0000
,
0000
0000
0010
0100
,
0010
0000
0000
0000
,
1000
0100
1000
0000
,
0000
0000
0001
0000
,
0000
1000
0000
0000
,
0010
0000
0000
0100
,
0000
0000
0001
0000
,
0000
0100
0000
0000
,
0001
0000
0000
1000
,
0000
0000
0001
0000
,
0000
0000
0000
0000
,
1000
0000
0000
0010
,
0000
0000
0100
0000
,
0000
0001
0000
0000
,
1000
0000
0000
0010
,
0000
0000
1000
0000
,
0000
0000
0000
0000
,
0001
0000
0000
0100
,
0000
0000
1000
0000
,
0000
0001
0000
0000
,
1000
0000
0000
0010
,
0000
0000
0100
0000
,
0000
0000
0000
0000
,
1000
0000
0000
0010
,
0000
0000
1000
0000
,
0000
0001
0000
0000
,
0100
0000
0000
0010
,
0000
0000
1000
0000
,
0000
0000
0000
0000
,
0001
0000
0000
0000
,
0000
1000
0000
0000
,
0001
0000
0000
1000
,
0000
0000
0010
0000
,
0000
0100
0000
0000
,
1000
0000
0000
0001
,
0000
0000
0010
0000
,
0000
1000
0000
0000
,
0010
0000
0000
0100
,
0000
0000
1000
0000
,
0000
0001
0000
0000
,
1000
0000
0000
0010
,
0000
0000
0100
0000
,
0000
0001
0100
0001
,
1000
0010
1000
0100
,
0001
0010
1000
0000
,
0000
0010
1000
0001
,
0100
0010
1000
0001
,
0010
0100
1000
0000
,
0000
0001
0010
0001
,
0100
1000
0001
0010
,
1000
0100
0001
0010
,
0100
1000
0010
0100
,
0010
1000
0001
1000
,
0000
0000
0001
0000
,
0000
1001
0000
0000
,
0000
0000
0000
1001
,
0000
0000
0000
0000
,
0000
1001
0000
0000
,
0000
0000
0000
1001
;

//--------------- dance-single - XLev450X-DSP ----------------
#NOTES:
     dance-single:
     XLev450X:
     Medium:
     8:
     0,0,0,0,0:
0000
0000
0000
0000
,
0000
0000
0000
0000
,
0000
0000
0000
0000
,
0000
0000
0000
0000
,
0000
0000
0000
0000
,
0000
0000
0000
0000
,
0000
0000
0000
0000
,
0010
1000
0001
0100
,
1000
0010
0100
0001
,
0010
0100
0000
0000
,
0001
1000
0010
1000
,
0100
0010
0001
0010
,
0100
1000
0000
0000
,
0001
1000
0001
0010
,
0100
1000
0001
0010
,
0100
0000
0010
1000
0010
0000
0100
0000
,
0001
0010
0100
1000
,
0001
0010
1000
0100
,
0001
0010
0000
0000
,
0001
1000
0001
0100
,
1000
0001
0100
0010
,
1000
0001
0000
0000
,
0010
1000
0010
0100
,
0001
0010
0100
1000
,
0001
0010
0000
0000
,
1000
1000
0100
0010
,
0000
0000
0001
1000
,
0100
0010
0000
0000
,
0010
1000
0010
0001
,
0000
0000
1000
0001
,
1000
0001
0000
0000
,
0010
1000
0100
0010
,
0001
0010
0100
1000
,
0001
1000
0000
0000
,
0001
1000
0010
1000
,
0100
0010
0001
1000
,
0010
0001
0000
0000
,
0010
0000
0100
0000
1000
0000
0001
1000
,
0001
0010
1000
0100
,
0010
0000
0001
0010
0001
0000
0100
0000
,
1000
0000
0001
0000
1000
0000
0010
1000
,
0010
0100
0001
1000
,
0001
2002
0000
3003
,
0001
0000
0000
1000
,
0000
0001
1000
0010
,
1000
0100
0001
0010
,
0100
1000
0001
1000
,
0010
0100
0001
0010
,
0001
0000
0000
0100
,
1000
0010
1000
0100
,
0001
0000
1000
0001
1000
0000
0010
0000
,
1000
0010
1000
0000
0010
0000
0100
0010
,
0100
0000
0001
0000
0010
0001
0010
0000
,
0001
1000
0001
1000
,
0001
0100
1000
0001
,
0000
1000
0001
0010
,
0100
0000
1000
0010
1000
0000
0010
0000
,
0100
0010
0100
0000
0010
0000
0001
0010
,
0001
0000
0100
0000
0001
1000
0001
0000
,
0010
0000
1000
0010
1000
0000
0010
0000
,
0100
0010
0100
0000
0001
0000
0100
0001
,
0100
0001
1000
0001
,
1000
0001
1000
0001
,
1000
0000
0000
0010
,
1000
0100
0010
0000
,
0000
0001
0100
1000
,
0001
0000
1000
0000
0001
0000
0010
1000
,
0010
0100
0001
0010
0100
1000
0100
0001
,
0010
1000
0002
0000
0000
0000
0000
0000
,
2000
0000
3003
0020
,
0000
0000
0200
0000
,
0330
2000
0000
0000
,
0002
0000
3003
0200
,
0000
0000
0002
0000
,
0000
0303
0000
0000
;

//--------------- dance-single - XLev450X-ESP ----------------
#NOTES:
     dance-single:
     XLev450X:
     Hard:
     13:
     0,0,0,0,0:
0000
0000
0000
0000
,
0000
0000
0000
0000
,
0000
0000
0000
0000
,
0000
0000
0000
0000
,
0000
0000
0000
0000
,
0000
0000
0000
0000
,
0000
0000
0000
0000
,
0001
0000
1000
0000
0010
0000
1000
0010
,
1000
0000
0010
0000
0001
0010
0001
0000
,
0100
0000
1000
0001
1000
0010
0100
1000
,
0001
0000
1000
0000
0010
0100
0010
0000
,
0001
0000
1000
0001
1000
0000
0010
0000
,
1000
0010
0100
0001
0010
0100
1000
0001
,
1000
0000
0001
0000
1000
0001
1000
0000
,
0010
0000
0100
1000
0100
0000
0010
0000
,
0001
0000
1000
0001
1000
0001
1000
0001
,
1000
0000
0010
0000
1000
0100
0010
0000
,
0001
0000
0010
0000
0100
1000
0100
0000
,
0001
0202
0000
0303
,
0001
1000
0001
0010
,
0000
0100
0000
0000
0001
0000
1000
0000
,
0100
0000
1000
0000
0000
0010
0000
0000
,
0100
0001
1000
0001
,
0000
1000
0000
0000
0010
0000
0100
0000
,
0001
0000
1000
0000
0000
0001
0000
0000
,
0100
1000
0010
1000
,
0100
0010
0001
0010
,
0100
1000
0001
1000
,
0010
0000
0100
0000
0001
0000
0100
0001
,
0100
0000
1000
0000
0010
1000
0010
0000
,
0100
0000
0010
0100
0010
0000
0001
0000
,
1000
0001
1000
0010
,
0000
0000
0001
1000
,
0001
0100
1000
0010
,
1000
0010
1000
0000
0001
0000
0100
0001
,
0100
0000
0001
0000
1000
0001
1000
0000
,
0001
0000
0000
0100
0000
0000
1000
0100
0010
0001
0010
0100
,
1000
0000
0000
0001
0000
0000
1000
0000
0000
0010
1000
0001
,
0010
1000
0001
0010
0100
1000
0001
0010
0001
1000
0100
1000
,
0001
1000
0001
0100
0001
1000
0100
0010
0100
0010
0001
0010
,
1000
0000
0001
0000
0100
0010
0100
0000
,
0001
0000
1000
0001
1000
0001
0010
0100
,
1000
0001
0020
0000
0000
0000
0030
0000
,
2002
0000
3003
0220
,
0000
0330
0000
0000
0001
0000
0000
0000
1000
0000
0001
0000
1000
0000
0000
0000
,
0010
0000
0010
1000
0010
0000
0010
0000
,
0100
0010
0100
0000
0001
0000
1000
0000
,
0001
0000
0100
0000
1000
0001
1000
0000
,
0010
0000
1000
0010
0100
0001
0100
0000
,
1000
0000
0001
1000
0001
0000
0010
0000
,
1000
0101
0010
1000
,
1010
0010
0100
1100
,
0010
0001
0011
0001
,
1000
0000
0000
0001
1000
0100
0001
0010
1000
0010
0001
0100
,
1000
0001
0100
1000
0001
0100
0010
1000
0001
0100
0000
0000
,
0001
0000
1000
0000
0010
0100
0010
0000
,
0001
0000
1000
0000
0001
0000
0100
1000
,
0100
0000
0001
0000
0010
0001
0010
0000
,
0100
0000
0010
1000
0010
0000
0101
0000
,
1010
0000
0010
0000
1000
0001
1000
0000
,
0100
0000
1000
0001
1000
0000
0010
0000
,
0100
0100
0010
0000
1001
0000
1010
0000
,
0110
0001
1000
0001
,
1000
0010
1000
0010
0100
0001
0010
0000
,
0100
0000
1000
0000
0001
1000
0001
0000
,
0100
1000
0100
0000
0001
0000
0010
0000
,
1000
0010
0100
0000
0010
0000
0001
0100
,
0001
0010
1000
0001
0100
0010
1000
0001
,
0010
0100
2000
0000
0000
0000
0000
0000
,
0002
0000
3003
0200
,
0000
0000
0020
0000
,
0330
0002
0000
0000
,
2000
0000
3003
0020
,
0000
0000
0200
0000
,
0000
0330
0000
0000
;
