#TITLE:Too Proud (L1 Remix);
#ARTIST:宇多田ヒカル feat. XZT, Suboi, EK;
#ARTISTTRANSLIT:Hikaru Utada feat. XZT, Suboi, EK;
#GENRE:J-POP;
#MUSIC:Too Proud (L1 Remix).ogg;
#BANNER:Too Proud (L1 Remix).png;
#BACKGROUND:Too Proud (L1 Remix)-bg.png;
#SAMPLESTART:2.138;
#SAMPLELENGTH:15;
#OFFSET:-0.083;
#BPMS:0=146
,69=292
,77=146;
#BGSTAGE:4;

//--------------- dance-single - XLev450X-bSP ----------------
#NOTES:
     dance-single:
     XLev450X:
     Beginner:
     2:
     0,0,0,0,0:
0000
0000
0000
0000
,
0000
0000
0000
0000
,
0000
0000
0000
0000
,
0000
0000
0000
0000
,
0000
0000
0000
0000
,
0000
0000
0000
0000
,
0000
0000
0000
0000
,
0000
0000
0000
0000
,
0000
0000
0000
0000
,
0000
0001
0000
1000
,
0000
0001
0000
0000
,
0000
0010
0000
0100
,
0000
0010
0000
0000
,
0000
0001
0000
1000
,
0000
0010
0000
0000
,
0000
0100
0000
0001
,
0000
0100
0000
0010
,
0000
2002
0000
0000
,
0000
0000
0000
0000
0000
0000
0000
3003
,
0000
0001
0001
0001
,
0000
0000
0000
0000
,
0000
1000
1000
1000
,
0000
0000
0000
0000
,
0000
0010
0100
0010
,
0000
0000
0000
0000
,
0000
0100
0001
0100
,
0000
0000
0000
0000
,
0000
0010
1000
0010
,
0000
0100
0000
0001
,
0000
0010
1000
0001
,
0000
0100
0000
0010
,
0000
0001
0000
1000
,
0000
0010
0000
0000
,
0000
0100
0000
0001
,
0000
1000
0000
0000
,
0000
0010
1000
0100
,
0000
0001
0000
0100
,
0000
0010
0100
0001
,
0000
1000
0000
0001
,
0000
0010
0100
0001
,
0000
1000
0000
0010
,
0000
0100
0001
1000
,
0000
0010
0000
1000
,
0000
0100
0100
0100
,
0000
0001
0000
0010
,
0000
0001
1000
0010
,
0000
1000
0000
0100
,
0000
0001
1000
0010
,
0000
0100
0000
0001
,
0000
2002
0000
0000
,
0000
0000
0000
0000
,
3003
0010
0100
0001
,
0000
1000
0000
0001
,
0000
0010
0100
0001
,
0000
1000
0000
0010
,
1001
0000
0000
0000
;

//--------------- dance-single - XLev450X-BSP ----------------
#NOTES:
     dance-single:
     XLev450X:
     Easy:
     6:
     0,0,0,0,0:
0000
0000
0000
0000
,
0000
0000
0000
0000
,
0000
0000
0000
0000
,
0000
0000
0000
0000
,
0000
0000
0000
0000
,
0000
0000
0000
0000
,
0000
0000
0000
0000
,
0000
0000
0000
0000
,
0000
0000
0000
0000
,
0000
0001
1000
0001
,
0000
0010
0100
0020
,
0030
1000
0100
0001
,
1000
0010
0100
0002
,
0003
1000
0001
0200
,
0300
0010
1000
0002
,
0003
0010
0100
0001
,
1000
0010
0100
0001
,
1000
2002
0000
0000
,
0000
0000
0000
0000
0000
0000
0000
3003
,
0000
0010
0010
2000
,
3000
0100
0100
0002
,
0003
1000
0010
0200
,
0300
0001
0100
0020
,
0030
0001
1000
0020
,
0030
0100
0001
0020
,
0030
0001
1000
0001
,
0100
0020
0030
2000
,
3000
0010
0001
0020
,
0030
1000
0100
2000
,
3000
0010
0100
0001
,
1000
0020
0030
0200
,
0300
0001
1000
0020
,
0030
1000
0010
0200
,
0300
0000
2002
0000
0000
0000
0000
3003
,
0000
0220
0000
0000
,
0330
0001
1000
0020
,
0030
1000
0001
0200
,
0300
0000
0010
0000
1000
0000
0001
0100
,
0001
0010
1000
0020
,
0030
0100
1000
0020
,
0030
0100
0001
0020
,
0030
1000
0001
0100
,
0010
0000
1000
0000
0100
0000
0001
1000
,
0010
0200
0300
0002
,
0003
0000
0100
0000
0010
0000
1000
0010
,
1000
0100
0001
0020
,
0030
0100
0001
2000
,
3000
0200
0300
0020
,
0030
0001
1000
0020
,
0030
2002
3003
0220
,
0330
0000
2020
3030
0202
0303
0220
0330
,
2002
3003
0010
0000
1000
0000
0002
0000
,
0003
0000
0100
0000
0010
0000
1000
0001
,
0100
0010
1000
0002
,
0003
0000
0100
0000
0010
0000
1000
0001
,
0110
0000
0000
0000
;

//--------------- dance-single - XLev450X-DSP ----------------
#NOTES:
     dance-single:
     XLev450X:
     Medium:
     8:
     0,0,0,0,0:
0000
0000
0000
0000
,
0000
0000
0000
0000
,
0000
0000
0000
0000
,
0000
0000
0000
0000
,
0000
0000
0000
0000
,
0000
0000
0000
0000
,
0000
0000
0000
0000
,
0000
0000
0000
0000
,
0000
0000
0000
0000
,
0000
0001
1000
0010
,
0100
0002
0003
1000
,
0010
0000
0200
0000
0000
0300
0002
0000
,
0003
1000
0010
0100
,
0001
1000
0010
0000
0100
0000
0001
0000
,
1000
0000
0010
0001
0010
0000
0100
0010
,
1000
0001
0100
0010
,
1000
0000
0001
0100
0010
1000
0001
0000
,
0100
2002
0000
0000
,
0000
0000
0000
0000
,
3003
0000
0001
1000
0001
0000
0010
0100
,
0010
0001
0100
0020
,
0030
0000
0010
1000
0010
0000
0100
0001
,
0100
0010
0100
0002
,
0003
1000
0010
1000
,
0000
0100
0001
0100
,
0000
0010
1000
0010
,
0100
0000
0001
0000
1000
0000
0010
0100
,
0001
1000
0010
0100
,
0000
0000
0001
0000
1000
0000
0010
0100
,
0001
1000
0010
0100
,
0000
0000
0001
0000
1000
0000
0010
0100
,
0001
1000
0010
0000
0100
0000
0001
0000
,
0000
0000
1000
0000
0010
0000
0100
0001
,
1000
0010
1001
0000
0000
0110
0000
0000
,
1001
0001
1000
0010
,
1000
0001
1000
0010
,
0100
0001
0000
1000
0000
0010
0100
0001
,
1000
0010
0100
0002
,
0003
2000
3000
0020
,
0030
0000
0100
0000
0001
0000
1000
0010
,
0100
0001
1000
0020
,
0030
0001
0100
0001
,
1000
0020
0030
0200
,
0300
0000
0001
1000
0010
0000
0100
0000
,
0001
0000
0100
0001
0100
0000
0010
0000
,
1000
0000
0010
1000
0010
0000
0100
0001
,
0100
0010
0100
0002
,
0003
0000
1000
0001
0010
0000
0100
0000
,
0001
0000
0100
0010
1000
0000
0001
0000
,
0100
0000
2002
3003
0220
0000
0000
0000
,
0330
0000
2002
3003
2020
3030
0202
0303
,
2020
3030
0001
0100
0010
1000
0001
0000
,
0100
0000
0001
0100
0010
0000
1000
0001
,
0100
0000
0010
0000
1000
0000
0001
0100
,
0010
0000
1000
0001
0100
0010
1000
0000
,
0101
0000
0000
0000
;

//--------------- dance-single - XLev450X-ESP ----------------
#NOTES:
     dance-single:
     XLev450X:
     Hard:
     11:
     0,0,0,0,0:
0000
0000
0000
0000
,
0000
0000
0000
0000
,
0000
0000
0000
0000
,
0000
0000
0000
0000
,
0000
0000
0000
0000
,
0000
0000
0000
0000
,
0000
0000
0000
0000
,
0000
0000
0000
0000
,
0000
0000
0000
0000
,
0000
0001
1000
0010
,
0100
0001
1000
0010
,
0100
0001
1000
0010
,
0100
0000
0000
0000
0001
0000
0000
0000
1000
0000
0000
0000
0010
0000
0000
0100
,
0001
0000
1000
0010
0100
0000
0000
0000
0001
0000
0000
0000
1000
0000
0000
0000
,
0010
0100
0001
1000
,
0010
0000
0001
1000
0010
0100
0001
1000
,
0010
0000
0100
0000
0001
1000
0010
1000
0100
0001
0010
1000
0010
1000
0100
0001
,
1000
0100
0010
0100
0002
0000
0000
0000
0000
0000
0000
0000
0000
0000
0000
0000
,
0000
0000
0000
0000
,
0003
0000
0001
1000
0010
0000
0100
0000
,
0001
0000
0100
0001
0100
0010
1000
0000
,
0100
0000
0010
0001
0010
0000
1000
0010
,
1000
0000
0100
0001
1000
0010
0100
0000
,
0001
0000
1000
0010
0100
0001
1000
0000
,
0010
0000
0001
0100
0010
1000
0001
0000
,
0100
0000
0000
0000
0002
0000
0000
0003
0000
0000
2000
0000
0000
0000
3000
0000
,
0010
0100
0001
2020
,
0000
3030
0001
0100
0010
1000
0001
0000
,
0100
0000
0010
0001
0010
0000
0100
1000
,
0100
0000
0010
1000
0001
0100
0010
0000
,
1000
0000
0001
0100
0010
1000
0001
0000
,
0100
0010
1000
0001
,
0100
0000
0010
0001
0010
0000
0100
1000
,
0100
0000
0000
0000
2002
0000
0000
3003
0000
0000
0220
0000
0000
0330
0000
0000
,
1001
0010
0100
0001
,
1000
0010
0100
0001
,
1000
0010
0000
0100
0000
0001
1000
0010
,
0100
0001
1000
0000
0010
0000
0100
0000
,
0001
1000
0000
0010
0000
0100
0001
1000
,
0010
0000
0000
0000
0100
1000
0000
0000
0001
0100
0000
0000
0010
0100
0000
0000
,
0010
0001
0000
0000
0100
1000
0000
0000
0100
0001
0000
0000
1000
0000
0010
0000
,
0100
0000
0000
0000
0001
0010
0000
0000
1000
0100
0000
0000
0010
0001
0000
0000
,
0001
1000
0000
0000
1000
0100
0000
0000
0010
0001
0000
0000
0100
0000
0001
0000
,
1000
0000
0000
0000
0010
0000
1000
0001
0100
0000
0001
0000
0010
0000
0001
0000
,
1000
0000
0000
0000
0010
0000
0100
0001
1000
0000
0010
0000
0100
1000
0001
0000
,
1000
0000
0000
0000
0010
0000
0001
1000
0100
0000
0010
0000
0100
0000
0001
0000
,
1000
0000
0000
0000
0100
1000
0001
0000
1000
0000
0010
0000
0100
0000
0001
0000
,
0010
0000
0000
0101
0000
0000
0010
0000
0000
0010
1000
0001
,
0100
0000
0000
0101
0000
0001
1000
0001
0010
0100
0010
0001
,
0100
0000
0000
0220
0000
0000
0330
0000
0000
1000
0001
0100
,
0010
0000
0000
0001
0100
0010
1000
0001
0100
0010
0100
0001
,
0020
0000
0030
0001
0000
0000
1000
0000
0000
0010
0000
0000
,
0000
0100
0000
0001
0000
1000
0000
0010
,
0100
0001
1000
0010
,
0000
0100
0000
0001
0000
1000
0000
0010
,
1001
0000
0000
0000
;

//--------------- dance-single - XLev450X†-CSP ----------------
#NOTES:
     dance-single:
     XLev450X†:
     Challenge:
     15:
     0,0,0,0,0:
0000
0000
0000
0000
,
0000
0000
0000
0000
,
0000
0000
0000
0000
,
0000
0000
0000
0000
,
0000
0000
0000
0000
,
0000
0000
0000
0000
,
0000
0000
0000
0000
,
0000
0000
0000
0000
,
0000
0000
0000
0000
,
0000
1000
0001
1000
,
0010
0100
0010
0000
0001
0000
0010
0000
,
1000
0001
0100
0010
1000
0000
0001
0000
,
1000
0000
0000
0000
0010
0000
1000
0000
0001
0000
0000
0000
0100
0000
0000
0001
,
1000
0000
0100
0010
0001
0000
1000
0000
0010
0000
1000
0000
0010
0000
0000
0000
,
0100
0000
0001
1000
0010
0000
1000
0000
,
0010
0000
1000
0001
0100
0000
0010
1000
,
0001
0000
1000
0000
0010
0100
0000
0001
1000
0000
0100
0000
0010
0001
1000
0001
,
0100
0010
0001
1000
0020
0000
0000
0000
0000
0000
0000
0000
0000
0000
0000
0000
,
0000
0000
0000
0000
,
0000
0000
0000
0000
0000
0000
0030
0000
0000
0000
0000
0000
0010
0000
0000
0001
0000
0000
0000
0000
0000
0000
0000
0000
0100
0000
0000
0001
0000
0000
0000
0000
0000
0000
0000
0000
1000
0000
0000
0100
0000
0000
0000
0000
0001
0000
0000
0000
,
0100
0000
0000
0000
0010
0000
0000
0000
0100
0000
0000
0000
0001
0000
0000
0000
1000
0000
0000
0000
0100
0000
0000
0000
0010
0000
0000
0000
0001
0000
0000
0000
0010
0000
0000
0000
0100
0000
0000
0000
0000
0000
0010
0000
0000
1000
0000
0000
,
0010
0000
0000
1000
0000
0000
0001
0000
1000
0000
0100
0000
1000
0000
0001
0000
0100
0000
0001
0000
1000
0000
0100
0000
,
0010
0001
1000
0010
0100
0001
0010
0100
1000
0001
0000
0000
,
1000
0000
0001
0000
0100
0010
0000
0100
0000
0000
0010
0000
0000
0000
0010
0000
,
1000
0000
0001
0000
1000
0001
0000
0100
0000
0010
0100
0000
1000
0000
0001
0000
,
1000
0000
0010
0000
0001
0010
0000
0100
0000
0000
1000
0000
0010
0000
0100
0000
,
0001
0000
1000
0000
0001
0010
0000
1000
0000
0000
0100
0000
0010
0000
0000
0000
,
0011
0000
0000
0001
0010
0001
0100
0010
1000
0100
0010
0100
,
0010
0001
0010
0100
1000
0001
0010
0001
1000
0100
0000
0000
,
1001
0000
0000
0100
0010
0001
1000
0010
0100
0011
0000
0000
,
1100
0000
0000
0010
0100
0001
0010
0001
0100
0010
0000
0000
,
1010
0000
0000
0000
0000
0000
0000
0000
0000
0000
0000
0000
0010
0000
0000
0000
1000
0000
0000
0000
0001
0000
0000
0000
0100
0000
0000
0000
0010
0000
0000
0000
0100
0000
0000
0000
0011
0000
0000
0000
0000
0000
0000
0000
0000
0110
0000
0000
,
0000
0000
0000
0000
0000
0000
0000
0000
0000
0000
0000
0000
0100
0000
0000
0000
1000
0000
0000
0000
0010
0000
0000
0000
0100
0000
0000
0000
0001
0000
0000
0000
1000
0000
0000
0000
0101
0000
0000
0000
0000
0000
0000
0000
0000
1010
0000
0000
,
0000
0000
0000
0000
0010
0000
0001
0000
0000
0000
1000
0000
0100
0000
0000
0010
,
0000
0001
0000
1000
0001
0100
0010
0000
,
1001
0000
0000
0010
1000
0100
1000
0100
0010
0001
0100
0001
,
1000
0000
0000
0010
0100
0001
1000
0010
0100
0001
1000
0100
,
0010
0000
0000
0001
0100
0001
0010
0001
0100
0010
0100
0001
,
1000
0000
0000
0100
1000
0001
1000
0001
0100
0010
1000
0100
,
0010
0000
0000
0001
0010
0000
1000
0100
0000
0010
0100
0000
,
0100
0000
1000
0000
0000
0000
0001
0000
0100
0000
0000
0000
0001
0000
0000
1000
0000
0000
0100
0000
0000
0000
0000
0000
,
0110
0000
0000
1000
0001
0000
0100
1000
0000
0001
0010
0000
,
0100
1000
0000
0010
0100
0000
0001
0010
0000
1100
0000
0000
,
0110
0000
0000
0000
0010
0000
0100
0001
1000
0000
0001
0010
1000
0000
0110
0000
,
1001
0000
0000
0000
0010
0001
0010
0000
1000
0000
0100
0000
0001
0000
1000
0001
,
0100
0000
0000
0000
0010
0001
0010
0000
1000
0000
0100
0000
0010
0000
0001
0100
,
1000
0000
0000
0000
0010
0100
0010
0000
1000
0000
0001
1000
0010
0000
1100
0000
,
0011
0000
0000
2002
0000
0000
3003
0000
0000
0001
0100
0010
,
1000
0000
0000
0110
0000
0001
0100
0010
1000
0001
0010
0100
,
0010
0001
0000
1100
0000
0000
0110
0000
0000
0100
0010
0001
,
0010
0000
0000
0010
0100
0001
0010
0001
1000
0100
1000
0001
,
1000
0110
0001
0000
1000
0000
0010
0000
,
1000
0010
0000
0100
0000
0001
0000
1000
,
0001
0100
0010
0000
1000
0000
0010
0000
,
0000
0100
0000
0001
0000
1000
0000
0010
,
0110
0000
0000
0000
;
