#TITLE:Tonight is a mess;
#ARTIST:Dexter Manning;
#GENRE:CHILL BEATS;
#MUSIC:Tonight is a mess.ogg;
#BANNER:Tonight is a mess.png;
#BACKGROUND:Tonight is a mess-bg.png;
#SAMPLESTART:65.254;
#SAMPLELENGTH:15;
#OFFSET:-0.054;
#BPMS:0=150;
#BGSTAGE:30;

//--------------- dance-single - XLev450X-bSP ----------------
#NOTES:
     dance-single:
     XLev450X:
     Beginner:
     1:
     0,0,0,0,0:
0000
0000
0000
0000
,
0000
0000
0000
0000
,
0000
0000
0000
0000
,
0000
0000
0000
0000
,
0000
0000
0000
0000
,
0000
0000
0000
0000
,
0000
0000
0000
0000
,
0000
0000
0000
0000
,
0000
0000
0000
1001
,
0000
0000
0000
0000
,
0000
0000
0000
0000
,
0000
0000
0000
0000
,
0000
0000
0000
0110
,
0000
0000
0000
0000
,
0000
0000
0000
1000
,
0000
0000
0000
0001
,
0000
0000
0000
0001
,
0000
0010
0000
0100
,
0000
0000
0000
1000
,
0000
0001
0000
0100
,
0000
0000
0000
0010
,
0000
1000
0000
0001
,
0000
0000
0000
1000
,
0000
0001
0000
0010
,
0000
0000
0000
0010
,
0000
1000
0000
0000
,
0000
0000
0000
0010
,
0000
0001
0000
0000
,
0000
0000
0000
0100
,
0000
1000
0000
0000
,
0000
0000
0000
0100
,
0000
0001
0000
0000
,
0000
0000
0000
1001
,
0000
0000
0000
0000
,
0000
0000
0000
0000
,
0000
0000
0000
0000
,
0000
0000
0000
0110
,
0000
0000
0000
0000
,
0000
0000
0000
1100
,
0000
0000
0000
0000
,
0000
0000
0000
0001
,
0000
1000
0000
0010
,
0000
0000
0000
1000
,
0000
0001
0000
0100
,
0000
0000
0000
0010
,
0000
1000
0000
0010
,
0000
0000
0000
0100
,
0000
1000
0000
0001
,
0000
0000
0000
0100
,
0000
0100
0000
0100
,
0000
0000
0000
0010
,
0000
0010
0000
0010
,
0000
0000
0000
1000
,
0000
0001
0000
1000
,
0000
0000
0000
1001
;

//--------------- dance-single - XLev450X-BSP ----------------
#NOTES:
     dance-single:
     XLev450X:
     Easy:
     4:
     0,0,0,0,0:
0000
0000
0000
0000
,
0000
0000
0000
0000
,
0000
0000
0000
0000
,
0000
0000
0000
0000
,
0000
0000
0000
0000
,
0000
0000
0000
0000
,
0000
0000
0000
0000
,
0000
0000
0000
0000
,
0000
0000
0000
0001
,
0000
1000
0000
0100
,
0000
0000
0000
0010
,
0000
0100
0000
0010
,
0000
0000
0000
0001
,
0000
1000
0000
0001
,
0000
0000
0000
1000
,
1000
1000
0000
0020
,
0000
0000
0030
0001
,
0001
1000
0010
0100
,
0000
1000
0000
0100
,
1000
0001
0100
0010
,
0000
1000
0000
0010
,
1000
0010
0001
0100
,
0000
0001
0000
1000
,
0001
0100
1000
0010
,
0100
0010
0000
0001
,
1000
0001
0000
0100
,
1000
0100
0000
0010
,
0001
0010
0000
1000
,
0001
0100
0000
1000
,
0001
0100
1000
0010
,
0000
1000
0000
0100
,
0001
0010
0100
1000
,
0010
0100
0010
2002
,
0000
0000
0000
0000
,
0000
0000
3003
2200
,
0000
0000
0000
0000
,
0000
0000
3300
0022
,
0000
0000
0000
0000
,
0000
0000
0033
0120
,
0000
0000
0000
2000
,
0000
0000
3030
0001
,
1000
0010
0100
0001
,
0000
1000
0000
0100
,
1000
0010
0100
1000
,
0010
1000
0000
0010
,
0100
1000
0000
0010
,
0100
0010
0000
0001
,
1000
0001
1000
0010
,
0100
0010
0000
1000
,
0010
1000
0001
0100
,
0000
0001
0000
0100
,
1000
0010
0000
1000
,
0010
0100
0000
0001
,
1000
0001
0010
1000
,
0001
0010
0100
2002
,
0000
0000
0000
0000
0000
3003
0220
0000
,
0000
0000
0000
0000
0000
0000
0000
0000
0330
0000
0000
0000
;

//--------------- dance-single - XLev450X-DSP ----------------
#NOTES:
     dance-single:
     XLev450X:
     Medium:
     8:
     0,0,0,0,0:
0000
0000
0000
0000
,
0000
0000
0000
0000
,
0000
0000
0000
0000
,
0000
0000
0000
0000
,
0000
0000
0000
0000
,
0000
0000
0000
0000
,
0000
0000
0000
0000
,
0000
0000
0000
0000
,
0000
0000
0000
0001
,
0000
1000
0000
0010
,
0000
0000
0000
0100
,
0000
0001
0000
1000
,
0000
0000
0000
0000
0001
1000
0010
0000
,
0000
0100
0000
1000
,
0000
0000
0000
0000
0000
0001
1000
0000
,
0010
0000
0100
1000
0001
0000
0000
0000
,
0100
1000
0000
0001
0000
0000
0010
0001
,
0010
1000
0000
0100
1000
0000
0001
0100
,
1000
0000
0001
0000
0100
0000
0010
0000
1000
0000
0000
0000
0001
0000
0000
1000
,
0000
0010
0100
0000
0001
0000
1000
0100
,
1000
0100
0000
0101
0101
0000
1000
0000
,
0100
1000
0000
0001
0010
0000
0100
1000
,
0001
0100
0010
1000
0001
0000
0011
0000
,
0000
1100
0000
0000
0110
0000
0001
0010
,
1000
0001
0100
0010
2000
3000
0001
0000
,
1000
1000
0000
0001
0100
0000
0001
0000
,
1000
0000
0000
0000
0010
0000
1000
0000
0010
0000
0000
0000
0100
0000
0000
0001
,
0000
0000
1000
0000
0000
0010
0000
0000
0100
0000
0000
0000
0001
0000
1000
0000
,
0100
0001
0000
1000
0010
0000
1000
0000
,
0100
0001
0000
0010
0100
0000
1000
0001
,
0100
0010
1000
0001
0010
0000
0001
0010
,
0001
0000
1000
0100
1000
0000
0010
1000
,
0001
0000
0100
0000
0010
0000
1000
0100
0002
0000
0000
0003
2000
0000
0000
0000
,
0100
0100
3100
0020
,
0001
0001
0031
0200
,
0010
0010
0310
2000
,
0001
0000
0010
0000
3001
0000
0100
1000
,
0100
0000
0001
0010
0001
0000
0100
1000
,
0001
0100
0010
1000
0001
0000
1002
0000
,
0000
0000
0000
0200
,
0000
0000
0303
0001
,
1000
0000
0010
1000
0100
0000
0001
0000
,
1000
0000
0000
0000
0010
0000
1000
0000
0100
0000
0000
0000
0001
0000
0000
1000
,
0000
0000
0010
0000
0000
0100
0000
0000
0001
0000
0000
0000
1000
0000
0100
0000
,
1000
0100
0000
0010
1000
0000
0010
0000
,
0100
1000
0000
0010
1000
0000
0001
0000
,
0100
0000
0010
1000
0001
0000
0011
0000
,
0000
1100
0000
0000
0110
0000
0000
0000
,
1000
0000
0001
1000
0001
0000
0010
0000
,
1000
0000
0100
1000
0100
0000
0001
0000
,
0010
0000
0100
1000
0001
0000
0010
0000
,
0000
1000
0000
0000
0100
0000
0001
0000
,
1000
0001
0000
1000
0010
0000
0100
0000
,
1000
0010
0000
1000
0100
0000
0001
1000
,
0010
0100
0010
1000
0001
0000
2002
0000
,
0000
0000
0000
0000
0000
3003
0220
0000
,
0000
0000
0000
0000
0000
0000
0000
0000
0330
0000
0000
0000
;

//--------------- dance-single - XLev450X-ESP ----------------
#NOTES:
     dance-single:
     XLev450X:
     Hard:
     11:
     0,0,0,0,0:
0000
0000
0000
0000
,
0000
0000
0000
0000
,
0000
0000
0000
0000
,
0000
0000
0000
0000
,
0000
0000
0000
0000
,
0000
0000
0000
0000
,
0000
0000
0000
0000
,
0000
0000
0000
0000
,
0000
0000
0000
0001
,
0000
0000
1000
0000
0100
1000
0000
0010
,
0100
0001
1000
0010
0100
0000
0011
0000
,
0000
1100
0000
0000
1010
0000
0000
0001
,
0010
1000
0001
0000
0001
1000
0010
0000
,
0000
0100
0000
1000
0001
0000
0000
1000
,
0010
0100
1000
0000
0001
1000
0001
0000
,
0100
0000
1000
0001
0100
0000
0000
0000
,
0100
1000
0100
0000
0001
0010
0100
1000
0210
0000
0300
0000
0001
0000
0000
0000
,
1000
0000
0100
0000
1000
0100
0001
0000
0010
0000
0000
0000
0001
0000
0000
0000
,
0011
0000
0000
0000
1000
0000
0001
1000
0100
0000
0000
0000
0001
0000
0000
1000
,
0000
0000
0010
0000
0000
0100
0000
0000
0001
0000
0000
0000
0001
0000
0000
0000
,
0100
1000
0000
0010
1000
0010
1000
0000
,
0001
1000
0000
0010
0100
0010
0001
0000
,
0100
0000
0000
0000
1000
0000
0010
0000
0100
0000
0000
0000
1000
0000
0000
0001
,
0000
0000
0100
0000
0000
1000
0000
0000
0001
0000
0000
0000
0010
0000
1000
0000
,
0001
0010
1000
0010
0200
0300
0001
0000
,
1000
0010
1000
0010
0100
0000
0001
0010
,
0001
0000
1000
0000
0001
0000
0100
0000
0011
0000
0000
0000
1000
0000
0000
0010
,
0000
0000
1000
0000
0000
0001
0000
0000
0100
0000
0000
0000
0001
0000
1000
0000
,
0010
1000
0000
0001
0100
0001
1000
0000
,
0010
1000
0000
0010
0100
0000
1000
0000
,
0011
0000
1100
0000
1001
0000
0010
1000
,
0001
0000
0010
0000
0000
0000
1000
0000
0001
0000
0000
0000
0001
0010
0001
0000
,
1000
0100
1000
0000
0010
0001
1000
0100
0020
0000
0000
0030
0001
0000
0000
0000
,
1000
0000
0100
0000
1000
0000
0010
0001
,
0100
1000
0001
0100
0010
0000
1000
0000
,
0100
0000
1000
0010
1000
0001
0000
0010
,
0100
0001
1000
0000
0011
0000
1100
0000
,
0001
1000
0000
0010
1000
0100
1000
0000
,
0001
0010
0100
0001
1000
0010
0200
0000
,
0000
0000
0000
0020
,
0000
0000
0330
1001
,
0010
0000
0001
0100
1000
0000
0000
0000
0010
0000
0000
0000
0101
0000
0000
0000
,
1010
0000
0000
0000
0010
1000
0000
0000
0010
0000
0000
0000
0001
0000
0000
1000
,
0000
0000
0001
0000
0000
0100
0000
0000
0010
0000
0000
0000
1000
0000
0000
0000
,
0001
0010
0000
1000
0001
0000
1000
0000
,
0010
0001
0000
0100
1000
0000
0101
0000
,
1010
0000
0000
0000
0010
0000
0100
0000
0001
0000
0000
0000
1000
0000
0000
0010
,
0000
0000
0100
0000
0000
0001
0000
0000
1000
0000
0000
0000
0010
0000
0000
0000
,
0100
1000
0000
0001
0010
0000
0100
0000
,
1000
0000
0001
0100
1000
0000
1000
0000
0010
0000
0000
0000
0100
0000
0000
0000
,
0001
0000
0000
0000
0100
0001
0100
0010
1000
0000
0000
0000
0010
0000
0000
0100
,
0000
0000
0001
0000
0000
1000
0000
0000
0010
0000
0000
0000
0001
0000
0000
0000
,
1000
0010
0000
0100
0001
0000
0010
0000
,
1000
0000
0000
0000
0001
0000
0010
0000
1000
0000
0000
0000
0010
0000
0001
1000
,
0001
0100
0001
1000
0001
0000
2020
0000
,
0000
0000
0000
0000
0000
3030
0202
0000
,
0000
0000
0000
0000
0000
0000
0000
0000
0303
0000
0000
0000
;

//--------------- dance-single - XLev450X†-CSP ----------------
#NOTES:
     dance-single:
     XLev450X†:
     Challenge:
     13:
     0,0,0,0,0:
0000
0000
0000
0000
,
0000
0000
0000
0000
,
0000
0000
0000
0000
,
0000
0000
0000
0000
,
0000
0000
0000
0000
,
0000
0000
0000
0000
,
0000
0000
0000
0000
,
0000
0000
0000
0000
,
0000
0000
0000
0001
,
0100
0000
1000
0000
0010
0100
0000
0001
,
0010
0000
0100
0000
1000
0000
0001
0000
1000
0000
0010
0000
0001
0000
0000
0100
,
0000
0000
0001
0000
0000
0100
0000
0000
0010
0000
0000
0000
1000
0000
0010
0000
,
0000
0000
0001
0000
0010
0000
0001
0000
0010
0001
0010
0100
1000
0000
0000
0000
,
0001
0010
0000
1000
0001
0000
0100
0010
,
0000
0000
0001
0000
0000
0000
1000
0000
0010
0000
0000
0100
1000
0000
0100
0000
,
0001
0000
1000
0000
0001
0010
0000
0000
1000
0100
0000
0001
0000
0000
0100
0000
,
0010
0000
1000
0000
0100
0000
0001
1000
0100
0010
0001
1000
0001
0000
0000
0000
,
0010
0000
1000
0000
0010
0000
0000
0000
0001
0100
1000
0000
0001
0000
0100
0000
,
1000
0010
1000
0000
0010
0100
0010
0000
0001
0000
1000
0010
0100
0000
0000
0001
,
0000
0000
0100
0000
0000
0010
0000
0000
1000
0000
0000
0000
0001
0000
1000
0000
,
0010
0000
0100
0000
0000
0000
0001
0000
0010
0100
1000
0100
0010
0000
0001
0000
,
0100
1000
0000
0001
1000
0001
0100
1000
,
0010
0000
0100
0000
0000
0000
0001
0000
0010
0000
0000
0000
0010
0000
0000
0001
,
0000
0000
1000
0000
0000
0100
0000
0000
0001
0000
0000
0000
0001
0010
0100
1000
,
0100
0010
0001
0010
0100
1000
0100
0010
0002
0000
0003
0000
0010
0000
0000
0000
,
1000
0001
0000
0010
0100
1000
0011
0000
,
1100
0000
0000
0000
0010
0000
1000
0000
0010
0000
0000
0000
0001
0000
0000
1000
,
0000
0000
0010
0000
0000
0100
0000
0000
1000
0000
0000
0000
0001
0000
0010
0000
,
1000
0000
0001
0000
0000
0000
0100
0000
1000
0000
0010
1000
0001
0000
0000
0000
,
0100
1000
0001
0010
1000
0000
0001
0000
,
1000
0000
0010
1000
0010
0000
0001
0100
,
1000
0001
0100
0010
1000
0000
0010
1000
,
0010
0000
0100
0000
0001
0100
1000
0100
0010
0001
0100
1000
0020
0000
0000
0000
,
0100
0100
0130
0002
,
1000
0000
1000
0000
1003
0000
0010
0001
,
0010
0001
0000
0100
1000
0100
0000
0001
,
1000
0000
0010
0000
0100
0000
0001
0100
1000
0000
0010
0000
0000
0000
0001
0000
,
1000
0100
0000
0010
1000
0100
0000
0010
,
1000
0001
0100
1000
0001
0010
0001
0000
,
0000
1000
0000
0000
0010
0000
0200
0000
,
0010
0000
0000
0000
0000
0000
0300
0000
0001
0010
0100
1000
0100
0000
0000
0000
,
1000
0010
0100
1000
0010
0001
0011
0000
,
1100
0000
0000
0000
0010
0000
0100
0000
1000
0000
0000
0000
0001
0000
0000
1000
,
0000
0000
0010
0000
0000
0100
0000
0000
1000
0000
0000
0000
0001
0000
1000
0000
,
0001
0000
0100
0000
0000
0000
0010
0000
1000
0000
0001
0010
0100
0000
0000
0000
,
0100
0010
0000
0010
1000
0001
0010
0000
,
0100
0000
0000
0000
1000
0000
0000
0000
0001
0000
0000
0000
0100
0000
0000
1000
,
0000
0000
0001
0100
0000
1000
0000
0000
0100
0000
0000
0000
0010
0000
0100
0000
,
1000
0000
0001
0000
0010
0000
0100
0001
0100
0010
1000
0100
0001
0000
0000
0000
,
0100
1000
0000
0010
0001
0010
1000
0000
,
0011
0000
0000
0000
1000
0100
0010
0001
0010
0000
0000
0000
0001
0000
0000
1000
,
0000
0000
0010
0000
0000
0100
0000
0000
1000
0000
0000
0000
0001
0000
0100
0000
,
1000
0000
0010
0000
0000
0000
1000
0000
0001
0000
0001
0010
0100
1000
0100
0010
,
0001
1000
0000
0001
0010
0001
0011
0000
,
1100
0000
0000
0000
0010
0100
1000
0100
0001
0010
0100
1000
0020
0000
0000
0000
,
0000
0000
0000
0200
,
0000
0000
0000
0000
0000
0000
0000
0000
0330
0000
0000
0000
;
