#TITLE:The Weekend;
#ARTIST:Michael Gray;
#MUSIC:The Weekend.ogg;
#BANNER:The Weekend.png;
#BACKGROUND:The Weekend-bg.png;
#SAMPLESTART:45.915;
#SAMPLELENGTH:15;
#OFFSET:0.62;
#BPMS:0=127;
#BGSTAGE:17;

//--------------- dance-single - XLev450X -誕生日--bSP ----------------
#NOTES:
     dance-single:
     XLev450X -誕生日-:
     Beginner:
     2:
     0,0,0,0,0:
0000
0000
0000
0000
,
0000
0000
0000
0000
,
0000
0000
0000
0000
,
0000
0000
0000
0000
,
0000
0000
0000
0000
,
0001
0000
1000
0000
,
0001
0000
0000
0000
,
0010
0000
0100
0000
,
0010
0000
0000
0000
,
1000
0000
1000
0000
,
1000
0000
0000
0000
,
0001
0000
0001
0000
,
0001
0000
0000
0000
,
0010
0000
0010
0000
,
0010
0000
0000
0000
,
0100
0000
0100
0000
,
0100
0000
0000
0000
,
1000
1000
0000
0000
,
0010
0010
0000
0000
,
0100
0100
0000
0000
,
0001
0001
0000
0000
,
0001
0010
0000
0000
,
1000
0100
0000
0000
,
0010
0100
0000
0000
,
0001
1000
0000
0000
,
0001
0000
1000
0000
,
0001
0000
0010
0000
,
0100
0000
0000
0000
,
1000
0000
0001
0000
,
0010
0000
0100
0000
,
1000
0000
0100
0000
,
0001
0000
0000
0000
,
1000
0000
0001
0000
,
1000
0000
0000
0000
,
0010
0000
0100
0000
,
0010
0000
0000
0000
,
0001
0000
1000
0000
,
1001
0000
0000
0000
,
0000
0000
0000
0000
,
0000
0000
0000
0000
,
0000
0000
0000
0000
,
1000
0000
0000
0000
,
0001
0000
0000
0000
,
1000
0000
0000
0000
,
0001
0000
0000
0000
,
1000
0000
0000
0000
,
0001
0000
0000
0000
,
1000
0000
0000
0000
,
0001
0000
0000
0000
,
1000
0000
0000
0000
,
0010
0000
0000
0000
,
0100
0000
0000
0000
,
0010
0000
0000
0000
,
0001
0001
0000
0000
,
1000
1000
0000
0000
,
0010
0010
0000
0000
,
0100
0100
0000
0000
,
1000
0100
0000
0000
,
0001
0010
0000
0000
,
1000
0001
0000
0000
,
0010
0100
0000
0000
;

//--------------- dance-single - XLev450X -誕生日--BSP ----------------
#NOTES:
     dance-single:
     XLev450X -誕生日-:
     Easy:
     5:
     0,0,0,0,0:
0000
0000
0000
0000
,
0000
0000
0000
0000
,
0000
0000
0000
0000
,
0000
0000
0000
0000
,
0000
0000
0000
0000
,
0001
0010
0100
0000
,
1000
0001
1000
0000
,
1000
0100
0010
0000
,
0010
0100
0010
0000
,
0001
1000
0001
0010
,
1000
0100
0001
0000
,
1000
0010
1000
0010
,
0100
0001
0010
0000
,
0001
1000
0001
0000
,
0010
0001
0100
0000
,
1000
0010
0100
0000
,
0001
1000
0001
0000
,
0001
0000
1000
0000
,
0010
1000
0010
0000
,
0100
0000
0001
0000
,
0010
0001
0010
0000
,
1000
0000
0001
0000
,
1000
0010
1000
0000
,
0100
0000
0010
0000
,
2002
0000
0000
3003
,
0001
1000
0001
1000
,
0001
1000
0001
0001
,
1000
0001
1000
0001
,
1000
1000
2002
3003
,
0010
0100
0010
0100
,
0010
0010
0100
0010
,
0100
0100
0010
0010
,
0100
0010
0220
0330
,
1000
0100
1000
0100
,
0001
0010
0001
1000
,
0001
1000
0010
1000
,
0010
0100
0010
0100
,
2000
0000
0000
3000
,
0200
0000
0000
0300
,
0020
0000
0000
0030
,
0002
0000
0000
0003
,
0002
0000
0000
0003
,
2000
0000
0000
3000
,
0200
0000
0000
0300
,
0020
0000
0000
0030
,
0002
0000
0203
0000
,
0320
0000
2030
0000
,
3200
0000
0302
0000
,
0023
0000
0000
0000
0230
0000
0000
0300
,
0001
1000
0001
0010
,
0100
0000
1000
0000
0010
1000
0010
0000
,
0001
1000
0001
0100
,
0001
0010
0001
0000
1000
0100
1000
0000
,
0001
1000
0001
0000
,
0010
1000
0100
0001
,
1000
0000
0010
0000
0100
0010
0100
0000
,
1000
0010
1000
0000
0001
0000
1000
0000
,
0001
0010
0001
0000
1000
0000
0001
0000
,
1000
0010
1000
0000
0100
1000
0100
0000
,
0002
0010
0010
0010
,
0010
0013
2002
0000
,
3003
0000
0000
0000
;

//--------------- dance-single - XLev450X -誕生日--DSP ----------------
#NOTES:
     dance-single:
     XLev450X -誕生日-:
     Medium:
     8:
     0,0,0,0,0:
0000
0000
0000
0000
,
0000
0000
0000
0000
,
0000
0000
0000
0000
,
0000
0000
0000
0000
,
0000
0000
0000
0000
,
0001
1000
0001
1000
,
0010
0000
0100
0000
0001
0010
0001
0000
,
1000
0010
0100
1000
,
0001
1000
0001
0000
1001
0000
0000
0000
,
1000
0000
0010
0000
0100
0000
0001
0010
,
0001
1000
0100
1000
,
0010
0100
0010
0000
1000
0010
1000
0000
,
0001
1000
0001
0100
,
0100
1000
0001
1000
,
0010
0000
1000
0000
0001
0010
0001
1000
,
0001
0100
1000
0010
,
1000
0001
0100
0000
,
0010
1000
0010
0100
,
0001
0010
0001
0000
1000
0100
1000
0000
,
0001
1000
0010
0100
,
1000
0001
1000
0001
,
1000
0010
1000
0000
0010
0100
0010
0000
,
0001
0010
0001
0000
1000
0001
1000
0000
,
0001
0100
1000
0010
,
1000
0010
0100
0001
2000
0000
0000
3000
,
0001
0000
1000
0000
0010
1000
0010
0000
,
0100
0000
1000
0000
0001
0010
0001
0000
,
1000
0000
0001
0000
0100
0001
0100
0000
,
0010
0000
1000
0000
0010
1000
0010
1000
,
0001
0100
1000
0001
,
1000
0000
0010
0000
0100
1000
0001
1000
,
0001
1000
0010
0100
,
1000
0100
0010
0001
0100
1000
0001
1000
,
0010
0100
1000
0001
,
0100
0000
1000
0000
0010
1000
0010
0000
,
0001
1000
0100
1000
,
0001
0000
1000
0000
0100
0000
0010
0000
1000
0000
0001
0000
1000
0000
0010
0001
,
2000
0000
0100
3100
,
0002
0000
0010
0013
,
0200
0000
1000
1300
,
0020
0000
0001
0031
,
0001
0000
1000
0000
0010
0001
0010
0000
,
1000
0100
1001
0000
,
1000
0000
0010
0000
1000
0010
1000
0000
,
0001
0100
1000
0001
,
1000
0001
1000
0000
0001
0000
0010
0000
,
1000
0010
1000
0000
0010
0000
0100
0000
,
0010
0100
0010
0000
0001
0010
0001
0010
,
2002
0000
0000
3003
,
0001
0000
1000
0000
0100
0000
1000
0010
,
1000
0000
0010
0000
0100
0000
0001
0010
,
0001
0000
1000
0000
0001
0000
1000
0001
,
1000
0010
0100
1000
,
0010
1000
0010
0100
0001
1000
0001
0000
,
0001
0000
1000
0000
0010
1000
0010
0100
,
1000
0000
0001
0000
0100
0010
0100
0000
,
1000
0000
0001
0000
0010
0001
0010
1000
,
0001
0100
1000
0010
,
1000
0001
0100
1000
0001
0000
1000
0000
,
0010
0100
1000
0001
,
1000
0000
0000
0000
0001
0000
0000
0000
1000
0000
0000
0000
0100
0000
0001
0000
0000
0000
1000
0000
0000
0100
0000
0000
0010
0000
0000
0001
0000
0000
0020
0000
,
0030
0000
0000
0000
;

//--------------- dance-single - XLev450X -誕生日--ESP ----------------
#NOTES:
     dance-single:
     XLev450X -誕生日-:
     Hard:
     12:
     0,0,0,0,0:
0000
0000
0000
0000
,
0000
0000
0000
0000
,
0000
0000
0000
0000
,
0000
0000
0000
0000
,
0000
0000
0000
0000
,
0001
1000
0010
1000
0100
0001
1000
0000
,
0001
0010
1000
0001
1000
0010
0010
0000
,
0100
1000
0001
0000
0001
1000
0010
0000
,
0100
0000
0000
0000
1000
0000
0000
0000
0001
0000
0000
0000
1000
0000
0010
0000
0001
0000
1000
0000
0000
0100
0000
0000
0010
0000
0000
0001
0000
0000
0010
0000
,
1000
0001
1000
0010
1000
0010
0100
0000
,
0001
0010
0001
0010
1000
0001
0100
0000
,
0001
1000
0001
0001
1000
0010
0100
0000
,
1000
0000
0000
0000
0000
0000
0000
0000
0010
0000
0000
0000
0001
0000
1000
0000
0100
0000
0001
0000
0000
1000
0000
0000
0010
0000
0000
0100
0000
0000
1000
0000
,
0001
0000
1000
0000
0001
0010
0100
1000
,
0001
0000
0010
0000
0100
1000
0100
0001
,
0010
0000
1000
0000
0010
0100
0010
0000
,
1000
0000
0000
0000
0001
0000
0000
0000
1000
0000
0000
0000
0001
0000
1000
0000
0100
0000
0001
0000
0000
1000
0000
0000
0010
0000
0000
0100
0000
0000
0010
0000
,
0001
0000
1000
0010
0100
1000
0001
0010
,
1000
0010
0010
1000
0100
1000
0001
0000
,
0001
1000
0010
0100
1000
0001
0010
0100
,
1000
0000
0000
0000
0001
0000
0000
0000
1000
0000
0000
0000
0010
0000
0001
0000
0010
0000
1000
0000
0000
0001
0000
0000
0100
0000
0000
0010
0000
0000
0001
0000
,
1000
0010
0100
1000
0001
0010
1000
0010
,
0001
0100
1000
0001
0010
1000
0101
0000
,
1000
0000
0100
0000
0001
1000
0001
0010
,
0100
0000
0000
0000
0000
0000
0000
0000
1000
0000
0000
0000
0001
0000
0010
0000
0100
0000
0001
0000
0000
1000
0000
0000
0010
0000
0000
0100
0000
0000
1000
0000
,
0010
0000
0001
0000
1000
0001
0100
1000
,
0001
0010
1000
0010
1000
0010
0100
1000
,
0101
0000
1010
0000
0010
0100
0010
0000
,
0011
0000
0000
0000
0000
0000
0000
0000
1100
0000
0000
0000
1000
0000
0100
0000
0010
0000
0001
0000
0000
1000
0000
0000
0100
0000
0000
0010
0000
0000
1000
0000
,
0001
1000
0010
1000
0100
1000
0001
0000
,
0010
0100
1000
0000
0010
0100
0010
0001
,
0010
1000
0001
1000
,
0001
0000
0000
0000
0100
0000
0000
0000
0001
0000
0000
0000
1000
0000
0001
0000
0010
0000
1000
0000
0000
0001
0000
0000
0100
0000
0000
0010
0000
0000
0001
0000
,
1000
0001
1000
0001
,
0010
0001
0010
0000
1000
0100
1000
0000
,
0010
0100
0010
0000
0001
0000
1000
0000
,
0001
0000
1000
0000
0100
0000
0001
0000
1000
0000
0010
0000
0100
0000
0001
0100
,
2000
0000
0000
0000
0000
0000
0000
0000
,
0000
0000
0000
0000
,
0002
0000
0000
0000
,
0000
0000
0000
3003
,
0001
0000
1000
0000
0010
0100
0010
1000
,
0001
0010
1000
0001
0100
1000
0001
0000
,
1000
0000
0010
0000
1000
0100
1000
0000
,
0010
0000
0100
0000
0010
0100
0010
0000
,
0001
0000
0001
0000
1000
0000
0001
1000
,
0001
0000
0001
0000
0010
0100
0010
0000
,
0010
0000
0010
0000
1000
0100
1000
0000
,
1000
0000
0001
0000
0100
0000
1000
0000
0001
0100
1000
0100
0001
0010
1000
0100
,
0010
0000
1000
0000
0100
1000
0100
0001
,
0010
0000
0100
0000
1000
0001
0100
1000
,
0001
0000
0010
0000
1000
0100
1000
0000
,
0001
0000
0000
0000
1000
0000
0000
0000
0001
0000
0000
0000
1000
0000
0001
0000
0010
0000
1000
0000
0000
0001
0000
0000
0100
0000
0000
0010
0000
0000
0001
0000
,
0100
0010
0001
1000
0001
1000
0001
0000
,
0010
1000
0010
0000
0100
1000
0100
0010
,
0100
0010
1000
0001
1000
0001
0001
0000
,
1000
0000
0000
0000
0000
0000
0000
0000
0100
0000
0000
0000
0001
0000
0010
0000
0100
0000
0001
0000
0000
1000
0000
0000
0010
0000
0000
0100
0000
0000
1000
0000
,
0100
0001
1000
0010
0100
1000
0100
0010
,
1000
0010
0100
0001
1000
0010
0101
0000
,
0010
1000
0010
0000
1000
0100
0001
0000
,
1000
0000
0000
0000
0001
0000
0000
0000
1000
0000
0000
0000
0001
0000
0100
0000
1000
0000
0001
0000
0000
1000
0000
0000
0010
0000
0000
0100
0000
0000
0002
0000
,
0003
0000
0000
0000
;
