#TITLE:The Queen of the Future;
#ARTIST:XLev450X vs. BEMANI Sound Team "U1 overground⨯TAG";
#ARTISTTRANSLIT:XLev450X vs. U1 overground⨯TAG;
#GENRE:ORBITALIC MIXTURE;
#MUSIC:The Queen of the Future.ogg;
#BANNER:The Queen of the Future.png;
#BACKGROUND:The Queen of the Future-bg.png;
#SAMPLESTART:79.085;
#SAMPLELENGTH:15;
#SELECTABLE:YES;
#OFFSET:0.115;
#BPMS:0=100
,34=200
,224=100
,256=200;
#STOPS:34=0.900
,95=0.900;
#DISPLAYBPM:100:200;
#BGSTAGE:29;
#BGCHANGES:4.000=The Queen of the Future.mp4=1.000=0=0=1,
99999.000=-nosongbg-=1.000=0=0=0=StretchNoLoop====,
99999.000=-nosongbg-=1.000=0=0=0=StretchNoLoop====;

//--------------- dance-single - XLev450X -キング--bSP ----------------
#NOTES:
     dance-single:
     XLev450X -キング-:
     Beginner:
     5:
     0,0,0,0,0:
0000
0000
0000
0000
,
0000
0000
0000
0000
,
0000
0000
0000
0000
,
0000
0000
0000
0000
,
0000
0000
0000
0000
,
1000
0001
0010
1000
,
0001
0100
0010
0001
,
1000
0001
0010
1000
,
0001
0100
0000
0001
,
0001
1000
0000
0010
,
0000
0100
0000
0001
,
1000
0010
0000
0100
,
0000
0001
0000
1000
,
0001
0100
0000
0001
,
1000
0010
0000
0100
,
0001
1000
0010
0100
,
0000
0001
0000
0101
,
0000
1010
0000
0110
,
0000
0001
0000
1000
,
0001
0100
0000
0010
,
0000
0100
0000
0001
,
0001
1000
0010
0100
,
0001
1000
0000
0001
,
0100
0010
1000
0000
,
0001
0100
0010
0001
,
1000
0000
0010
0000
,
1000
0001
0100
0010
,
1000
0000
0001
0000
,
0100
0001
0010
0000
,
1000
0010
0100
0000
,
0001
0100
0010
1000
,
0001
0000
0100
0000
,
0001
0100
0010
1000
,
0001
0100
0010
0000
,
1000
0001
0100
0010
,
1000
0000
0001
0000
,
0010
0100
0001
0000
,
1000
0010
0100
0000
,
0001
0010
0100
0001
,
1000
0000
0010
0000
,
1001
0000
0000
0000
,
1001
0000
0000
0000
,
1001
0000
0000
0000
,
1001
0000
0000
0000
,
1001
0000
0000
0000
,
1001
0000
0000
0000
,
1001
0000
0000
0000
,
1001
0000
0000
0000
,
0001
1000
0001
0000
,
0010
0100
0001
0000
,
1000
0001
0100
0000
,
0010
1000
0001
0000
,
0100
0001
0010
0000
,
1000
0001
0100
0000
,
2002
0000
0000
0000
,
0000
0000
3003
0000
,
1000
0001
0010
0100
,
0001
1000
0010
0000
,
0001
1000
0010
0100
,
0001
1000
0010
0000
,
0100
0100
0100
0001
,
1000
0010
0100
0010
,
0001
1000
0010
0100
,
1001
0000
0110
0000
,
0001
0001
0001
1000
,
0010
0100
1000
0000
,
0010
0100
0001
0000
,
0100
1000
0010
0000
,
0010
1000
0001
0100
,
0010
1000
0001
0000
,
1000
0000
0001
0000
,
0100
0010
0100
0000
,
0010
0001
0010
0000
,
1000
0010
1000
0000
,
0100
0010
0100
0000
,
0001
0100
0001
0000
,
1000
0010
0100
0001
,
1000
0010
0100
0001
,
1000
0010
0100
0001
,
1000
0010
0100
0010
,
2002
0000
0000
0000
,
0000
0000
0000
0000
,
0000
0000
0000
0000
,
0000
0000
0000
0000
,
3003
0000
0000
0000
;

//--------------- dance-single - XLev450X -キング--BSP ----------------
#NOTES:
     dance-single:
     XLev450X -キング-:
     Easy:
     9:
     0,0,0,0,0:
0000
0000
0000
0000
,
0000
0000
0000
0000
,
0000
0000
0000
0000
,
0000
0000
0000
0000
,
0000
0000
0000
0000
,
1000
0010
0001
0010
,
1000
0100
0010
0001
,
0200
0310
2000
3001
,
0020
0130
0000
0000
,
1000
0001
1000
0000
,
0010
0100
0001
0000
,
0001
1000
0001
0000
,
0010
0100
1000
0000
,
0010
0100
0010
0000
,
1000
0100
0010
0000
,
0100
0010
0100
0010
,
0010
0010
0000
0110
,
0000
0001
1000
0010
,
0010
0000
0100
0001
0100
0000
0001
0000
,
0000
0000
1000
0100
1000
0000
0100
0000
,
0010
0000
0002
0000
0000
0000
1003
0001
,
0100
0000
0010
0001
0010
0000
1000
0010
,
0100
0000
0001
0000
1000
0000
0001
0100
,
0010
1000
0100
0000
,
0000
1000
0000
1000
,
0001
0010
0001
0010
,
0000
0001
0000
0001
,
1000
0010
1000
0010
,
0000
0100
0000
0100
,
0001
0010
0100
0010
,
0000
0100
0000
0100
,
1000
0010
0100
0010
,
0001
0000
0001
0000
0010
0100
0010
0000
,
0002
0000
1003
0001
1000
0000
0000
0000
,
0010
0000
0010
0000
0100
0001
0100
0000
,
2002
0000
3003
0000
,
1000
0000
1000
0000
0010
1000
0010
0000
,
0100
0000
0100
0000
0001
0010
0001
0000
,
0100
0001
1000
0010
,
0100
0001
1000
0100
,
0000
0001
0001
0001
,
0000
1000
1000
1000
,
0000
0100
0010
0100
,
0000
0010
0001
0010
,
0000
1000
0010
1000
,
0000
0100
0010
0100
,
0000
0001
1000
0010
,
0000
0100
0010
0100
,
1000
0010
0001
0010
,
1000
0100
1000
1001
,
0001
0010
1000
0010
,
0001
0100
0001
1001
,
0100
0001
0010
0100
,
1000
0000
0010
0000
0100
0010
0100
0000
,
2002
0000
0000
0000
,
0000
0000
3003
0000
,
1000
0010
0100
0000
0001
0100
0010
0000
,
1001
0000
0100
0000
0010
0000
0000
0000
0010
0000
1000
0000
0001
1000
0001
0000
,
1000
0100
0010
0000
0100
1000
0010
0000
,
0101
0010
1000
0000
1100
1100
1001
0000
,
0001
0100
1000
0100
0010
0100
0001
1000
,
0001
0010
1000
0010
0001
0010
0100
0010
,
0100
1000
0010
0100
,
0001
1000
0010
0001
,
0100
0100
0100
0000
,
0001
0000
1000
0000
0001
0001
0001
0000
,
1000
0100
0010
0001
,
0010
0000
0100
0000
1000
0001
1000
0000
,
0100
0001
1000
0010
,
0001
0000
0100
0000
0010
0010
0010
0000
,
1000
0100
1000
0100
,
0010
0000
0001
0000
1000
1000
1000
0000
,
0010
0000
0010
0000
1000
0001
1000
0000
,
0002
0013
2000
3010
,
0001
0100
0020
0030
,
1000
0001
1001
0000
,
0001
0000
0010
0000
0001
0100
0001
0000
,
1000
0000
0010
0000
1000
0100
1000
0000
,
0001
1000
0001
1000
0001
1000
0001
0000
,
0100
0010
0110
0000
,
2002
0000
0000
0000
,
0000
0000
0000
0000
,
0000
0000
0000
0000
,
0000
0000
0000
0000
,
3003
0000
0000
0000
;

//--------------- dance-single - XLev450X -キング--DSP ----------------
#NOTES:
     dance-single:
     XLev450X -キング-:
     Medium:
     13:
     0,0,0,0,0:
0000
0000
0000
0000
,
0000
0000
0000
0000
,
0000
0000
0000
0000
,
0000
0000
0000
0000
,
0000
0000
0000
0000
,
0010
1000
0100
1000
0010
0100
0001
0010
,
0001
0011
1000
1100
,
2000
0010
0010
3000
0002
0010
0010
0003
,
2000
0100
0100
3100
0002
0003
1000
0010
,
0001
1000
0100
0001
1000
0000
1000
0010
,
0001
1000
0100
0001
1000
0000
1000
0010
,
0001
1000
0100
0001
1000
0000
1001
0000
,
0110
2002
3003
0001
,
1000
0100
0010
0001
1000
0001
0100
0010
,
1000
0010
0100
0001
1000
0100
0010
0010
,
0010
0001
1000
0001
0100
0010
0100
0100
,
0100
0000
0001
1000
1001
0000
2000
0000
,
0000
3200
0000
0310
,
0000
2002
0000
0000
3003
0000
0002
0000
,
0000
0203
0000
0310
,
0000
2002
0000
0000
3003
0000
0100
0000
,
1001
0000
0001
1000
0010
0100
0010
1000
,
0002
0003
0010
0001
2000
3000
1100
0000
,
0001
1000
0010
0100
0001
1000
0000
0000
,
0001
0010
1000
0001
0100
1000
0001
0000
,
0001
1000
0100
0001
1000
0010
0001
0000
,
0001
0010
1000
0001
0100
1000
0001
0000
,
1001
0110
2002
3003
,
1000
0010
0100
0010
1000
0100
0010
0100
,
1000
0001
0010
0001
0100
0001
1000
0000
,
0001
0010
0100
0010
0001
0100
0010
0100
,
0001
1000
0010
1000
0100
1000
0001
0000
,
0100
0010
0001
0010
0001
0001
0001
1000
,
0002
0000
0103
0010
1000
0001
0010
0100
,
1000
0000
0010
0000
1000
0001
0100
0010
,
0200
0000
0300
0000
,
1000
0100
0010
0000
2002
0000
3003
0000
,
0001
0010
0100
0000
2002
0000
3003
0000
,
0001
1000
0100
0000
0010
0001
0100
0000
,
0001
1000
0001
0000
1000
0001
1000
0000
0010
0000
0000
0010
0000
0000
0010
0000
,
0000
0000
0000
0000
0001
0000
0000
0000
0001
0000
0000
0001
0000
0000
0001
0000
,
0000
0000
0000
0000
0010
0000
0000
0000
0010
0000
0000
0010
0000
0000
0010
0000
,
0000
0000
0000
0000
0100
0000
0000
0000
0100
0000
0000
0100
0000
0000
0100
0000
,
0000
0000
0000
0000
0100
0000
0000
0000
1000
0000
0000
1000
0000
0000
0100
0000
,
0000
0000
0000
0000
1000
0000
0000
0000
1000
0000
0000
1000
0000
0000
1000
0000
,
0000
0000
0000
0000
0010
0000
0000
0000
0010
0000
0000
0010
0000
0000
0010
0000
,
0100
0001
0100
0001
0010
0100
0010
0100
,
1000
0001
1000
0000
0001
1000
0001
0000
0100
0000
0000
0100
0000
0000
0100
0000
,
1000
0100
1000
0000
1000
0001
0010
0000
,
0001
0100
0010
0100
0001
0000
1000
0000
,
0001
0100
0001
0000
0001
1000
0100
0000
,
1000
0100
0010
0100
1000
0000
1001
0000
,
0001
0010
1000
0010
0001
0100
1000
0001
,
0010
1000
0100
0001
0100
1000
0010
0000
,
0100
1000
0100
0010
0001
1000
0010
1000
0100
1000
0010
0100
,
0010
0001
0010
0000
1000
0010
1000
0000
0220
0000
0000
0000
0000
0000
0330
0000
,
1000
0100
1000
0010
0100
0001
0010
0001
,
0100
0000
0010
0000
1000
0000
0100
0000
1000
0000
0001
0000
0100
0001
1000
0000
,
0010
1000
0001
1000
0100
0010
0001
0100
,
0001
1000
0010
0100
0010
0001
0010
0100
,
0002
0010
0010
0010
2003
0010
0010
0010
,
3002
0100
0100
0100
2003
0100
0100
3100
,
0001
0010
0001
1000
0010
0100
0001
1000
,
0100
0010
0100
0000
1000
0001
1000
0000
0220
0000
0000
0000
0000
0000
0330
0000
,
1000
0000
0100
0000
0001
0100
1000
0000
,
0010
0001
0100
1000
,
0010
1001
0100
1001
,
0010
1001
0100
1001
,
0001
0010
0100
1000
0010
0100
0001
0010
,
0100
1000
0010
0010
0100
0100
0001
0000
,
1000
0100
0010
0001
0100
0010
1000
0010
,
0100
0001
0100
0001
1000
1000
1000
0000
,
0001
0010
0100
1000
0001
0100
0010
1000
,
0001
0010
0001
0010
0001
0000
0000
0000
1000
0010
1000
0010
1000
0000
0000
0000
,
0001
0010
1000
0010
0002
0000
1003
0001
,
0200
0000
0000
0000
0000
0000
0310
0000
0000
1000
0000
0000
0001
0000
0010
0000
0100
0000
1000
0000
0000
0000
0000
0000
,
1000
0001
0100
0010
1000
0001
0010
0100
,
1000
0001
0010
0000
0001
0100
0010
0000
,
1000
0010
1000
0010
0100
0001
0100
0001
,
0001
0000
1000
0100
0010
0001
0101
0000
,
2002
0000
0000
0000
,
0000
0000
0000
0000
,
0000
0000
0000
0000
,
0000
0000
0000
0000
,
3003
0000
0000
0000
;

//--------------- dance-single - XLev450X -キング--ESP ----------------
#NOTES:
     dance-single:
     XLev450X -キング-:
     Hard:
     15:
     0,0,0,0,0:
0000
0000
0000
0000
,
0000
0000
0000
0000
,
0000
0000
0000
0000
,
0000
0000
0000
0000
,
0000
0000
0000
0000
,
0100
0000
0001
0000
0010
0000
1000
0010
1000
0000
0001
0000
0100
0000
0010
0000
,
0001
0101
1000
1100
,
1000
0000
0020
0000
1000
0000
0000
0000
0031
0000
0020
0000
0001
0000
0000
0030
,
1000
0000
0010
0000
0100
0000
0000
0000
0001
0000
0010
0000
0100
0000
0000
0000
2000
3000
0000
0000
0000
0000
0000
0000
0010
0000
0000
0000
0000
0000
0000
0000
,
0110
0000
0100
1000
0001
0000
0100
0001
,
1000
0001
0010
0100
0010
0000
0001
0001
,
0001
1000
0010
0010
0100
0001
1000
1000
,
1000
0000
0001
0100
1000
0100
0001
0100
,
0001
0010
0100
1000
0010
0000
1000
0100
,
0001
0100
1000
0001
1000
0000
0010
1000
,
0010
1000
0100
0010
0100
0010
0001
1000
,
0001
0000
0100
0000
0001
0000
0000
0001
0000
0000
0001
0000
1001
0000
0000
0000
,
1000
0000
0001
0000
0010
0100
0010
0100
0010
0000
0001
0000
1000
0000
0010
0000
,
0100
1000
0001
0010
0100
0001
1000
0000
,
0001
0000
0010
0000
0100
0000
0100
0000
0100
0000
0100
1000
0100
0000
1000
0000
,
1001
0000
0000
0000
0001
0000
0100
0000
0010
1000
0010
1000
0001
0000
0000
0000
,
1000
0000
0001
0000
0100
0010
0100
0010
0100
0000
0001
0000
1000
0000
0100
0000
,
0010
1000
0001
0100
0010
0001
1000
0000
,
0001
1000
0001
1000
0001
0010
0100
1000
0000
0001
0100
0000
0000
0000
0000
0000
,
1000
0100
1000
0100
0001
0100
1000
0010
,
0100
1000
0100
1000
0100
0001
1000
0000
,
0001
0100
0001
0100
1000
0100
0001
0010
,
0100
0001
0100
0010
0100
1000
0001
0000
,
1000
0010
0100
0010
1000
0100
0010
0100
,
1000
0001
0010
0001
0100
0001
1000
0000
,
0001
0010
0100
0010
0001
0100
0010
0100
,
0001
1000
0010
1000
0100
1000
0001
0000
,
1000
0000
1000
0000
1000
0000
1000
0000
0001
0100
0001
0100
0001
0000
0010
0000
,
0100
0100
1000
0001
1000
1000
0010
0100
,
0001
0010
0001
0000
1000
0000
0100
0000
0010
0100
0010
0100
0010
0000
0001
1000
,
0001
0000
0100
0000
1000
0000
0100
0000
0001
0000
0000
0000
2001
3000
0100
0000
,
1000
0010
0001
0010
0100
0010
1000
0000
,
0001
0010
0100
0000
1100
1100
1100
0000
,
1010
0000
0000
0000
0101
0000
0100
0000
0010
0000
1000
0000
0001
0000
0010
0001
,
0020
0000
0001
0000
0130
1000
0001
0100
,
0000
0000
0000
0000
1000
0000
0000
0000
1000
0000
0000
1000
0000
0000
1000
0000
,
0000
0000
0000
0000
0100
0000
0000
0000
0100
0000
0000
0100
0000
0000
0100
0000
,
0000
0000
0000
0000
0010
0000
0000
0000
0010
0000
0000
0010
0000
0000
0010
0000
,
0000
0000
0000
0000
0010
0000
0000
0000
0001
0000
0000
0001
0000
0000
0010
0000
,
0000
0000
0000
0000
0001
0000
0000
0000
0001
0000
0000
0001
0000
0000
0001
0000
,
0000
0000
0000
0000
0100
0000
0000
0000
0100
0000
0000
0100
0000
0000
0100
0000
,
0010
1000
0010
1000
0100
0010
0100
0010
,
0001
1000
0001
0000
1000
0001
1000
0000
0010
0000
0000
0010
0000
0000
0010
0000
,
1000
0100
0001
0100
0010
0100
1000
0100
,
0010
0000
0001
0000
0010
0000
1000
0000
0010
0000
0100
0000
0010
0001
0010
0000
,
0001
0100
1000
0100
0010
0100
0001
0100
,
0010
0000
1000
0000
0010
0000
0001
0000
0010
0000
0100
0000
0010
0100
0010
0000
,
1000
0100
0001
0100
1000
0010
0001
1000
,
0100
0001
0010
1000
0010
0001
0100
0000
,
2002
0000
0000
0000
,
0000
0000
3003
0000
,
0001
1000
0001
0010
0001
0100
0010
1000
,
0100
1000
0010
0001
0010
1000
0001
0110
,
1000
0001
0010
1000
0010
0100
0001
0100
,
1000
0001
0010
1000
0010
0001
0100
0000
,
0010
0000
0010
0000
1000
0000
0001
0000
0100
0001
0100
0001
1000
0000
0100
0000
,
1000
0000
1000
0000
0010
0000
0100
0000
0001
0100
0001
0100
0010
0000
1000
0000
,
0010
0100
1000
0001
0100
0010
1000
0001
,
0010
0100
0010
0000
0001
1000
0001
0000
2002
0000
0000
0000
0000
0000
3003
0000
,
0001
0010
0100
1000
0001
0010
0100
1000
,
0001
0000
0100
0100
0010
0010
1000
0000
,
1000
0100
1000
0100
0010
0001
0010
0001
,
1000
0010
0100
0001
0100
0100
0100
0000
,
0001
0010
0100
1000
0010
0100
0001
0010
,
0100
1000
0010
0010
0100
0100
0001
0000
,
1000
0100
0010
0001
0100
0010
1000
0010
,
0100
0001
0100
0001
1000
1000
1000
0000
,
1000
0100
0010
0001
1000
0010
0100
0001
,
1000
0100
1000
0100
1000
0000
0000
0000
0001
0100
0001
0100
0001
0000
0000
0000
,
1000
0100
0001
0100
2000
0000
3001
1000
,
0020
0000
0000
0000
0000
0000
0130
0000
0000
0001
0000
0000
1000
0000
0100
0000
0010
0000
0001
0000
0000
0000
0000
0000
,
1000
0010
0001
0010
1000
0001
0010
1000
,
0010
0000
0001
0000
1000
0000
0001
0000
1000
0001
1000
0001
1000
0000
0000
0000
,
1000
0010
1000
0010
0100
0001
0100
0001
,
1000
0000
0001
0010
0100
1000
1010
0000
,
2002
0000
0000
0000
,
0000
0000
0000
0000
,
0000
0000
0000
0000
,
0000
0000
0000
0000
,
3003
0000
0000
0000
;

//--------------- dance-single - XLev450X -キング--CSP ----------------
#NOTES:
     dance-single:
     XLev450X -キング-:
     Challenge:
     17:
     0,0,0,0,0:
0000
0000
0000
0000
,
0000
0000
0000
0000
,
0000
0000
0000
0000
,
0000
0000
0000
0000
,
0000
0000
0000
0000
,
0100
0000
0001
0000
1000
0000
0010
0001
0010
0000
1000
0000
0001
0000
1000
0010
,
0001
0000
1000
0000
0100
0000
0010
0000
0100
0000
0001
1000
0100
0000
0010
0001
,
2000
0100
3001
1000
0002
0010
1003
0001
,
0010
0100
0010
1000
0001
1000
0010
1000
0010
0100
0001
1000
0200
0000
0000
0300
0000
0000
1000
0000
0000
0010
0000
0000
,
0100
0000
0001
0000
1000
0001
1000
0001
1000
0000
0000
0000
0100
0000
0010
0000
,
0001
0000
0100
0010
0100
0000
0010
0000
0110
0000
0000
0000
1000
0000
0001
0000
,
0100
0010
1000
0100
0010
0001
0100
0001
,
1000
0100
1000
0001
1000
0000
1000
0100
,
0010
0000
0001
0000
1000
0001
1000
0001
1000
0000
0000
0000
0010
0000
1000
0000
,
0100
0000
0010
0100
0010
0000
0100
0000
0110
0000
0000
0000
0001
0000
0010
0000
,
0001
0000
0010
0000
0100
0000
1000
0000
0100
0000
1000
0000
0010
1000
0010
0000
,
0100
0001
0100
0000
0010
0000
0100
0010
0000
0100
0010
0000
0020
0000
0000
0000
,
1030
0000
0001
0000
0010
0001
0100
0001
0100
0010
1000
0000
0001
1000
0001
1000
,
0001
0100
0110
0010
1010
1000
1002
0000
,
0103
0000
0010
0000
1000
0100
0010
0100
0010
0000
0001
0000
0101
0000
0101
0000
,
0110
0000
1001
0000
0000
0000
0000
0000
0010
1000
0001
0100
1000
0000
0000
0000
,
1000
0001
0001
1000
,
1000
0001
0001
0010
,
0010
0100
0100
0000
,
1100
1001
1010
1100
,
0100
0000
1000
0100
0001
0000
1000
0001
0100
0000
0001
0100
1000
0000
0000
0000
,
0100
0000
0001
0000
0010
0000
1000
0000
0100
0001
0000
0100
1000
0000
0001
0000
,
0010
0000
0000
1000
0100
0000
0001
0000
0010
0000
0100
0000
1000
0001
0000
1000
,
0001
0000
1000
0000
0001
0100
0010
0000
,
0001
1000
0100
0001
0010
0000
0001
0000
,
1000
0001
0100
0010
1000
0000
0001
0000
,
0010
0000
0001
0000
1000
0000
0010
0000
0100
0000
0001
0000
1000
0001
0100
0010
,
0001
0010
0100
1000
0010
0001
0010
1000
,
0100
0001
0100
0010
0100
1000
0100
0010
,
0001
1000
0001
0010
1000
0010
0001
0100
,
0010
0000
0010
0000
0110
0000
0101
0000
1100
0000
0110
0000
1000
0001
1000
0001
,
1000
0100
0001
0100
1000
0010
0100
0000
0000
1001
0000
0000
,
0010
1000
0100
0010
0000
0000
0001
0000
0000
0110
0000
0000
,
1000
0000
0000
0000
0001
0000
0010
1000
0010
0000
0001
0000
0001
0000
0000
0000
,
1000
0100
0010
0000
0001
0100
0010
0000
1000
0000
0010
0100
0000
0100
0010
0000
,
0000
0000
0000
0000
0110
0000
0000
0000
0110
0000
0000
0110
0000
0000
0110
0000
,
0000
0000
0000
0000
0011
0000
0000
0000
0011
0000
0000
0011
0000
0000
0011
0000
,
0000
0000
0000
0000
1001
0000
0000
0000
1001
0000
0000
1001
0000
0000
1001
0000
,
0000
0000
0000
0000
0110
0000
0000
0000
1010
0000
0000
1010
0000
0000
1001
0000
,
0000
0000
0000
0000
1001
0000
0000
0000
1001
0000
0000
1001
0000
0000
1001
0000
,
0000
0000
0000
0000
0101
0000
0000
0000
0101
0000
0000
0101
0000
0000
0101
0000
,
0000
0000
0000
0000
0110
0000
0000
0000
0110
0000
0000
0110
0000
0000
0110
0000
,
1000
0100
0010
0000
0001
0010
0100
0000
1000
0000
0010
0100
0000
0001
1000
0000
,
0010
0000
0100
0000
0001
0010
0100
0000
1000
0000
0010
0000
0100
0010
0100
0000
,
0001
0000
0010
0000
0100
1000
0001
0000
0100
0000
1000
0000
0001
0010
0100
0000
,
0001
0000
1000
0000
0100
1000
0001
0000
0100
0000
0010
0000
1000
0001
1000
0000
,
0100
0000
1000
0000
0010
0100
0001
0000
0010
0000
1000
0000
0001
0100
0010
0000
,
0001
0000
1000
0000
0010
0100
0001
0000
1000
0000
0100
0000
0010
0001
0010
0000
,
0100
0000
1000
0000
0010
0100
0001
0000
0010
0000
1000
0000
0001
0100
0010
0000
,
0001
0010
0001
0010
0100
0010
0100
1000
0100
1000
0001
1000
,
0001
0010
0001
0010
0100
1000
0100
0010
0001
0000
0000
0000
0000
0000
0000
0000
,
0100
1000
0101
0001
0100
0010
1010
0001
,
0010
0000
0000
0000
1000
0000
0000
0000
1010
0000
0000
0000
0001
0000
0000
0000
1000
0000
0000
0000
0010
0000
0000
0000
0100
0001
1000
0001
0100
0010
1000
0001
,
0100
0000
0010
0100
0000
0001
0000
1000
0010
0000
0100
0000
0110
0000
0010
0000
,
1000
0000
0001
0000
0011
0000
0010
0000
0100
0000
1000
0000
0001
0100
0001
0100
,
0010
2000
0010
0000
3001
0200
0001
0000
0310
0002
0010
0000
1003
0200
1000
0000
,
0301
0020
0001
0000
0130
2000
0100
0000
3001
0200
0001
0000
0310
0200
0010
0000
,
0301
0010
0100
0010
1000
0001
1000
0001
1000
0010
1000
0010
0100
0001
0100
0001
,
0100
0010
1000
0010
1000
0010
1000
0010
0100
0001
0010
0001
0010
0001
0010
0001
0100
0010
1000
0000
0010
0100
0001
0000
0100
0000
0001
0010
0000
0100
0010
0000
,
0100
1000
0100
1000
0100
0000
1000
0010
1000
0010
1000
0000
0001
0100
0001
0000
,
0010
0001
0100
0000
0010
0000
0010
0000
1000
0000
0001
0000
1000
0000
0000
0000
,
0001
0010
0100
0010
0001
0000
0000
0000
1000
0010
0100
0010
1000
0000
0000
0000
,
0001
0100
1000
0100
0001
0001
0001
0000
,
0001
0010
0100
0010
0100
0000
0000
0000
1000
0010
1000
0010
0100
0000
0000
0000
,
0001
0010
0001
0000
0100
0000
0100
0000
0010
0000
1000
0000
0001
0000
0000
0000
,
0001
0010
0001
0010
0100
0000
1000
0010
0100
0010
0100
0000
0001
1000
0001
0000
,
1000
0100
0010
0001
1000
0000
0000
0000
0001
0000
0001
0000
0001
0000
0000
0000
,
0010
0001
1000
0000
0010
1000
0001
0000
0100
0001
1000
0000
0100
1000
0001
0000
,
0100
0010
1000
0000
0100
0010
0001
0000
0010
0100
1000
0000
0010
1000
0001
0000
,
1000
0010
0100
0001
1000
0010
0100
0000
0001
0010
0100
1000
0001
0010
0100
0000
,
1000
0010
0001
0000
1000
0100
0001
0000
1000
0000
0000
0000
1001
0000
0000
0000
,
0100
0001
0010
0000
0001
0000
1000
0000
0100
1000
0010
0000
1000
0000
0001
0000
,
0100
0000
1000
0001
0000
0010
1000
0000
0100
0000
0001
1000
0000
0010
0001
0000
,
1000
0100
0010
0001
0100
0010
1000
0100
0010
0001
0100
0010
1000
0100
0010
0001
,
0010
1000
0001
1000
0010
0100
0001
1000
0100
0010
0100
0010
0100
1000
0001
0010
,
2002
0000
0000
0000
,
0000
0000
0000
0000
,
0000
0000
0000
0000
,
0000
0000
0000
0000
,
3003
0000
0000
0000
;
