#TITLE:The One;
#SUBTITLE:;
#ARTIST:Tom Orlando feat. Tina G;
#TITLETRANSLIT:;
#SUBTITLETRANSLIT:;
#ARTISTTRANSLIT:;
#GENRE:;
#CREDIT:;
#MUSIC:The One.ogg;
#BANNER:The One.png;
#BACKGROUND:The One-bg.png;
#CDTITLE:;
#SAMPLESTART:17.230;
#SAMPLELENGTH:15.000;
#SELECTABLE:YES;
#OFFSET:-0.030;
#BPMS:0.000=163.951;
#STOPS:;
#BGSTAGE:22;
#DISPLAYBPM:163;
#BGCHANGES:;
#FGCHANGES:;

//--------------- dance-single - XLev450X-bSP ----------------
#NOTES:
     dance-single:
     XLev450X:
     Beginner:
     3:
     0,0,0,0,0:
0000
0000
0000
0000
,
0000
0000
0000
0000
,
0000
0000
0000
0000
,
0000
0000
0000
0000
,
0000
0000
0000
0000
,
0000
0000
0000
0000
,
0000
0000
0000
0000
,
0000
0000
0000
0000
,
0000
0000
0000
0000
,
0000
0000
0000
0000
,
0000
0000
0000
0000
,
0000
0000
0000
0000
,
1000
0000
1000
0000
,
1000
0000
0000
0000
,
0001
0000
0001
0000
,
0001
0000
0000
0000
,
0010
0000
0010
0000
,
0010
0000
0000
0000
,
0100
0000
0100
0000
,
0100
0000
0000
0000
,
1000
0000
0000
0000
,
0001
0000
0000
0000
,
0010
0000
0000
0000
,
0100
0000
0000
0000
,
1000
0000
0001
0000
,
1000
0000
0000
0000
,
0010
0000
0100
0000
,
0010
0000
0000
0000
,
1001
0000
0000
0000
,
0000
0000
0000
0000
,
0011
0000
0000
0000
,
0000
0000
0000
0000
,
1100
0000
0000
0000
,
0000
0000
0000
0000
,
1010
0000
0000
0000
,
0101
0000
1010
0000
,
1001
0000
0000
0000
,
0000
0000
0000
0000
,
0101
0000
0000
0000
,
0000
0000
0000
0000
,
0110
0000
0000
0000
,
0000
0000
0000
0000
,
1100
0000
0000
0000
,
0011
0000
1010
0000
,
0010
0000
0010
0000
,
0010
0000
1000
0000
,
0001
0000
0100
0000
,
0010
0000
0001
0000
,
0100
0000
0000
0000
,
1000
0000
0000
0000
,
0001
0000
0100
0000
,
0010
0000
1000
0000
,
0010
0000
0000
0000
,
0100
0000
0000
0000
,
0001
0000
1000
0000
,
0010
0000
0100
0000
,
0001
0000
0000
0000
,
0000
0000
0000
0000
,
1000
0000
0000
0000
,
0000
0000
0000
0000
,
0010
0000
0100
0000
,
0001
0000
0000
0000
,
1000
0000
0010
0000
,
0100
0000
0000
0000
,
0001
0000
1000
0000
,
0010
0000
0000
0000
,
0100
0000
0001
0000
,
1000
0000
0000
0000
,
0100
0000
0010
0000
,
1000
0000
0000
0000
,
0100
0000
0001
0000
,
0010
0000
0000
0000
,
1000
0000
0010
0000
,
0100
0000
0001
0000
,
1000
0000
0010
0000
,
1001
0000
0000
0000
,
0010
0000
0100
0000
,
0001
0000
0000
0000
,
0100
0000
1000
0000
,
0100
0000
0000
0000
,
0010
0000
0100
0000
,
0010
0000
0000
0000
,
1000
0000
0001
0000
,
1000
0000
0000
0000
,
0010
0000
0001
0000
,
0010
0000
0000
0000
,
0100
0000
1000
0000
,
0100
0000
0000
0000
,
0010
0000
0100
0000
,
0010
0000
0001
0000
,
1000
0000
0010
0000
,
0100
0000
0001
0000
,
1000
0000
0010
0000
,
0100
0000
0001
0000
,
1001
0000
0000
0000
;

//--------------- dance-single - XLev450X-BSP ----------------
#NOTES:
     dance-single:
     XLev450X:
     Easy:
     5:
     0,0,0,0,0:
0000
0000
0000
0000
,
0000
0000
0000
0000
,
0000
0000
0000
0000
,
0000
0000
0000
0000
,
0000
0000
0000
0000
,
0000
0000
0000
0000
,
0000
0000
0000
0000
,
0000
0000
0000
0000
,
0000
0000
0000
0000
,
0000
0000
0000
0000
,
0000
0000
0000
0000
,
0000
0000
0000
0000
,
1000
0000
0001
0000
,
0100
0000
0000
0000
,
0010
0000
0001
0000
,
0100
0000
0000
0000
,
1000
0000
0010
0000
,
0100
0000
0000
0000
,
0001
0000
1000
0000
,
0001
0000
0000
0000
,
0010
0000
0100
0000
,
1000
0000
0010
0000
,
0001
0000
0010
0000
,
1000
0000
0001
0000
,
1001
0000
0000
0000
,
0110
0000
0000
0000
,
0011
0000
1100
0000
,
0010
0000
0100
0000
,
0000
0000
0001
0000
,
0000
0000
1000
0000
,
0000
0000
0010
0000
,
0000
0000
0100
0000
,
0000
0000
0001
0000
,
0000
0000
1000
0000
,
0000
0000
0100
0000
,
0000
0000
0010
0000
,
0001
0000
1000
0000
,
0001
0000
0000
0000
,
0100
0000
0010
0000
,
1000
0000
0000
0000
,
0001
0000
0100
0000
,
0010
0000
0000
0000
,
0001
0000
1000
0000
,
0010
0000
0100
0000
,
0001
1000
0001
0000
,
0010
0000
0100
0000
,
0010
1000
0010
0000
,
0100
0000
0001
0000
,
0010
0001
0010
1000
,
0100
0000
0001
0000
,
1000
0010
0100
0000
,
0001
0000
1000
0000
,
0010
0100
0001
1000
,
0010
0000
0100
0000
,
0001
1000
0010
0100
,
0001
0000
1000
0010
,
1001
0000
0000
0000
,
0000
0000
0000
0000
,
0000
0000
0000
0000
,
0000
0000
0000
0000
,
0001
0000
1000
0000
,
0010
0000
0000
0000
,
0100
0000
0001
0000
,
1000
0000
0000
0000
,
0100
0000
0010
0000
,
0001
0000
0000
0000
,
1000
0000
0010
0000
,
0100
0001
1000
0000
,
0010
0000
0100
0001
,
1000
0000
0010
0000
,
0100
0001
1000
0010
,
0100
0000
0001
0000
,
0010
0001
1000
0000
,
1000
0010
0100
0000
,
0001
1000
0010
0100
,
0001
0000
1000
0000
,
0010
0000
0100
0001
,
1000
0000
0010
0000
,
1000
0010
0100
0001
,
1000
0000
0010
0000
,
0100
0000
0001
0000
,
1000
0000
0001
0000
,
0100
0001
1000
0000
,
0010
0000
0100
0000
,
0001
0000
1000
0010
,
0100
0001
1000
0000
,
0001
0000
1000
0000
,
0010
0100
1000
0000
,
0001
0100
0010
1000
,
0001
0000
0100
0000
,
0010
0001
1000
0010
,
0100
0001
1000
0010
,
1001
0000
0001
0000
,
1000
0010
0100
0001
,
1001
0000
0000
0000
;

//--------------- dance-single - XLev450X-DSP ----------------
#NOTES:
     dance-single:
     XLev450X:
     Medium:
     8:
     0,0,0,0,0:
0000
0000
0000
0000
,
0000
0000
0000
0000
,
0000
0000
0000
0000
,
0000
0000
0000
0000
,
0000
0000
0000
0000
,
0000
0000
0000
0000
,
0000
0000
0000
0000
,
0000
0000
0000
0000
,
0000
0000
0000
0000
,
0000
0000
0000
0000
,
0000
0000
0000
0000
,
1000
0001
0000
0100
0000
0000
1001
0000
,
0000
0000
0010
0000
,
1000
0001
0100
0000
,
0010
0000
1000
0000
,
0010
0000
0001
0000
1000
0010
0100
0000
,
0001
0000
1000
0000
,
0010
0100
0001
1000
,
0010
0000
0100
0000
,
0010
0001
0010
0000
0100
1000
0100
0000
,
0000
0000
0010
1000
,
0001
0100
0010
1000
,
0001
0000
0100
0000
,
0010
0000
1000
0000
0001
0100
0010
0000
,
1000
0001
0000
0010
,
1000
0001
0100
0010
,
1000
0100
0001
0000
,
1000
0001
0100
0010
1000
0001
0100
0000
,
0000
0010
1000
0000
,
0010
0001
0100
0000
,
1000
0010
0100
0001
,
1000
0000
0010
0000
,
0100
0001
1000
0000
,
0010
0000
1000
0000
,
0100
0001
1000
0010
,
0100
0000
0001
1000
,
0000
0010
0100
0001
,
1000
0010
0000
1000
,
0010
0100
0001
0000
,
1000
0010
0100
0001
,
1000
0010
0100
0000
0001
0000
1000
0000
,
0010
0000
0100
0000
,
0010
0001
0010
0000
0100
1000
0100
0000
,
0010
0000
1000
0000
0001
0000
0100
0010
,
0000
1000
0000
0000
0001
0000
0100
0000
,
0010
1000
0001
0000
,
0100
0010
0001
1000
,
0010
0100
0001
0000
1000
0000
0010
0000
,
0100
1000
0010
0100
,
0001
0000
1000
0000
,
1000
0001
1000
0000
0010
0100
0010
0000
,
0001
0000
1000
0000
0010
0100
0001
0000
,
0000
1000
0010
0100
,
0001
1000
0010
0000
0100
0000
0001
0000
,
1000
0000
0100
0010
,
0001
1000
0010
0000
0100
0000
0001
0000
,
1000
0000
0010
0000
,
0001
0000
0100
0000
,
0001
0000
0010
0000
,
0100
0000
0001
0000
1000
0010
0100
0000
,
0000
0000
0001
1000
,
0010
0000
0100
0000
0001
1000
0010
0000
,
0100
0000
0001
0000
1000
0000
0000
0010
,
0000
1000
0001
0000
0100
0000
0010
0000
,
1000
0000
0100
0001
,
1000
0000
0010
0100
,
0001
1000
0010
0100
,
0001
1000
0010
0100
0001
0000
1000
0000
,
0000
0010
0100
0000
,
0001
0000
1000
0000
0010
0000
0100
0001
,
1000
0010
0100
0000
,
0001
1000
0010
0100
,
0001
1000
0010
0100
,
0000
0001
1000
0010
,
0100
0001
1000
0000
0010
0000
0100
0000
,
0010
0001
0000
1000
0000
0000
0110
0000
,
0000
0001
1000
0010
,
0100
0001
0000
0000
1000
0000
0010
0000
,
0100
0001
0000
0000
1000
0010
0000
0000
,
0100
0001
1000
0000
0010
0000
0100
0000
,
0001
0000
0010
1000
,
0010
0100
0001
1000
,
0010
0001
1000
0000
0010
0100
0001
0000
,
1000
0000
0010
0000
0100
0001
1000
0000
,
0010
0100
0001
0000
,
1000
0010
0100
0001
,
1000
0000
0010
0100
,
0001
1000
0010
0000
0100
0000
0001
0000
,
1000
0000
0010
0000
0100
0001
1000
0000
,
0010
0000
0100
0001
,
1000
0010
0100
0001
,
1000
0010
0100
0001
1000
0010
0100
0000
,
0001
0000
1000
0010
,
0100
0000
0001
0000
1000
0010
0100
0001
,
1001
0000
0000
0000
;

//--------------- dance-single - XLev450X-ESP ----------------
#NOTES:
     dance-single:
     XLev450X:
     Hard:
     11:
     0,0,0,0,0:
0000
0000
0000
0000
,
0000
0000
0000
0000
,
0000
0000
0000
0000
,
0000
0000
0000
0000
,
0000
0000
0000
0000
,
0000
0000
0000
0000
,
0000
0000
0000
0000
,
0000
0000
0000
0000
,
0000
0000
0000
0000
,
0000
0000
0000
0000
,
0000
0000
0000
0000
,
1000
0001
0000
0100
0000
0000
2002
0000
,
0000
3003
0000
0000
2000
3000
0100
0000
,
0010
0001
0010
0100
,
1000
0200
0000
0000
,
0000
0300
0000
0000
,
0000
0000
0000
0000
0020
0030
0001
0000
,
0010
0100
1000
0100
,
0010
0002
0000
0000
,
0000
0003
0000
0000
0000
0000
0000
0000
,
0000
0000
0100
0010
,
0001
0010
0100
1000
,
0100
0020
0000
0000
,
0030
0200
0300
1000
,
0100
0020
0000
0031
,
0000
0002
0003
0010
,
0100
0000
2000
0000
0000
0000
0000
3000
,
0001
1000
0001
0010
0001
0010
0100
0000
,
0000
0000
0001
1000
0100
1000
0010
0000
,
0001
0100
0001
0010
0000
0010
0100
0010
,
0100
1000
0100
1000
0001
1000
0001
0100
,
0001
0010
0100
0010
0000
0000
1001
0000
,
0000
0010
0100
1000
0001
1000
0010
1000
,
0000
0000
0001
1000
0001
1000
0100
1000
,
0001
0010
0001
1000
0010
1000
0010
0100
,
0001
0100
0001
1000
0010
0100
0010
0000
,
0000
0100
0010
0000
0000
0010
0100
0010
,
0100
0010
0001
0000
0000
0000
0010
0100
,
0001
1000
0001
0100
0010
1000
0010
0100
,
0010
1000
0100
0000
0000
1000
0010
0100
,
0001
0100
0010
1000
0001
1000
0001
0100
,
0001
1000
0010
0000
0000
0100
0001
0010
,
0001
0010
0100
0010
0001
1000
0001
1000
,
0001
0100
0010
0100
0000
0100
0001
0010
,
0000
1000
0010
0100
0001
0000
0001
1000
,
0010
1000
0001
0100
0000
1000
0010
1000
,
0010
0100
0010
1000
0001
0010
0100
1000
,
0100
0010
0100
0010
0001
1000
0010
0000
,
0000
0000
0001
0010
0001
0100
0001
1000
,
0100
0010
0001
0100
0001
0100
0010
0000
,
0001
1000
0001
0010
0100
1000
0100
1000
,
0010
0100
0001
1000
0010
0100
0001
0000
,
0000
0000
0010
0100
0001
0010
0001
0010
,
0100
0010
0001
0000
0000
0010
0100
1000
,
0001
0100
0010
0100
0001
0100
0001
1000
,
0010
1000
0100
0000
0000
1000
0001
1000
,
0100
1000
0001
0010
0100
0000
0001
0010
,
0100
1000
0100
0010
0100
0000
0000
0100
,
0001
0100
0001
0010
0100
0010
0001
0100
,
0001
0100
0001
1000
0010
1000
0010
0000
,
0000
0000
0000
0010
2000
3000
0100
0000
,
0010
0001
0010
0100
,
1000
0200
0000
0000
,
0000
0300
0000
0000
,
0000
0000
0000
0000
0020
0030
0001
0000
,
0010
0100
1000
0100
,
0010
0002
0000
0000
,
0000
0003
0000
0000
0000
0000
0000
0000
,
0000
0000
0100
0010
,
0001
0010
0100
1000
,
0100
0020
0000
0000
,
0030
0200
0300
1000
,
0100
0020
0000
0031
,
0000
0002
0003
0010
,
0100
0000
2000
0000
0000
0000
0000
3000
,
0010
0100
0000
0010
0000
0000
1001
0000
,
0000
0000
0000
0000
2000
3000
0100
0000
,
0010
0001
0010
0100
,
1000
0000
0100
1000
0010
0001
1000
0001
,
0010
0000
1000
0010
1000
0010
0001
0000
,
0000
0000
0000
0000
0020
0030
0001
0000
,
0010
0100
1000
0100
,
0010
0000
0001
0100
1000
0010
1000
0001
,
1000
0000
0101
1010
0000
0000
1001
0000
,
0000
0000
0100
0010
,
0001
0010
0100
1000
,
0100
0000
0010
1000
0001
0100
0010
0100
,
1000
0201
0300
1000
,
0100
0000
0010
0100
1000
0001
0100
0001
,
0000
0002
0003
0010
,
0100
0000
1000
0010
0100
0010
1000
0001
,
0000
0000
0100
0010
1000
0000
0000
0000
,
1001
0000
0000
0000
0010
0000
0000
0100
,
0000
0000
1000
0000
0001
0000
0010
0000
0001
0000
0000
0100
0000
0000
1000
0000
,
0110
0000
0000
0000
;
