#TITLE:The Night Stage;
#ARTIST:CLAZZIQUAI;
#GENRE:Electro POP;
#MUSIC:The Night Stage.ogg;
#BANNER:The Night Stage.png;
#BACKGROUND:The Night Stage-bg.png;
#SAMPLESTART:40.445;
#SAMPLELENGTH:15;
#OFFSET:3.555;
#BPMS:0=120;
#BGSTAGE:17;

//--------------- dance-single - StormTaker21-bSP ----------------
#NOTES:
     dance-single:
     StormTaker21:
     Beginner:
     2:
     0,0,0,0,0:
0000
0000
0000
0000
,
0000
0000
0000
0000
,
0000
0000
0000
0000
,
0000
0000
0000
0000
,
0000
0000
0000
0000
,
0000
0000
0000
0000
,
1000
0000
0000
0000
,
0000
0000
0000
0000
,
0001
0000
0000
0000
,
0000
0000
0000
0000
,
0010
0000
0000
0000
,
0010
0000
0000
0000
,
0001
0000
0000
0000
,
1000
0000
0000
0000
,
0001
0000
0000
0000
,
0000
0000
0000
0000
,
0001
0000
0000
0000
,
0000
0000
0000
0000
,
0010
0000
0000
0000
,
0010
0000
0000
0000
,
0100
0000
0000
0000
,
0010
0000
0000
0000
,
0100
0000
0000
0000
,
0100
0000
0000
0000
,
0001
0000
0000
0000
,
0000
0000
1000
1000
,
1000
0000
0000
0000
,
0000
0000
0001
0001
,
0001
0000
0000
0000
,
0000
0000
0000
0000
,
1000
0000
0000
0000
,
0001
0000
0000
0000
,
0010
0000
0010
0010
,
0000
0000
1000
1000
,
0010
0000
0000
0000
,
1000
0000
0000
0000
,
0001
0000
0001
0001
,
0001
0000
0010
0010
,
0010
0000
0000
0000
,
0001
0000
0000
0000
,
0001
0000
0000
0000
,
1000
0000
0010
0010
,
0010
0000
0100
0000
,
0100
0000
0100
0000
,
0100
0000
0100
0100
,
0000
0000
1000
0000
,
0001
0000
0000
0000
,
1000
0000
0000
0000
,
0010
0000
0000
0000
,
0001
0000
0010
0010
,
0010
0000
0000
0000
,
1000
0000
0001
0000
,
1000
0000
0001
0000
,
0001
0000
1000
1000
,
1000
0000
0000
0000
;

//--------------- dance-single - StormTaker21-BSP ----------------
#NOTES:
     dance-single:
     StormTaker21:
     Easy:
     8:
     0,0,0,0,0:
0000
0000
0000
0000
,
0000
0000
0000
0000
,
0000
0000
0000
0000
,
0000
0000
0000
0000
,
0000
0000
0000
0000
,
0000
0000
0000
0000
,
0010
0001
0010
0010
,
0010
0001
0001
0010
,
0100
0000
1000
0000
0100
1000
0100
0000
,
0010
0000
0010
0000
,
0010
0010
0010
0010
,
0001
0001
0001
1000
,
1000
0000
1000
0000
0010
0100
0010
0000
,
0001
0000
0001
0000
0001
0010
0001
0000
,
0100
0100
0100
0100
,
0100
0000
0100
0000
0100
0010
0100
0000
,
0010
0000
0010
0000
0010
0100
0010
0000
,
0001
0001
0001
0001
,
1000
0000
1000
0000
0010
0100
0010
0000
,
0001
0001
0001
0001
,
1000
0000
0010
0000
1000
0100
1000
0000
,
0010
0000
0010
0000
0010
0100
0001
1000
,
1000
0010
0001
0100
,
0010
0001
0010
0001
,
0001
0010
0010
1000
,
1000
0000
0100
0000
0001
0001
0001
0000
,
0010
0010
0100
1000
,
0001
0010
0100
0001
,
1000
1000
0100
0100
,
0010
0000
0001
0000
0010
0001
0010
0000
,
0010
0010
0010
0010
,
0010
0010
0010
0010
,
0100
0000
0010
0000
0100
0010
0100
0000
,
0001
1000
0001
0001
,
0010
0100
0001
1000
,
0001
0010
0100
0100
,
0001
0000
1000
0000
0001
1000
0001
0000
,
0010
0010
0001
0001
,
1000
1000
0100
0100
,
0010
0010
0001
0001
,
0010
0010
0001
0001
,
0010
0000
0010
0000
1000
0001
1000
0001
,
0100
0100
0100
0010
,
0010
0001
0001
1000
,
0010
0000
0100
0000
0001
1000
0001
0000
,
0010
0000
0010
0000
0100
0001
0100
0010
,
1001
0010
0010
0001
,
0001
0000
1000
0000
0010
0100
0001
0100
,
0000
0000
0010
0010
0000
0000
0001
0001
,
0000
0000
0000
0000
1000
0001
1000
0000
,
0010
0010
0010
0001
,
0010
0001
0010
0001
,
0001
0000
1000
0000
1000
0000
0000
0010
,
0000
0010
0000
0000
0100
0001
0100
0001
,
2000
0000
0000
3000
0000
0000
0000
0000
;

//--------------- dance-single - StormTaker21-DSP ----------------
#NOTES:
     dance-single:
     StormTaker21:
     Medium:
     12:
     0,0,0,0,0:
0000
0000
0000
0000
,
0000
0000
0000
0000
,
0000
0000
0000
0000
,
0000
0000
0000
0000
,
0000
0000
0000
0000
,
0000
0000
0000
0000
,
1000
0100
1000
0100
1000
0100
1000
0100
,
1000
0100
1000
0100
1000
0100
0010
0100
,
0010
0010
0100
0100
0001
0001
0010
0000
,
0010
0001
0010
0100
0001
0010
0001
0010
,
0010
0100
0010
0100
0010
0100
0010
0100
,
0010
0100
0010
0100
0010
0100
0010
0100
,
0001
0010
0100
0001
0101
0001
0101
0000
,
0010
0010
0100
0100
1000
1000
0001
0001
,
0010
0010
0010
0010
,
0010
0010
0010
0010
,
0010
0100
0001
0100
0010
0010
0010
0000
,
1000
0001
1000
0010
0010
0100
0100
0001
,
0001
0000
0010
0000
0010
0001
0010
0000
,
1000
0100
1000
0100
1000
0000
1000
0000
,
0010
1000
0010
0100
0001
1000
1001
0000
,
0010
0000
0001
0000
0010
0100
0001
1000
,
0010
0100
0001
1000
0000
0010
0010
0100
,
0000
0001
0001
1000
0000
0010
0010
0100
,
0100
0001
0001
1000
0000
0010
0100
0001
,
0000
0010
1000
0001
0100
0100
0001
1000
,
1001
0010
1000
0001
0000
0001
1000
0001
,
0000
0010
0010
0100
0000
0100
0100
0001
,
0001
1000
0010
0100
0000
0001
1000
0010
,
0000
0001
0100
0010
1000
0001
0100
0001
,
1000
0001
1000
0001
1000
0010
1000
0010
,
1000
0001
1000
0001
0100
0001
0100
0010
,
0100
0001
1000
0010
0100
0001
1000
0000
,
0001
1000
0010
0100
0001
0100
0010
0100
,
1001
0010
0100
0001
1000
0010
0100
0001
,
1000
0010
0100
0010
0010
0100
0100
0001
,
1010
0001
0110
0001
1010
0001
0101
0000
,
0010
1000
0001
0100
0010
0010
0100
0100
,
0001
1000
0010
0100
0001
1000
0010
0100
,
0001
0000
0001
0010
0000
1000
0001
0100
,
0010
1000
0001
0100
0010
1000
0001
0100
,
0000
0010
0100
0001
1000
0001
1000
0010
,
0100
0001
0100
0010
0000
0010
0010
0001
,
0100
0010
1000
0001
0000
0010
0010
0100
,
0100
1000
1000
0001
0100
0010
0101
0000
,
1010
0001
0100
0010
1000
0001
0100
0010
,
1001
0010
0100
0001
0000
0001
0001
0010
,
0100
0001
1000
1000
0000
0010
0100
0001
,
1000
0010
0010
0010
0000
0001
0001
0100
,
0000
0010
0010
1000
1000
0001
0100
0010
,
0001
0100
0010
1000
0000
0001
0001
0101
,
0000
0010
0010
1010
0000
0010
0010
0110
,
0001
0100
0001
1001
0000
0010
0010
0100
,
0000
0001
0001
1000
1000
0010
0010
0100
,
1001
0000
0000
0000
;

//--------------- dance-single - StormTaker21-ESP ----------------
#NOTES:
     dance-single:
     StormTaker21:
     Hard:
     15:
     0,0,0,0,0:
0000
0000
0000
0000
,
0000
0000
0000
0000
,
0010
0100
0001
1000
0000
1000
0100
1000
,
0000
0100
0010
0100
0000
0001
0010
0001
,
1000
0010
0100
0001
0000
0001
0010
1000
,
0000
0010
0001
0010
0100
0001
1000
0010
,
0100
0010
0100
0000
0100
0010
1000
0000
0010
0100
0001
0000
1000
0010
0100
0000
,
0001
0100
0010
0000
0100
0001
1000
0000
0010
0100
0001
0000
1000
0010
0100
0000
,
0001
0100
0110
0001
0101
1010
1001
0000
,
0010
0000
0100
0000
0001
0000
0100
0000
0010
0100
0001
0100
0010
0000
0100
0000
,
0001
0010
0001
0000
0010
0100
0010
0000
0001
1000
0010
0000
0100
0001
1000
0000
,
0010
0100
0001
0000
1000
0010
0100
0000
0001
1000
0010
0000
0100
0001
0100
0000
,
0010
0000
1000
0000
0001
0000
0100
0000
0010
0100
0001
0000
0110
0000
0000
0000
,
0001
0000
0100
0000
0010
0000
1000
0000
0001
0100
0010
0100
0001
0000
0100
0000
,
0010
1000
0001
0000
0100
0010
1000
0000
0001
0010
0100
0000
1000
0001
0100
0000
,
0010
0100
0010
0000
0100
0010
1000
0000
0001
0100
0010
0000
1000
0001
0100
0000
,
0010
0000
1000
0000
0001
0000
1000
0000
0010
1000
0001
1000
0010
0000
0100
0000
,
1000
0000
0001
0000
1000
0000
0010
0000
0100
0001
0100
0010
1000
0000
0001
0000
,
0100
0010
0100
0000
0001
0100
0010
0000
1000
0001
1000
0000
0010
0100
0001
0000
,
1000
0010
0100
0000
0001
1000
0010
0000
0100
0001
1000
0000
0010
0100
0001
0000
,
1000
0010
1000
0000
0001
0100
0001
0000
0101
0000
0010
0000
1001
0000
0000
0000
,
0010
0000
0100
0000
0001
0000
0100
0000
0010
0100
0001
0000
1000
0010
1000
0000
,
0010
0100
0001
0100
0010
0000
0100
0000
0001
0000
1000
0010
0001
0000
1001
0000
,
0010
0000
0010
0100
0010
0000
0101
0000
0000
0000
0010
1000
0001
0000
1000
0000
,
0010
0000
1000
0001
1000
0000
1010
0000
0001
0000
0100
0010
0100
0000
0101
0000
,
0010
0000
1000
0010
1000
0000
0001
0000
0100
0001
0010
0000
0100
0010
1000
0000
,
1001
0000
0010
0000
0100
0000
0001
0000
1000
0000
0010
1000
0001
0000
0100
0000
,
0010
0000
1000
0001
1000
0000
0010
0000
0100
0000
0001
0100
0001
0000
0001
0010
,
0100
0000
0110
0000
0001
0000
0100
0000
0010
0000
1000
0001
1000
0000
0010
0000
,
0100
0000
0001
0000
1000
0000
0010
0000
0100
0010
0100
0000
0001
0100
0010
0000
,
1000
0100
0001
0000
0001
0010
0100
0000
0100
0010
0001
0000
0010
0100
0001
0000
,
0010
0100
0001
0000
0010
0100
1000
0000
0101
0000
0010
0100
0001
0000
1000
0000
,
0010
0000
0100
0001
1000
0000
0010
0000
0100
0001
1000
0000
0100
0000
0000
0000
,
0001
0000
1000
0000
0010
0000
0100
0000
0101
0001
0100
0000
0110
0010
0100
0000
,
0100
0010
0100
0000
1000
0100
0010
0000
0100
0001
1000
0000
0010
0100
0001
0000
,
1000
0010
0100
0000
0001
1000
0010
0100
0001
1000
0010
0000
0100
0000
0001
0000
,
1000
0010
1000
0000
0001
0100
0010
0000
0100
0001
1000
0010
1000
0000
0000
0000
,
0001
0000
0100
0000
0010
0000
0100
0000
0101
0001
0100
0000
0110
0100
0010
0000
,
0010
0001
0010
0000
1000
0001
0100
0000
0010
0100
0010
0000
0010
0001
0010
0100
,
0010
0100
0010
0001
0010
0000
0010
0000
0100
0000
0001
0000
1000
0000
0010
0000
,
0100
0000
0001
0000
1000
0000
0010
0000
0100
0001
1000
0000
0010
0000
0100
0000
,
0010
0000
1000
0000
0001
0000
0100
0000
0110
0001
0100
0000
0110
0010
1000
0000
,
0010
0000
1000
0001
0000
0100
0010
0000
1000
0000
0001
0000
0100
0000
0010
0000
,
1000
0000
0001
0100
0000
0010
0100
0000
0010
0001
0010
1000
0010
1000
0010
0000
,
0100
0010
0100
0000
0001
1000
0010
0000
0100
0001
1000
0000
0010
0000
0100
0000
,
0001
0000
1000
0000
0010
0000
0100
0000
0100
0010
0100
0010
0001
0100
0010
1000
,
0010
0100
0001
1000
0010
0100
0001
0000
0100
0000
0010
1000
0001
0100
0010
0000
,
1001
0000
0010
0100
0001
1000
0010
0000
1001
0000
0010
0100
0001
1000
0010
0000
,
0110
0000
0001
1000
0010
0100
0001
0000
0101
0000
0010
1000
0100
0010
0100
0010
,
0001
0000
0010
1000
0001
0100
0010
0001
1000
0010
0100
0001
1000
0010
0100
0000
,
1001
0010
0100
0001
1000
0000
0010
0000
0100
0000
0001
0100
0010
1000
1001
0000
,
0010
0000
0001
0100
0010
1000
0001
0000
0110
0000
0001
0100
0001
1000
0010
0000
,
1001
0000
0010
0100
0001
0100
0010
0100
0010
0000
0010
0100
0010
0001
1000
0001
,
0010
0000
0100
0001
1000
0010
0100
0001
1000
0010
0100
0001
1000
0100
0010
1000
,
0002
0000
0000
0003
0000
0000
0000
0000
;

//--------------- dance-single - StormTaker21-CSP ----------------
#NOTES:
     dance-single:
     StormTaker21:
     Challenge:
     14:
     :
0000
0000
0000
0000
,
0000
0000
0000
0000
,
1000
0010
0100
0001
0000
0001
0010
0100
,
0000
0001
0010
0001
0000
0100
0010
0100
,
0000
1000
0100
1000
0000
0010
0100
0001
,
0000
0010
0100
0001
0100
0010
1000
0001
,
1001
MMMM
0110
MMMM
1001
MMMM
0110
MMMM
,
0101
MMMM
1001
MMMM
0101
MMMM
1001
MMMM
,
0010
0100
0001
0100
0010
0010
0010
0000
,
0001
1000
0010
0100
0101
0010
1001
0010
,
0001
MMMM
0001
MMMM
0010
MMMM
0001
MMMM
,
0010
MMMM
0001
0100
0010
0100
0001
0100
,
0101
0010
1010
0001
1001
1001
1001
0000
,
0010
0100
0001
0100
0010
0100
0001
0100
,
0010
0100
0001
0100
0001
0100
0010
1000
,
0100
0010
0100
0010
0010
0100
0100
0001
,
1000
0010
0100
0001
1001
0010
1001
0000
,
0001
0010
0001
0100
0100
0100
0010
0010
,
1000
MMMM
0001
MMMM
0010
MMMM
0001
MMMM
,
1000
MMMM
0010
MMMM
0001
MMMM
0010
0001
,
0001
0001
0010
MMMM
1000
0010
1000
0000
,
0001
0001
0010
0100
0001
0100
0010
1000
,
0001
0010
0110
0100
0000
0001
0100
1001
,
0000
0001
0010
0110
0000
0110
0001
0100
,
0010
0100
0001
1001
0000
0010
0001
0101
,
0000
0010
1000
0001
0100
0100
0010
0010
,
0101
0010
1000
1001
0000
0100
0001
0101
,
0000
1010
0001
0110
0000
1001
0010
0110
,
0001
1000
0010
0110
0000
0101
0010
1010
,
0000
1001
0010
0100
0001
1000
0010
0100
,
0001
1000
0001
1000
0010
1000
0010
1000
,
0001
0100
0010
0100
0001
1000
0010
0100
,
0101
0010
1010
0001
0110
0001
1010
0000
,
0001
0100
0010
1000
1010
0010
1010
0001
,
0110
0001
0110
0001
0110
0001
1001
0010
,
1001
0010
0101
0010
1010
0001
1001
0010
,
0100
0000
0010
0000
0001
0000
0100
0000
0001
0010
0100
0000
0100
0000
0000
0000
,
0001
0000
0100
0000
0010
0000
0100
0000
0001
0010
0100
0000
0100
1000
0100
0000
,
0101
0010
0101
0010
1001
0010
0010
0001
,
0100
0100
0010
1000
0001
0100
0010
1000
,
0001
0001
0010
0010
0100
1000
1000
0000
,
0001
0000
0010
0000
0100
0000
0001
0000
0101
0001
0100
0000
1010
0010
1010
0000
,
0100
0100
0010
0010
0001
1000
1000
0100
,
0010
0010
0100
0100
0001
0001
1000
1000
,
0010
0100
0101
0010
1010
1001
0110
0000
,
0001
0100
0010
1000
0001
0100
0010
1000
,
1001
0000
0010
0000
0101
0000
0010
0000
1001
0000
0010
0100
0010
0000
0101
0000
,
0010
0000
0100
0010
0001
0000
1001
0000
0010
0000
0101
0000
0010
0000
1000
0000
,
0010
0100
0001
1010
0001
1010
0001
1010
,
0001
0000
0110
0000
0001
0000
1000
0000
1010
0000
1010
0000
0001
1000
0001
0000
,
1001
0000
0001
0000
1000
0000
1010
0000
0001
0000
0010
0001
0010
0000
0110
0000
,
0001
0000
1001
0000
0010
0000
1001
0000
0010
0000
0001
0100
0010
0000
0101
0000
,
0010
0000
1001
0000
0110
0000
1001
0000
0010
0000
0100
1000
0100
0000
0101
0000
,
0100
0000
0010
0000
1000
0000
0001
0010
1000
0100
0010
0001
0010
0100
1000
0100
,
2000
3000
0000
0000
;
