#TITLE:The Moon & The Prince;
#SUBTITLE:;
#ARTIST:AJURIKA feat. Kenji Ninuma;
#TITLETRANSLIT:;
#SUBTITLETRANSLIT:;
#ARTISTTRANSLIT:;
#GENRE:;
#CREDIT:;
#MUSIC:The Moon & The Prince.ogg;
#BANNER:The Moon & The Prince.png;
#BACKGROUND:The Moon & The Prince-bg.png;
#CDTITLE:;
#SAMPLESTART:26.963;
#SAMPLELENGTH:15.000;
#SELECTABLE:YES;
#OFFSET:-0.019;
#BPMS:0.000=108.000;
#STOPS:;
#BGSTAGE:16;
#BGCHANGES:;
#FGCHANGES:;

//--------------- dance-single - XLev450X-bSP ----------------
#NOTES:
     dance-single:
     XLev450X:
     Beginner:
     3:
     0,0,0,0,0:
0000
0000
0000
0000
,
0000
0000
0000
0000
,
0000
0000
0000
0000
,
0000
0000
0000
0000
,
0000
0000
0000
0000
,
0010
0000
0000
0000
,
0100
0000
0000
0000
,
0001
0000
0000
0000
,
0000
0000
0000
0000
,
1000
0000
0000
0000
,
0010
0000
0000
0000
,
0100
0000
0000
0000
,
0000
0001
0000
0001
0000
0001
0000
0000
,
0000
1000
0000
1000
0000
1000
0000
0000
,
0000
0010
0000
0000
0000
0100
0000
0000
,
0000
0001
0000
0000
0000
1000
0000
0000
,
0000
0100
0000
0000
0000
0100
0000
0000
,
0000
0010
0000
0000
0000
0010
0000
0000
,
0000
0100
0000
0100
0000
0100
0000
0000
,
0000
0010
0000
0010
0000
0010
0000
0000
,
0000
1000
0000
0000
0000
0001
0000
0000
,
0000
0100
0000
0010
0000
0001
0000
0000
,
0000
1000
0000
0000
0000
0001
0000
0000
,
0000
0100
0000
0010
0000
0100
0000
0000
,
0000
1000
0000
0000
0000
0010
0000
0000
,
0000
0001
0000
0000
0000
0100
0000
0000
,
0000
0010
0000
1000
0000
0001
0000
0000
,
0000
0100
0000
0001
0000
0010
0000
0000
,
0000
0001
0000
0001
0000
0001
0000
0000
,
0000
1000
0000
1000
0000
1000
0000
0000
,
0000
0010
0000
0100
0000
0010
0000
0000
,
0000
0001
0000
1000
0000
0100
0000
0000
,
0000
0001
0000
0000
0000
1000
0000
0000
,
0000
0010
0000
0100
0000
0001
0000
0000
,
0000
1000
0000
0000
0000
0001
0000
0000
,
0000
0100
0000
0000
0000
0010
0000
0000
,
0000
1000
0000
1000
0000
1000
0000
0000
,
0000
0001
0000
0001
0000
0001
0000
0000
,
0000
0010
0000
0010
0000
0010
0000
0000
,
0000
0100
0000
0100
0000
0100
0000
0000
,
0000
1000
0000
0010
0000
1000
0000
0000
,
0000
0100
0000
0001
0000
0100
0000
0000
,
0000
0010
0000
1000
0000
0100
0000
0000
,
0000
0001
0000
0100
0000
0010
0000
0000
,
0000
1001
0000
0000
0000
0000
0000
0000
,
0000
0110
0000
0000
0000
0000
0000
0000
,
0000
1100
0000
0000
0000
0000
0000
0000
,
0000
0011
0000
0000
0000
0000
0000
0000
,
0000
1001
0000
0000
0000
0000
0000
0000
;

//--------------- dance-single - XLev450X-BSP ----------------
#NOTES:
     dance-single:
     XLev450X:
     Easy:
     6:
     0,0,0,0,0:
0000
0000
0000
0000
,
0000
0000
0000
0000
,
0000
0000
0000
0000
,
0000
0000
0000
0000
,
0000
0010
0000
1000
0000
0001
0100
0010
,
0000
1000
0000
0001
0000
0010
0100
0001
,
0000
0010
0000
1000
0000
0001
0000
0100
,
0000
0010
1000
0001
0000
0010
0000
0000
,
0000
0100
0000
0001
0000
0010
0000
1000
,
0000
0010
0000
0100
0000
0001
0010
0101
,
0000
0010
0000
1000
0000
0010
0000
0100
,
0000
0101
0000
0010
0000
1000
0000
0110
,
0000
0001
0000
1000
0000
0010
0000
0100
,
0000
0010
0000
0001
0010
0000
0000
0000
,
0000
0001
0000
0001
0000
1000
0000
0010
,
0000
0100
0000
0001
0000
1000
0010
0100
,
0000
0001
0000
0010
0000
0100
0000
0001
,
0010
1000
0010
0100
0001
0000
0000
0000
,
0000
0010
0000
1000
0000
0010
0100
0001
,
0000
0010
0000
1000
0000
0010
0100
0001
,
0000
0010
0000
1000
0000
0001
0000
0010
,
0000
0100
0000
0001
1000
0010
0000
0000
,
0000
0001
0000
1000
0000
0010
0000
0100
,
0001
1000
0000
0010
0000
1000
0010
0100
,
0000
0001
0000
1000
0000
0010
0000
0000
,
0000
0100
0000
0001
0000
1000
0000
0010
,
0000
0100
0000
0001
0000
1000
0000
0010
,
0000
0100
0000
0001
0000
1000
0010
0100
,
0001
0010
0000
1000
0000
0010
0000
0100
,
0000
0001
0000
0000
0000
1000
0000
0000
,
0000
0010
0000
0100
0000
0001
1000
0010
,
0000
0100
0000
0000
0000
0001
0000
1000
,
0000
0010
0100
0001
0000
0010
0000
1000
,
0000
0001
0000
0000
0000
0010
0000
1000
,
0000
0100
0000
0000
0000
0010
0000
1000
,
0000
0001
0000
0010
0000
0100
0000
0000
,
0000
0001
0000
1000
0000
0010
0100
0001
,
0000
1000
0000
0001
0000
0010
0000
0000
,
0000
0100
0000
0001
0000
1000
0000
0010
,
0100
0001
0000
1000
0000
0010
0100
1001
,
0000
0010
0000
0100
0000
0001
0000
0000
,
0000
1000
0000
0010
0000
0100
0001
1000
,
0010
0100
0000
0001
0000
1000
0000
0010
,
0000
0101
0000
0010
0000
1010
0000
0001
,
0000
1001
0000
0000
0000
0110
0000
0000
,
0000
1100
0000
0000
0000
0011
0000
0000
,
0000
0101
0000
0000
0000
1010
0000
0000
,
0000
0110
0000
0000
0000
1001
0000
0000
,
0000
0110
0000
0000
0000
0000
0000
0000
;

//--------------- dance-single - XLev450X-DSP ----------------
#NOTES:
     dance-single:
     XLev450X:
     Medium:
     8:
     0,0,0,0,0:
0000
0000
0000
0000
,
0000
0000
0000
0000
,
0000
0000
0000
0000
,
0000
0000
0000
0000
,
0000
0000
0001
0000
0000
1000
0000
0000
0010
0000
0000
0000
0100
0000
0001
0000
,
1000
0010
0000
0010
0000
1000
0001
0010
,
0000
0000
0100
0000
0000
0010
0000
0000
1000
0000
0000
0000
0010
0000
0100
0000
,
0001
1000
0000
0010
0100
0000
0001
0101
,
0000
0010
0000
1000
0000
0010
0001
0100
,
0000
0010
0000
0100
0000
0001
1000
0010
,
0000
0100
0000
0001
0000
1000
0010
0100
,
0000
0001
0000
1000
0010
0000
0100
0001
,
0000
0010
0000
1000
0000
0100
0000
0010
,
0001
1000
0000
0010
0000
0100
0001
1000
,
0010
0100
0000
0001
0000
1000
0000
0010
,
0100
1000
0000
0010
0000
0100
0000
0001
,
0100
0010
0000
1000
0000
0001
0000
0100
,
0010
1000
0001
0100
0000
0010
0000
1000
,
0000
0010
0000
0100
0000
0001
1000
0010
,
0000
0100
0000
0001
0000
1000
0001
0100
,
0010
1000
0000
0001
0000
0010
0000
0100
,
0001
1000
0010
0100
0001
1000
0000
0010
,
0000
0100
0000
0001
0000
1000
0010
0100
,
1000
0001
0000
0100
0000
0010
1000
0001
,
0000
0100
0000
0010
0000
1000
0000
0010
,
0100
0001
1000
0010
0100
0001
0000
1000
,
0000
0010
0000
1000
0000
0010
0100
0001
,
0000
1010
0000
0100
0101
0000
0010
1000
,
0000
0010
0000
0100
0000
0010
0000
0001
,
0000
1000
0010
0100
0000
0001
0000
1000
,
0000
0010
0000
0100
0000
0001
1000
0010
,
0100
0001
0000
1000
0000
0010
0100
1000
,
0010
0100
0000
0001
0000
1000
0000
0001
,
0000
0100
0000
0010
0000
1000
0000
0010
,
0100
0001
0000
0000
0000
1000
0000
0010
,
0000
0100
0000
0000
0000
0001
0000
1000
,
0000
0010
0100
1000
0000
0010
0100
0001
,
0000
0001
0000
1000
0000
0010
0100
0001
,
0000
0010
0000
0100
0000
0001
1000
0010
,
0000
0100
0000
1000
0000
0010
0100
0001
,
1000
0010
0000
0100
0000
1000
0010
0100
,
0000
0001
0000
0010
0000
0100
0000
0000
,
0000
1000
0000
0001
0000
0100
0010
1000
,
0000
0001
0000
0100
0000
0010
1000
0001
,
0000
0100
0000
0000
0000
0001
0000
1000
,
0000
0010
0000
0000
0000
0100
0000
1000
,
0000
0010
0000
0100
0000
0001
0000
0000
,
0000
0010
0000
0100
0000
0001
0100
0010
,
0000
1001
0000
0000
0000
0000
0000
0000
;

//--------------- dance-single - XLev450X-ESP ----------------
#NOTES:
     dance-single:
     XLev450X:
     Hard:
     15:
     0,0,0,0,0:
0000
0000
0000
0000
,
0000
0000
0000
0000
,
0000
0000
0000
0000
,
0000
0000
0000
0000
,
0000
0000
0010
0000
0000
0010
0000
0000
0100
0000
0001
0000
1000
0000
0100
0010
,
1000
0001
0100
0000
0010
0000
0001
0000
0100
0000
0001
0000
0010
0000
0100
0000
,
0000
0000
0001
0000
0000
0001
0000
0000
1000
0000
0001
0000
1000
0000
0100
0001
,
0100
0001
0100
0000
1000
0000
0001
0000
0010
0000
0100
0000
0010
0000
0001
0000
,
0000
0000
1000
0000
0000
0001
0000
0000
0010
0000
0100
0000
0001
0000
0010
1000
,
0001
1000
0001
0000
0010
0000
0001
0000
0100
0000
0001
0000
0010
0000
0100
0000
,
0000
0000
0010
0000
0000
0010
0000
0000
0100
0000
0001
0000
1000
0000
0100
0010
,
1000
0001
0100
0000
0010
0000
0001
0000
0100
0000
0001
0000
0010
0000
0100
0000
,
0000
0000
0000
0000
0000
0000
1000
0000
0000
0100
0000
0000
0000
0000
0000
0010
0000
0000
0000
0000
0000
0000
0000
0000
0100
0000
0000
0010
0000
0000
0000
0000
0000
0001
0000
0000
0000
0000
0000
0000
0000
0000
0001
0000
0100
0000
0010
0000
,
1000
0000
0010
0001
0010
1000
0100
0010
0002
0000
0000
0000
0003
0000
1000
0010
,
0000
0000
0100
0000
0000
0100
0000
0000
0001
0000
0100
0000
0010
0000
0100
0000
,
0000
0010
0001
1000
0100
1000
0010
0100
,
0000
0000
0100
0010
0000
1000
0000
0000
0100
0010
0000
0001
0000
0000
0100
0010
,
0100
0000
0000
0010
0000
0000
1000
0000
0000
0001
0000
0000
0100
0000
0000
0010
0000
0000
0100
0000
0001
0000
1000
0000
0200
0000
0000
0000
0000
0000
0000
0000
0000
0000
0000
0000
0300
0000
0000
0000
0000
0000
1000
0000
0000
0001
0000
0000
,
0000
0000
0010
0000
0000
0100
0000
0000
0010
0000
0000
0000
1000
0000
0001
0000
,
0000
0001
0010
0100
0010
0001
0100
0010
,
0000
0000
2000
0000
3000
0100
0010
0000
0001
0000
0010
0000
0100
0000
0100
0010
,
0100
1000
0001
0100
0001
0100
0001
1000
0010
2000
0000
0000
3000
0000
0010
0100
,
1001
0000
0100
0000
0000
0100
0000
0000
0001
0000
0100
0000
0010
0000
0100
0000
,
0000
0010
0001
1000
0100
1000
0010
0100
,
0000
0000
0010
1000
0010
1000
0001
0000
0100
1000
0100
1000
0001
0000
0100
1000
,
0001
0100
0001
0010
0100
1000
0001
1000
0001
0100
0010
0000
0000
0000
0100
0010
,
0000
0000
0100
0000
0000
0100
0000
0000
0001
0000
0100
0000
0010
0000
0100
0000
,
0000
0010
0001
1000
0100
1000
0010
0100
,
0000
0000
0001
0000
0100
0010
0100
0000
0010
0100
0001
0010
0001
0000
0010
1000
,
0010
0100
0010
0100
0001
0100
0001
1000
0001
0200
0000
0000
0000
0300
1000
0001
,
0000
0000
0100
0000
0000
0100
0000
0000
0001
0000
0100
0000
0010
0000
0100
0000
,
0000
0010
0001
1000
0100
1000
0010
0100
,
0000
0000
0001
0000
0001
1000
0010
0000
0100
0010
0100
1000
0001
0000
0001
0010
,
0100
1000
0001
0100
0010
0100
0010
0100
0001
1000
0002
0000
0003
0000
0010
0100
,
0000
0000
0100
0000
0000
0100
0000
0000
0001
0000
0100
0000
0010
0000
0100
0000
,
0000
0010
0001
1000
0100
1000
0010
0100
,
0000
0000
0010
0000
0000
0100
0000
0000
0010
0000
0000
0001
0100
0010
0100
0010
,
0000
0000
0000
0000
0000
0000
0010
0000
0000
0100
0000
0000
0001
0000
0000
1000
0000
0000
0001
0000
0000
0100
0000
0000
0010
0000
0000
1000
0000
0000
0001
0000
0100
0000
0010
0000
0100
0000
0010
0000
0100
0000
1000
0000
0010
0000
0100
0000
,
0000
0000
1000
0000
0000
0010
0000
0000
1000
0000
0000
0010
1000
0001
0100
0010
,
0000
0000
0010
0100
0010
0100
0010
1000
0100
1000
0100
1000
0010
0100
0001
0100
,
0000
0000
0100
0000
0000
0100
0000
0000
0001
0000
0100
0000
0010
0000
0100
0000
,
0000
0010
0001
1000
0100
1000
0010
0100
,
0000
0000
0100
0010
0100
0010
0001
0100
0010
0100
0010
1000
0001
1000
0010
0000
,
0000
0000
0001
1000
0010
0100
0001
0100
0001
0010
0100
0010
1000
0001
1000
0010
,
0100
0000
0000
0001
0000
0000
0100
0000
0000
0000
0000
0000
0010
0000
0000
0100
0000
0000
0010
0000
0000
0000
0000
0000
0000
0000
0000
0001
0000
0000
0010
0000
0000
0001
0000
0000
1000
0000
0000
0010
0000
0000
0000
0000
0000
1000
0100
0000
,
1000
0000
0100
0000
0000
0000
0001
0000
0000
0100
0000
0000
0000
0000
0000
0100
0000
0000
0001
0000
0000
0010
0000
0000
0100
0000
0000
0010
0000
0000
0001
0000
0000
0100
0000
0000
0001
0000
0000
0100
0000
0000
0010
0000
0000
0000
0000
0000
,
1001
0000
0000
0000
0000
0000
0000
0000
0000
0000
0000
0000
0010
0000
0000
0100
0000
0000
0010
0000
0000
0000
0000
0000
0000
0000
0000
0001
0000
0000
0010
0000
0000
0001
0000
0000
1000
0000
0000
0010
0000
0000
0000
0000
0000
1000
0001
0000
,
0100
0000
0001
0000
0010
1000
0100
0010
0001
1000
0100
0010
0001
0010
0001
0000
,
1001
0010
0000
0000
0000
0000
0000
0000
;
