#TITLE:The Last Apocalypse;
#ARTIST:BEMANI Sound Team "Sota F. feat. Yvya";
#ARTISTTRANSLIT:Sota F. feat. Yvya;
#GENRE:NEO-CLASSICAL CORE;
#MUSIC:The Last Apocalypse.ogg;
#BANNER:The Last Apocalypse.png;
#BACKGROUND:The Last Apocalypse-bg.png;
#CDTITLE:./CDTitles/bm IIDX 31 EPOLIS.png;
#SAMPLESTART:11.368;
#SAMPLELENGTH:15;
#BPMS:0=190;
#BGSTAGE:29;

//--------------- dance-single - XLev450X-bSP ----------------
#NOTES:
     dance-single:
     XLev450X:
     Beginner:
     5:
     0,0,0,0,0:
0000
0000
0000
0000
,
0000
0000
0000
0000
,
0000
0000
0000
0000
,
0000
0000
0000
0000
,
0000
0000
0000
0000
,
0001
0000
1000
0000
,
0001
0000
1000
0000
,
1001
0000
0000
0000
,
0010
0010
0010
0010
,
1000
0001
0100
0010
,
1000
0001
1000
0000
,
0100
0001
1000
0010
,
0000
0101
0000
1010
,
0010
1000
0001
0100
,
0010
1000
0001
0000
,
1000
0000
0001
0000
,
1000
0010
0100
0000
,
0001
0000
1000
0000
,
0001
1000
0010
1000
,
0001
0000
0100
0000
,
0000
0000
0000
0000
,
0001
0001
1000
0010
,
0100
0000
1000
0000
,
0010
1000
0001
0100
,
0110
0000
0000
0000
,
0001
0001
0001
0000
,
1000
1000
1000
0000
,
0010
1000
0010
0100
,
0001
0100
0001
0000
,
0010
0100
0001
0000
,
1000
0001
0100
0000
,
1000
0010
1000
0010
,
0100
0000
0000
0000
,
0001
0001
1000
0010
,
1000
0001
0100
0010
,
1000
0010
0100
0010
,
0001
0010
1000
0000
,
0010
0001
0010
1000
,
0001
0100
0010
1000
,
0001
0100
0010
1000
,
0001
0000
0000
0000
,
0100
0000
1000
0000
,
0001
0100
0010
1000
,
0001
0000
0010
0000
,
1000
0001
1000
0010
,
0100
0000
0001
0000
,
1000
0010
1000
0010
,
0100
0000
0001
0000
,
0101
0000
0000
0000
,
1000
0000
0000
0000
,
0001
0000
0000
0000
,
0010
0000
0000
0000
,
0100
0000
0000
0000
,
1000
0000
0001
0000
,
1000
0000
0000
0000
,
0010
0000
0100
0000
,
0010
0000
0000
0000
,
0101
0000
0000
0000
,
1010
0000
0000
0000
,
0110
0000
0000
0000
,
1001
0000
0000
0000
,
0001
0000
1000
0000
,
0001
0000
1000
0000
,
1001
0000
0000
0000
,
0000
0000
0000
0000
,
0010
1000
0010
0100
,
0000
0001
0000
1000
,
0010
1000
0001
0100
,
0010
0000
1000
0000
,
0001
0100
0010
1000
,
0000
0001
0000
0001
,
1000
0001
0100
0010
,
0000
0000
0000
0000
,
0001
0001
1000
0010
,
0000
0000
0000
0000
,
1000
0010
0100
0001
,
0000
0000
0000
0000
,
1000
0010
0100
0001
,
0000
0000
0000
0000
,
1000
1000
0001
0100
,
0000
0000
0000
0000
,
0010
1000
0001
0100
,
0010
0000
0000
0000
,
1000
0010
0100
0010
,
0000
0000
0000
0000
,
1000
0001
0100
0010
,
0000
0000
0000
0000
,
0001
1000
0001
0100
,
0000
0000
0000
0000
,
1001
0000
0000
0000
,
0000
0000
0000
0000
,
0010
0000
0000
0000
0000
1000
0000
0000
,
0001
0000
1000
0000
,
0010
0000
0000
0000
0000
0100
0000
0000
,
0001
0000
1000
0000
,
0001
0001
0001
0000
,
1000
0010
0100
0000
,
1001
0000
0000
0000
,
1000
0001
1000
1001
;

//--------------- dance-single - XLev450X-BSP ----------------
#NOTES:
     dance-single:
     XLev450X:
     Easy:
     9:
     0,0,0,0,0:
0000
0000
0000
0000
,
0000
0000
0000
0000
,
0000
0000
0000
0000
,
0000
0000
0000
0000
,
0000
0000
0000
0000
,
0001
0000
0000
1000
1000
0000
0000
0010
,
0010
0000
0000
0100
0100
0000
0000
0000
,
2002
0000
0000
3003
,
0001
1000
0010
0100
,
0001
0000
0010
0001
0010
0000
1000
0000
,
0010
0000
0100
1000
0010
0100
0001
0000
,
1000
0000
0001
0100
0000
0001
1000
0000
,
0010
0100
1000
0001
,
0001
0001
0001
1000
0010
0000
0100
1000
,
0000
0100
0001
0000
0100
0000
0001
1000
,
0010
0000
0000
1010
0000
0000
0001
0000
,
0100
0000
0010
0000
1000
0001
0000
0000
,
0100
0010
1000
0001
,
0010
0001
1000
0000
,
0010
1000
0001
0100
,
0000
0001
0000
0001
0000
0001
0000
0000
,
1000
0010
0100
0000
1000
0000
0001
1000
,
0000
0001
0010
0000
1000
0000
0001
1000
,
0010
1000
0001
0100
,
0020
0000
0000
0130
,
0001
0001
1000
0010
,
0100
0000
1000
0000
0010
0001
1000
0010
,
0100
0001
1000
0001
,
0100
0010
0001
0000
1000
0001
1000
0000
,
0010
0000
1000
0000
0001
0200
0000
0300
,
0010
0000
1000
0000
0100
0020
0000
0030
,
1000
0000
0001
0000
0100
0000
0010
1000
,
0002
0000
0000
1003
,
0001
0000
1000
0000
0010
1000
0001
0000
,
0100
0000
0010
0000
0001
0000
1000
0010
,
0000
0100
0001
1000
,
0010
1000
0001
0000
,
0001
0000
1000
0000
0010
1000
0010
0100
,
0001
0000
0100
0000
0010
0001
1000
0010
,
0100
0001
1000
0000
0010
0000
0100
0000
,
0010
1000
0001
0100
0020
0000
0130
0000
,
0001
1000
0010
1000
,
0001
0000
0100
0001
,
1000
0001
0000
0000
0010
0000
0001
0000
,
1000
0000
0001
0100
0001
1000
0010
0000
,
1000
0001
0100
1000
,
0001
0100
0001
1000
,
0010
0100
1000
0001
,
0100
0001
1000
0010
,
0001
0000
1000
0000
,
0001
0001
1000
0010
,
0100
0001
1000
0001
,
0100
0000
0001
1000
0001
0000
0000
0000
,
1000
0000
0010
0000
1000
0000
0001
0100
,
0001
1000
0010
0100
,
1000
0001
0100
0010
,
0001
0010
0100
1000
0010
0000
0110
0000
,
0001
0001
1000
0000
,
0010
0010
0000
1000
0000
0001
0100
0000
,
0010
0000
1000
0000
0200
0000
0000
0300
,
0001
1000
0000
0010
0000
0100
1000
0000
,
0101
0000
1010
0000
,
0110
0000
0011
0000
,
2002
0000
0000
3003
,
0001
1000
0001
1000
,
0010
0000
0100
0000
1000
0000
0001
0100
,
0000
0010
0000
1000
0000
0001
0000
0100
,
0001
1000
0001
0000
0100
0000
0010
0000
,
0000
1000
0000
0001
0000
0100
0000
0000
,
1000
0000
0010
0000
0100
1000
0100
0001
,
0000
1000
0000
0010
0000
0100
0000
0001
,
0010
0001
1000
0000
0010
0000
0100
0000
,
0101
0000
0000
0000
1010
0000
0000
0000
0110
0000
0000
0000
2002
3003
0000
0000
,
0010
0001
1000
0100
,
2000
0000
0000
3000
,
0010
0000
0001
0010
0001
0000
1000
0000
,
0202
0000
0000
0303
,
1000
0000
0001
0100
0010
0000
1000
0000
,
0220
0000
0000
0330
,
1000
0000
0001
0100
0001
0000
1000
0000
,
0202
0000
0303
0010
,
1000
0001
0100
0010
,
2000
0000
0000
3000
,
1000
0001
0100
0010
,
0000
0000
1001
0000
0000
0101
0000
0000
0011
0000
0000
1001
0000
0000
0101
0000
,
1000
0000
0001
0000
1000
0000
0010
0100
,
0020
0000
0000
0000
0000
0000
0000
0030
,
0001
0000
1000
0000
0010
0001
0100
0010
,
0200
0000
0000
0310
,
2002
0000
0000
0000
,
0000
0000
0000
0000
0000
0000
0000
3003
,
0010
0000
0000
0000
0000
1000
0000
0000
,
0001
0000
0010
0000
0001
1000
0001
0100
,
0010
0000
0000
0000
0000
1000
0000
0000
,
0010
0000
1000
0000
0001
0010
0000
1000
,
0001
0000
0000
1000
0010
0000
0000
0100
,
1000
0000
0000
0010
0100
0010
0000
0100
,
2002
0000
0000
3003
,
1000
0001
0100
1001
;

//--------------- dance-single - XLev450X-DSP ----------------
#NOTES:
     dance-single:
     XLev450X:
     Medium:
     14:
     0,0,0,0,0:
0000
0000
0000
0000
,
0000
0000
0000
0000
,
0000
0000
0000
0000
,
0000
0000
0000
0000
,
0000
0000
0000
0000
,
1000
0000
0001
0100
0010
0000
1000
0001
,
0100
0000
0010
0000
1000
0001
0000
0100
,
0020
0000
0000
0030
,
0001
1000
0001
1000
0001
1000
0001
1000
0001
1000
0001
1000
0001
0000
0000
0000
,
0010
0000
0001
1000
0010
1000
0001
0000
,
0100
0000
1000
0010
0000
1000
0001
0000
,
0100
0000
0000
0000
0010
0000
0001
0000
1000
0000
0000
0010
0000
0000
0100
0000
,
0000
0101
0000
1010
0000
0110
0000
1000
,
0001
0001
0001
1000
0010
0000
0100
1000
,
0000
0010
0100
0001
1000
0010
0100
0000
,
0101
0000
0000
1010
0000
0000
0110
0000
,
0001
0000
1000
0000
0010
0000
0100
0000
0001
0000
1000
0001
0010
0000
0000
0000
,
1000
0100
0001
0010
0100
1000
0001
1000
,
0010
0100
0001
1000
0001
0100
0001
0010
,
1000
0000
0001
0000
0100
0000
0010
0000
1000
0000
0000
0001
0000
0000
0100
0000
,
0000
0000
0010
0001
0010
0000
1000
0100
1000
0000
0001
0000
1000
0000
0000
0000
,
0010
1000
0001
0100
0010
0000
1000
0001
,
0000
0010
0001
1000
0010
0100
0001
1000
,
0001
0000
0100
0010
0000
1000
0001
0000
,
0202
0000
0000
0303
,
1000
0000
0010
0000
1000
0001
0100
0000
,
0010
0000
0000
0000
1000
0000
0000
0000
0001
0100
1000
0000
0010
0000
0000
0000
,
0100
0000
0000
0000
1000
0000
0000
0000
0001
1000
0100
0000
0010
0000
0000
0000
,
1000
0000
0100
0000
0001
0000
0000
0001
0000
0000
0001
0000
1000
0000
0000
0000
,
0001
1000
0010
0100
1000
0000
0001
0000
,
0100
0000
0010
1000
0001
0100
0010
0000
,
0010
0001
0100
0000
1000
0000
0100
0000
0001
0000
0010
0000
0001
0000
0000
0000
,
1000
0001
0010
1000
0100
0010
0001
0000
,
1000
0001
1000
0010
0100
0100
0001
1000
,
0001
0010
0100
0001
1000
0010
0100
0010
,
0000
0000
0001
1000
0010
0000
1000
0000
0000
0000
0100
0000
0001
0000
1000
0000
,
0010
0100
0001
1000
0100
0010
0000
0000
,
0001
1000
0010
0100
0010
1000
0001
0100
,
0010
1000
0100
0001
0100
0010
1000
0001
,
0000
0000
1000
0001
1000
0000
0010
0000
1000
0000
0001
0000
0010
0000
0100
0000
,
2000
0000
0000
3001
,
1001
0000
1000
0000
0100
0100
0000
0010
,
0010
0001
1000
0000
0010
0100
0001
0000
,
0010
0100
1000
0001
0100
0010
0100
0001
,
1000
0100
0010
0000
0001
0000
1001
0000
,
0011
0100
1010
0100
,
0011
0000
1100
0000
1000
0001
1000
0000
,
0010
0100
0001
0100
0010
1000
0001
0010
,
0100
1000
0010
0100
0001
0010
0100
0000
,
1100
0000
0011
0000
,
1000
0001
0100
0000
,
0010
0000
1000
0000
,
0001
1000
0001
0000
,
0100
0000
0010
0000
,
1000
0010
1000
0000
,
0001
0000
0100
0000
,
1000
0001
0100
0000
,
1001
1001
0000
0000
,
1001
1001
0000
0011
0000
1100
0000
0000
,
0001
0100
1000
0000
0000
0000
0000
0000
,
0001
0010
0001
0000
0000
0000
1001
0000
0000
0000
0110
0000
0000
0000
0000
0000
,
0001
0100
0001
1000
0010
0001
0010
0100
,
1000
0000
0100
0000
0010
0000
0001
0000
0100
0000
0000
0010
0000
0000
1000
0000
,
0020
0000
0000
0000
0000
0000
0000
0030
,
0010
0100
0010
0100
0010
0100
0010
0100
0010
0100
0010
0100
0020
0000
0030
0000
,
1000
0100
1000
0100
0010
0001
0010
0001
,
1000
0010
0100
0001
0100
0010
1000
0000
,
0001
0010
0100
1000
0010
0100
0001
1000
,
0100
0010
0001
0100
0010
0000
1001
0000
,
1000
0001
0010
0001
1000
0010
0100
0001
,
1000
0100
0010
0001
0010
0100
1000
0001
,
1000
0001
0100
0001
0010
0100
1000
0001
,
0011
1010
0110
1001
,
0001
1000
0010
0100
0001
1000
0010
0100
,
0020
0000
0000
0000
0000
0000
0000
0030
,
1000
0001
1000
0100
0010
0100
0001
1000
,
0002
0000
0000
0000
0000
0000
0000
0003
,
1000
0001
0010
0100
0010
1000
0001
0100
,
0020
0000
0000
0030
,
1000
0010
0100
0001
1000
0100
0010
0001
,
0101
1010
0110
0011
,
1000
0010
1000
0010
0001
0010
0001
0010
,
1000
0001
0010
0100
1000
0001
0100
0001
,
1000
0100
1000
0100
0001
0100
0001
0100
,
1000
0000
1000
0000
0000
0001
0000
0000
0001
0000
0000
1000
0000
0000
0010
0000
,
0100
0001
0010
0001
1000
0010
0100
0001
,
1000
0100
1000
0010
0100
0001
1000
0100
,
0010
0001
1000
0001
0100
0010
1000
0001
,
2002
0000
0000
3003
,
1000
0000
0001
0000
0100
0000
0010
0000
1000
0100
0000
0001
0000
0000
0100
0000
,
0001
1000
0010
0100
0001
1000
0100
0010
0001
1000
0001
0100
0020
0000
0000
0030
,
1001
0000
0000
0000
0000
1010
0000
0000
,
0110
0000
0000
0000
0000
0000
0000
0000
1000
0000
0000
0001
0000
0000
0100
0000
,
0110
0000
0000
0000
0000
1100
0000
0000
,
0001
1000
0010
0100
0001
1000
0010
0000
,
0100
0000
0000
0001
1000
0000
0000
0010
,
1000
0000
0000
0000
0000
0000
0001
0000
0100
0000
0000
0010
0000
0000
1000
0000
,
0220
0000
0000
0330
,
0010
0001
0010
0000
1000
0100
1000
0000
0010
0100
0010
0000
1001
0000
0000
0000
;

//--------------- dance-single - XLev450X-ESP ----------------
#NOTES:
     dance-single:
     XLev450X:
     Hard:
     18:
     0,0,0,0,0:
0000
0000
0000
0000
,
0000
0000
0000
0000
,
0000
0000
0000
0000
,
0000
0000
0000
0000
,
0000
0000
0000
0000
,
1001
0000
0001
0100
0001
0000
1000
0010
,
1000
0000
0000
0000
0100
0000
0001
0000
0100
0000
0010
0001
0000
0000
0100
0000
,
2002
0000
0000
3003
,
0010
0001
0100
1000
0010
0100
0001
0100
0010
1000
0010
0100
1001
0000
0000
0000
,
0001
0000
0000
0000
1000
0000
0010
0000
0100
0000
0001
1000
0001
0000
0010
0000
,
0100
0000
0010
0000
0100
0000
0001
0000
0010
0000
0001
0010
0001
0000
0100
0000
,
1000
0000
0010
0000
0100
0001
0100
0000
1000
0000
0000
0010
0000
0000
0100
0000
,
1100
0101
0011
1010
0110
0101
1001
0010
,
1000
0001
0100
0010
1000
0000
0001
0100
,
0000
0000
0010
0000
1000
0000
0001
0000
0010
0000
0001
0010
1000
0100
0001
0000
,
1010
0000
0000
0101
0000
0000
1100
0000
,
1000
0000
0001
0000
0100
0000
0010
0000
1000
0001
0100
0010
0000
0000
0000
0000
,
0110
0000
1000
0001
0200
2300
3200
0302
,
2003
3200
0302
0203
0320
0230
0302
0203
,
1300
0000
0100
0010
0001
1000
0010
0000
0100
0000
0010
1000
0010
0000
0100
0000
,
0001
0000
0001
0000
1000
0100
0010
0001
1000
0000
1000
0000
1001
0000
0000
0000
,
0001
0001
1000
1000
0100
0000
0010
0100
,
0000
0000
0010
0000
0001
0000
1000
0000
0010
0001
0100
0000
1000
0000
0100
0000
,
0001
0000
0100
0010
0000
1000
0001
0000
,
0100
1000
0100
0000
0010
0001
0010
0000
0001
1000
0001
0000
0110
0000
0000
0000
,
1001
0000
0000
0000
1000
0100
0010
0001
1000
0100
0010
0001
1000
0100
0010
0001
,
1000
0010
0100
0001
1000
0010
0100
0001
2000
0000
3200
0000
0320
0000
0032
0000
,
1003
0010
0000
0010
0100
0001
1000
0010
1000
0001
0010
0100
1000
0001
0010
0100
,
1000
0001
0100
0001
1000
0001
0100
0001
2000
0000
3002
0000
0023
0000
0230
0000
,
1300
0000
0000
1010
0000
0000
1001
0000
0001
0010
0100
1000
0002
0000
0000
0000
,
1003
0010
1000
0001
0100
0000
0010
0000
1000
0001
0010
0100
2000
0000
0000
0000
,
3001
0010
0001
1000
0100
0000
0010
0000
0001
0000
1000
0000
0001
0000
0100
0000
,
0010
1000
0001
0000
0100
0010
1000
0000
0001
1000
0100
0010
0002
0000
0003
0000
,
0010
0100
0010
1000
0100
1000
0100
1000
,
0010
0000
0100
0000
0001
0000
0010
0000
0001
0000
1000
0000
0010
0100
2000
0000
,
3000
0000
1000
0001
0010
0000
0100
0000
0010
0000
0100
0000
0001
0000
0100
0000
,
0010
1000
0010
0100
0001
0200
0010
0300
,
0001
0100
1000
0001
0010
0000
0100
0000
0010
0001
1000
0100
0001
0000
1000
0000
,
0010
1000
0100
0010
0001
0100
0010
0200
,
0300
0000
0010
1000
0001
0000
0010
0000
0100
0000
1000
0000
0010
0000
0100
0000
,
0001
1000
0001
1000
0010
2000
0010
3000
,
1001
0000
1000
1000
0100
0110
0000
0010
,
0011
0000
1000
1000
0010
0100
0001
1000
,
1001
0000
0000
1000
0100
0010
0100
0000
2000
0000
3002
0000
0203
0000
0320
0000
,
1030
0000
0001
0000
0010
0000
0001
0000
1000
0001
0100
0000
0010
0000
1000
0000
,
1001
0000
1000
0010
0110
0000
0001
1000
,
1100
0000
0101
0000
1010
1000
0001
0010
,
0100
0000
1000
0000
0001
0100
0001
0000
1000
0000
0100
0000
0010
0000
0001
0000
,
1000
0000
0000
0010
0000
0000
1000
0000
0000
0001
0000
0000
1000
0000
0000
0010
0000
0000
1000
0000
0000
0001
0000
0000
1000
0000
0000
0000
0100
0000
0000
0000
0010
0000
0000
0000
0001
0000
0000
0000
0000
0000
0000
0000
0000
0000
0000
0000
,
0001
1000
0100
1000
0100
0010
0100
0010
0001
0100
0010
1000
0010
1000
0001
0010
,
0100
1000
0010
1000
0010
1000
0001
0100
0010
0100
0001
0010
0100
1000
0001
1000
,
0001
0100
0001
0100
0010
1000
0001
0100
0010
1000
0001
1000
0100
1000
0100
0010
,
0100
0010
0001
1000
0010
1000
0001
0010
0100
0000
0000
0000
1001
0000
0000
0000
,
0010
0100
0001
0100
0001
0010
0100
0010
0001
1000
0010
1000
0100
1000
0100
0010
,
0001
1000
0010
1000
0001
0100
0010
0100
,
0010
1000
0010
0100
0001
1000
0100
0010
0100
0010
0001
1000
0100
1000
0001
0100
,
0010
1000
0100
0010
0100
1000
0100
1000
0001
0100
0010
1000
0022
0033
0000
0000
,
1010
0101
1100
0001
,
0101
1001
0000
1100
0000
0011
1010
0000
,
1001
1000
0100
0000
0010
0000
0001
0000
,
1000
0010
0100
0000
0000
0000
0101
0000
0000
0000
1100
0000
0110
0000
0000
0000
,
1000
0000
0010
0000
0100
0000
0001
0000
1000
0000
0100
0000
0010
0000
0001
1000
,
0001
0000
0100
0000
0010
0000
1000
0000
0001
0010
0000
0110
0000
0000
1000
0000
,
0001
0100
0001
0000
1000
0010
1000
0000
0001
0010
0001
0010
0100
1000
0100
1000
,
0002
0000
0000
0003
,
0001
0000
1000
0000
0010
0001
1000
0001
0010
1000
0100
0010
0001
0000
1000
0000
,
0000
0000
0101
0000
0000
0000
1010
0000
0000
0000
0110
0000
0000
0000
0001
1000
,
0010
0001
1000
0001
0100
0010
1000
0001
,
0000
1010
0000
0011
0000
1001
0000
0000
,
0010
0001
0010
1000
0010
0000
0100
0000
,
1000
0001
0100
0010
1000
0000
0001
0000
,
0100
0000
0000
0000
0010
0000
1000
0001
0000
0000
0100
0000
0010
0000
0000
0000
,
1000
0000
0001
0000
0010
0000
0002
0003
,
0100
1000
0100
1000
0100
0010
0001
0100
0010
1000
0100
1000
0100
1000
0010
0100
,
0020
0000
0000
0030
,
0010
1000
0010
1000
0010
0100
0001
0010
0001
1000
0010
0100
0001
1000
0100
1000
,
0020
0000
0000
0030
,
0010
0001
0010
0001
0010
0100
1000
0010
0100
0001
0010
0001
0010
0001
0100
0010
,
0200
0000
0000
0300
,
0100
0001
0100
0001
0100
0010
1000
0100
1000
0001
0100
0010
1000
0001
0010
0001
,
0200
1000
1000
1300
,
0100
1000
0010
1000
0100
1000
0001
0100
0010
1000
0010
1000
0001
0100
0001
0100
,
0020
0000
0000
0000
0000
0000
0000
0030
,
0100
0000
0010
0000
0100
0000
1000
0000
0001
0000
0100
0000
0010
0000
1000
0000
0010
0000
0100
0000
0001
0000
0100
0000
0001
0000
0010
0000
0001
0010
2000
0000
,
0100
0000
0100
0000
0000
0100
0000
0000
0001
0000
0000
0001
0000
0000
3100
0000
,
0001
0010
0100
1000
0001
1000
0010
1000
0010
0100
0010
0100
0001
1000
0010
0100
,
0020
0000
0000
0000
0000
0000
0000
0030
,
0100
0000
0010
0000
0001
0000
1000
0000
0100
0000
1000
0000
0010
0000
0100
0000
0010
0000
1000
0000
0001
0000
0010
0000
0100
0000
1000
0000
0001
0010
1000
0000
,
0200
0000
0000
0310
,
1000
0000
0001
0000
1000
0000
0001
0000
0010
0100
0000
1100
0000
0000
1000
0000
,
0001
1000
0001
1000
0010
1000
0010
1000
0001
0010
0100
1000
0001
0000
0000
0000
,
1000
0000
0001
1000
0000
0010
0000
0100
,
0010
0000
0000
0000
1000
0000
0000
0000
0001
0100
0000
1000
0010
0000
1000
0000
,
0001
0000
1000
0010
0000
0100
0000
0001
,
1000
0001
1000
0000
0010
0100
0010
0000
0001
0100
0001
1000
0001
0000
0010
0000
,
1000
0000
0001
0100
0001
0000
1000
0010
,
1000
0000
0000
0000
0100
0000
0001
0000
0100
0000
0010
0001
0000
0000
0100
0000
,
2002
0000
0000
3003
,
0010
0001
0100
1000
0010
0100
0001
0100
0010
1000
0010
0100
1001
0000
0000
0000
;
