#TITLE:大藝術家;
#SUBTITLE:;
#ARTIST:蔡依林;
#TITLETRANSLIT:The Great Artist;
#SUBTITLETRANSLIT:;
#ARTISTTRANSLIT:Jolin Tsai;
#GENRE:;
#CREDIT:;
#MUSIC:The Great Artist.ogg;
#BANNER:The Great Artist.png;
#BACKGROUND:The Great Artist-bg.png;
#CDTITLE:;
#SAMPLESTART:47.246;
#SAMPLELENGTH:15.000;
#SELECTABLE:YES;
#OFFSET:-0.058;
#BPMS:0.000=192.000
,248.000=96.000
,280.000=192.000
;
#STOPS:;
#BGSTAGE:1;
#BGCHANGES:;
#FGCHANGES:;

//--------------- dance-single - XLev450X-bSP ----------------
#NOTES:
     dance-single:
     XLev450X:
     Beginner:
     4:
     0,0,0,0,0:
0000
0000
0000
0000
,
0000
0000
0000
0000
,
0000
0000
0000
0000
,
0000
0000
0000
0000
,
0000
0000
0000
0000
,
0000
0000
0000
0000
,
0001
0000
1000
0000
,
0010
0000
0000
0000
,
0100
0000
0001
0000
,
1000
0000
0000
0000
,
0001
0000
0100
0000
,
0010
0000
0000
0000
,
1000
0000
0001
0000
,
0010
0000
0000
0000
,
0100
0000
0001
0000
,
1000
0000
0000
0000
,
1000
0000
0001
0000
,
0010
0000
0000
0000
,
0100
0000
0001
0000
,
0010
0000
0000
0000
,
2002
0000
0000
0000
,
0000
0000
0000
3003
,
0010
0000
0100
0000
,
0001
0000
1000
0000
,
0010
0000
0100
0000
,
0001
0000
0010
0000
,
0100
0000
1000
0000
,
0001
0000
0010
0000
,
0100
0000
0001
0000
,
1000
0000
0000
0000
,
0010
0000
0100
0000
,
0001
0000
0000
0000
,
0010
0000
0100
0000
,
0001
0000
0000
0000
,
1000
0000
0010
0000
,
0100
0000
0001
0000
,
0220
0000
0000
0000
,
0000
0000
0000
0330
,
0001
0001
0001
0000
,
1000
1000
1000
0000
,
0010
0100
0010
0000
,
0010
0001
0010
0000
,
1000
0000
0001
0000
,
0100
0000
0010
0000
,
1000
0000
0001
0000
,
0010
0000
0100
0000
,
1000
1000
1000
0000
,
0001
0001
0001
0000
,
0010
0010
0010
0000
,
0100
0100
0100
0000
,
0001
0000
1000
0000
,
0010
0000
0100
0000
,
2002
0000
0000
0000
,
0000
0000
0000
3003
,
0010
0000
0100
0000
,
0001
0000
1000
0000
,
1000
0000
0001
0000
,
0010
0000
0000
0000
,
0100
0000
0001
0000
,
1000
0000
0010
0000
,
0100
0000
0001
0000
,
0010
0000
0000
0000
,
0001
0000
0000
0000
,
1000
0000
0000
0000
,
0010
0000
0000
0000
,
0100
0000
0000
0000
,
0001
0000
0000
0000
,
1000
0000
0000
0000
,
0010
0000
0000
0000
,
0100
0000
0000
0000
,
0001
0001
0001
0000
,
1000
1000
1000
0000
,
0010
0000
0100
0000
,
0001
0000
1000
0000
,
0010
0100
0001
0000
,
1000
0010
0100
0000
,
0001
0000
0100
0000
,
0010
0000
0000
0000
,
1000
1000
1000
0000
,
0001
0001
0001
0000
,
0010
0010
0010
0000
,
0100
0100
0100
0000
,
0001
0000
1000
0000
,
0010
0000
0100
0000
,
2002
0000
0000
0000
,
0000
0000
0000
0000
,
3003
0000
0000
0000
;

//--------------- dance-single - XLev450X-BSP ----------------
#NOTES:
     dance-single:
     XLev450X:
     Easy:
     6:
     0,0,0,0,0:
0000
0000
0000
0000
,
0000
0000
0000
0000
,
0000
0000
0000
0000
,
0000
0000
0000
0000
,
0000
0000
0000
0000
,
0000
0000
0000
0000
,
0001
0000
1000
0000
,
0010
0000
0001
0000
,
1000
0000
0100
0000
,
0001
0000
0000
0000
,
1000
0000
0010
0000
,
0100
0000
0001
0000
,
1000
0000
0010
0000
,
0100
0000
0000
0000
,
0001
0000
1000
0000
,
0010
0000
0100
0000
,
0001
0000
0010
0000
,
1000
0000
0100
0000
,
0001
0000
0010
0000
,
0100
0000
1000
0000
,
0202
0000
0000
0303
,
2020
0000
0000
3030
,
0020
0030
0200
0300
,
0002
0003
2000
3000
,
0020
0030
0200
0300
,
0002
0003
0000
0000
,
2000
3000
0002
0003
,
0020
0030
0200
0300
,
0002
0003
2000
3000
,
0020
0030
0000
0000
,
0100
0000
0010
0000
,
0001
1000
0001
0000
,
0010
0000
0100
0000
,
1000
0001
1000
0000
,
0010
0000
0100
0000
,
0001
1000
0010
0000
,
2002
0000
0000
0000
,
0000
0000
0000
3003
,
0010
0010
0010
1000
,
0001
0100
0010
1000
,
0001
0100
0010
1000
,
0001
0000
0100
0000
,
0001
0001
1000
0010
,
0100
0001
1000
0010
,
0100
0001
1000
0010
,
0100
0000
0001
0000
,
1000
0000
0001
0010
,
0100
0000
1000
0000
,
0001
0100
0010
0000
,
1000
0000
0001
0000
,
0010
0100
0001
1000
,
0010
0100
0001
0010
,
2002
0000
0000
0000
,
0000
0000
0000
3003
,
0010
0000
1000
0001
,
0010
0000
0100
0001
,
1000
0000
0010
0100
,
0001
1000
0010
0100
,
0001
0000
1000
0001
,
0100
0000
0010
1000
,
0001
0000
0010
0100
,
0001
1000
0010
0100
,
0001
0001
1000
0000
,
0100
0010
1000
0000
,
0001
0100
0001
0000
,
0010
1000
0010
0000
,
0100
0001
1000
0000
,
0010
0100
0001
0000
,
0010
1000
0001
0010
,
0100
0001
1000
0010
,
0001
0001
1000
0010
,
0100
0001
1000
0010
,
0100
0001
1000
0010
,
0200
0000
0300
0000
,
0001
1000
0010
0100
,
0001
1000
0010
0100
,
0001
1000
0010
0100
,
0001
0000
1000
0010
,
0000
0100
0001
1000
,
0010
0100
0001
0000
,
1000
0010
0100
0000
,
0001
1000
0010
0000
,
0100
0001
1000
0010
,
0100
0001
1000
0010
,
2002
0000
0000
0000
,
0000
0000
0000
0000
,
3003
0000
0000
0000
;

//--------------- dance-single - XLev450X-DSP ----------------
#NOTES:
     dance-single:
     XLev450X:
     Medium:
     10:
     0,0,0,0,0:
0000
0000
0000
0000
,
0000
0000
0000
0000
,
0000
0000
0000
0000
,
0000
0000
0000
0000
,
0000
0000
0000
0000
,
0000
0000
0000
0000
,
0001
0000
1000
0000
,
0010
0100
0001
0010
,
1000
0000
0001
0010
,
0100
0001
1000
0010
,
0100
0001
1000
0001
,
0010
0100
0001
0000
,
1000
0000
0001
0010
,
0100
0001
0000
1000
0010
0000
0100
0000
,
0000
0001
1000
0010
,
0100
0000
0001
0000
1000
0001
0100
0010
,
0000
0001
1000
0010
,
0001
0000
0010
0000
0100
0001
1000
0000
,
0010
0000
0100
0000
0001
1000
0010
0000
,
0100
0000
0001
0000
0010
0000
0100
0001
,
0000
1000
0010
0100
,
0001
1000
0010
0100
,
0001
0000
1000
0001
0100
0000
0010
0000
,
0002
0000
0003
0000
1000
0001
0100
0010
,
1000
0001
0100
0010
,
2000
3000
0001
0010
,
0100
0001
1000
0010
,
0200
0300
0001
1000
,
0010
0000
0100
0000
0001
1000
0010
0000
,
0200
0000
0300
0002
,
0003
0000
1000
0010
0100
0001
0010
0000
,
2000
0000
3000
0000
0002
0003
0010
0100
,
0001
1000
0010
0100
,
2000
0000
3000
0000
0002
0003
0020
0000
,
0030
0000
0100
0001
0000
1000
0000
0010
,
0100
0001
2000
3000
,
0010
0100
0001
1000
,
0002
0003
0010
0100
,
0001
0100
0001
0000
1000
0010
1000
0000
,
0010
0100
0001
0000
0001
0000
1000
0000
,
0010
0100
0001
0000
1000
0000
0010
0000
,
0200
0300
0001
1000
,
0001
0000
0100
0010
,
1000
0001
0100
0000
0001
0000
1000
0000
,
0010
1000
0010
0000
0100
0001
0100
0000
,
0010
0100
0001
1000
,
0010
0000
0200
0300
,
0001
1000
0001
0000
0100
0000
0010
0000
,
1000
0000
0002
0003
,
0010
0100
0001
0000
1000
0000
0010
0000
,
0100
0001
1000
0010
,
0100
0001
0010
1000
,
0202
0000
0000
0000
,
0000
0000
0000
0303
,
0001
1000
0010
0100
,
0001
1000
0010
0000
0100
0000
0001
0000
,
1000
0001
0100
0010
,
0001
1000
0010
0000
0200
0000
0300
0000
,
0001
1000
0010
0100
,
0001
1000
0010
0000
0100
0000
0001
0000
,
1000
0010
0100
0001
,
1000
0010
0100
0001
1000
0000
0010
0000
,
0100
0000
0000
0001
1000
0000
0010
0000
,
0100
0001
1000
0010
0100
0000
0001
0000
,
1000
0000
0000
0010
0100
0000
0000
0001
,
1000
0000
0000
0010
0000
0000
0100
0000
0001
0000
0000
0000
1000
0000
0001
0000
,
0100
0000
0010
0000
1000
0001
0100
0000
,
0010
0000
1000
0001
0100
0010
1000
0001
,
0100
0010
1000
0001
,
0010
0000
0100
0000
0001
1000
0010
0100
,
0001
0010
1000
0001
,
0010
0100
1000
0001
,
1000
0000
0010
0000
0100
0001
1000
0000
,
0010
0100
1000
0001
,
0100
0010
1000
0000
0001
0100
0010
0000
,
1000
0001
0100
0010
,
1000
0001
0100
0000
0010
1000
0001
0000
,
0200
0300
0010
1000
,
0001
0100
0010
0001
,
1000
0001
0100
0010
2000
0000
3000
0000
,
0001
0000
0100
0010
1000
0001
0100
0000
,
0010
1000
0001
0010
,
0100
0001
0100
0000
1000
0010
1000
0000
,
0100
0010
0100
0000
0010
0100
0010
0000
,
2002
0000
0000
0000
,
0000
0000
0000
0000
,
3003
0000
0000
0000
;

//--------------- dance-single - XLev450X-ESP ----------------
#NOTES:
     dance-single:
     XLev450X:
     Hard:
     14:
     0,0,0,0,0:
0000
0000
0000
0000
,
0000
0000
0000
0000
,
0000
0000
0000
0000
,
0000
0000
0000
0000
,
0000
0000
0000
0000
,
0000
0000
0000
0000
,
0001
0000
0000
0010
1000
0000
0001
0000
0010
0000
1000
0000
0001
0000
1000
0000
,
0001
0010
0100
0001
1000
0000
0200
0000
,
0300
0000
0001
1000
0010
0100
0002
0003
,
1000
0010
0100
0001
1000
0100
0010
0001
,
0000
0100
0001
1000
0010
0000
0100
0000
,
0001
1000
0001
0100
1000
0000
1000
0020
,
0030
0000
0001
0100
1000
0010
0001
0000
,
0100
0001
0000
1000
0010
0000
0220
0000
,
0330
0000
0001
1000
0010
0100
0001
1000
,
0001
0010
0100
0001
1000
0000
0010
0200
,
0300
0000
0100
0001
1000
0010
0100
0001
,
1000
0010
1000
0001
0100
0000
0010
0100
,
0000
0001
1000
0010
0100
0000
0001
1000
,
0100
0010
0100
0001
1000
0000
0100
0001
,
0000
0000
1000
0010
0100
0000
0001
0000
,
1000
0000
0001
0010
0100
0001
1000
0010
,
0100
1000
0001
1000
0010
0100
0001
1000
,
0020
0000
0030
0000
0001
0010
0100
1000
0100
0000
1000
0000
0001
0000
0010
0000
,
1000
0010
0100
0001
1000
0010
0100
0001
,
2020
0000
3030
0000
0000
1000
0100
0010
0001
0000
0010
0100
1000
0000
0100
0000
,
0010
0100
0001
0010
1000
0010
0100
0001
,
2000
0000
3000
0000
0010
1000
0100
0010
,
0001
1000
0010
0100
0001
1000
0010
0100
,
0002
0003
0000
2002
,
3003
0000
0010
0100
0001
1000
0100
0010
,
0001
0000
0000
0010
0000
0000
0100
0000
1000
0000
0000
0000
1000
0001
0100
0010
,
1000
0001
1000
0010
0001
1000
0001
1000
,
0020
0000
0000
0000
0030
0000
0000
0000
2200
3300
0000
0000
0202
0000
0303
0000
,
0000
0000
0000
1000
0001
0000
0100
0000
0000
0000
0010
0000
0000
0000
0001
0000
,
1000
0010
0200
0300
,
0001
1000
0010
0100
0001
0100
1000
0100
,
0020
0030
0000
0000
0100
0000
0001
0000
1000
0000
0010
0000
0001
0000
0000
0000
,
2200
0000
3300
0000
0000
0010
0100
0001
,
1000
0000
0010
0100
0000
0100
0001
1000
,
0010
0001
0100
0010
0001
0000
1000
0000
,
0020
0000
0000
0000
0030
0000
0000
0000
0100
0000
0000
0000
0002
0003
0000
0000
,
0200
0000
0300
0000
0000
0010
1000
0001
,
0100
0000
0010
1000
0000
0100
0001
1000
,
0010
0001
0100
0010
1000
0010
2000
3000
,
0002
0003
0100
0020
,
0030
0000
0001
1000
0010
0100
0001
0000
,
0010
0100
0002
0003
,
0000
0000
1000
0001
0100
0010
1000
0100
,
0001
0010
0100
0001
0010
0000
1000
0000
,
0010
2000
3000
0000
0001
0020
0030
0000
,
1000
0200
0300
0000
0010
0200
0300
0000
,
0001
0010
1000
0100
0010
0100
0000
0001
,
0000
1000
0000
0010
0100
1000
0001
0000
,
0001
0000
1000
0000
0010
0100
0001
0000
,
1000
0100
0001
0010
,
1000
0001
0100
0000
0010
1000
0001
0000
,
0100
1000
0001
0010
1000
0000
0100
0000
,
0001
1000
0010
0000
0100
0001
1000
0000
,
0010
0100
0001
0000
1000
0010
0100
0000
,
0001
0000
1000
0000
0010
0100
0001
0000
,
0010
1000
0001
0100
0010
1000
0010
0100
,
0001
0010
0100
0010
0001
0100
0010
0100
0001
0100
0001
0010
0002
0000
0003
0000
,
0001
0100
0001
0010
0100
1000
0100
0010
0001
0010
0100
1000
0000
0010
0000
0000
,
0200
0300
0000
0001
2000
3000
0000
1000
,
0010
0000
0000
0001
0000
0000
0100
0000
0002
0000
0003
0000
0220
0330
0000
0000
,
0010
1000
0001
0100
0001
0100
0010
1000
0100
0001
0010
1000
0000
0200
0300
0000
,
0010
0100
0010
1000
0001
0010
0001
1000
0010
1000
0100
0010
0200
0000
0300
0000
,
0002
0003
0000
1000
0020
0030
1000
0001
,
0010
0000
0000
0000
0101
0000
0000
0000
0010
0000
1000
0000
0001
0100
1000
0001
,
2200
0000
3300
0000
0000
0010
0100
0001
,
1000
0000
0010
0100
0000
0100
0001
1000
,
0010
0001
0100
0010
0001
0000
1000
0000
,
0020
0000
0000
0000
0030
0000
0000
0000
0100
0000
0000
0000
0002
0003
0000
0000
,
0200
0000
0300
0000
0000
0010
1000
0001
,
0100
0000
0010
1000
0000
0100
0001
1000
,
0010
0001
0100
0010
1000
0010
2000
3000
,
0002
0003
0100
0020
,
0030
0000
0001
1000
0010
0100
0001
0000
,
0010
0100
0002
0003
,
0000
0000
1000
0001
0100
0010
1000
0100
,
0001
0010
0100
0001
0010
0000
1000
0000
,
0010
2000
3000
0000
0001
0020
0030
0000
,
1000
0200
0300
0000
0010
0200
0300
0000
,
0001
0010
1000
0100
0010
0100
0000
0001
,
0000
1000
0000
0010
0100
1000
0002
0000
,
0003
0000
0000
0000
;
