#TITLE:The GameHacker (Sampled Crazy Shuffle);
#ARTIST:BEMANI Sound Team "HuΣeR";
#ARTISTTRANSLIT:HuΣeR;
#MUSIC:The GameHacker (Sampled Crazy Shuffle).ogg;
#BANNER:The GameHacker (Sampled Crazy Shuffle).png;
#BACKGROUND:The GameHacker (Sampled Crazy Shuffle)-bg.png;
#CDTITLE:./CDTitles/DANCERUSH STARDOM.png;
#SAMPLESTART:35.625;
#SAMPLELENGTH:15;
#SELECTABLE:YES;
#OFFSET:-0.469;
#BPMS:0.000=128;

//--------------- dance-single - XLΣv450X (Sampled Yooh)-bSP ----------------
#NOTES:
     dance-single:
     XLΣv450X (Sampled Yooh):
     Beginner:
     4:
     0,0,0,0,0:
0000
0000
0000
0000
,
0000
0000
0000
0000
,
0000
0000
0000
0000
,
0000
0000
0000
0000
,
0000
0000
0000
0002
,
0000
0000
0003
2000
,
0000
0000
3000
0020
,
0000
0000
0030
0200
,
0000
0000
0000
0000
0300
0000
0000
0000
0020
0000
0000
0030
2000
0000
0000
0000
,
0000
0000
0000
3000
,
0000
0000
0000
0002
,
0000
0000
0000
0003
,
0000
0000
0000
0001
,
0000
0001
0000
0010
,
0000
1000
0000
1000
,
0000
1000
0000
1001
,
0000
0000
0000
2002
,
0000
3003
0000
0220
,
0000
0000
0330
0010
,
0000
0001
0000
0100
,
0000
0100
0000
0001
,
0000
0100
0000
1000
,
0000
1000
0000
0100
,
0000
1000
0000
0010
,
0000
0010
0000
0001
,
0001
0001
0000
1000
,
1000
1000
0000
0010
,
0100
0020
0030
0010
,
0001
2000
3000
2002
,
3003
0100
0000
1000
,
1000
1000
0000
0010
,
0000
1000
0000
1001
,
0000
0000
0000
1000
,
0001
0100
0000
0010
,
0001
1000
0000
1000
,
0001
0100
0000
0010
,
1000
0010
0000
2000
,
0000
0000
0000
3000
,
0000
0000
0000
0002
,
0000
0000
0000
0003
,
0000
0000
0000
0001
,
0000
0001
0000
0010
,
0000
1000
0000
1000
,
0000
1000
0000
1001
,
0000
0000
0000
0001
,
1000
0001
0100
0010
,
1000
0000
0020
0000
0000
0030
0001
0000
,
1000
0010
0100
0001
,
1000
0000
0200
0000
0000
0300
0001
0000
,
1000
0001
0000
1000
,
0010
0000
0200
0000
0000
0300
0001
0000
,
0001
1000
0010
0200
,
0000
0000
0000
0000
0000
0300
1000
0000
,
1000
1000
0000
0100
,
0000
0000
0000
0001
,
0001
0001
0000
0100
,
0000
0000
0000
0001
,
0000
0010
0000
0100
,
0100
0100
0000
1000
,
0000
0010
0000
0100
,
0100
0100
0000
1001
;

//--------------- dance-single - XLΣv450X (Sampled Yooh)-BSP ----------------
#NOTES:
     dance-single:
     XLΣv450X (Sampled Yooh):
     Easy:
     8:
     0,0,0,0,0:
0000
0000
0000
0000
,
0000
0000
0000
0000
,
0000
0000
0000
0000
,
0000
0000
0000
0000
,
0000
0000
0000
1000
,
0001
0010
0100
0001
,
1000
0000
0010
1000
0001
0000
0100
0000
,
0010
0000
0001
0000
0010
0000
0001
0010
,
0001
0000
1000
0010
0100
0000
0001
0000
,
0100
1000
0100
0001
,
0100
1000
0100
0001
,
0010
1000
0010
0100
,
0100
0100
0000
1000
,
0000
0100
0000
0010
,
0000
0001
0000
0100
,
0001
1000
0010
1001
,
0000
0110
1001
1001
,
0000
0101
0000
1010
,
0110
1001
0110
0001
,
0100
0010
0100
0001
,
0000
1000
1001
0002
,
0003
2000
3000
0001
,
1000
0001
0001
1000
,
0100
0010
0100
1000
,
1000
1000
0001
1000
,
0001
0100
0010
0001
,
1000
0000
0001
0100
0010
0000
1000
0000
,
0010
0000
0100
0000
0001
0000
1000
0010
,
0100
0000
0001
0100
0010
0000
2002
3003
,
0100
0001
1001
0001
,
0100
1000
1001
0002
,
0013
2000
3100
0001
,
1000
0001
1001
0001
,
1000
0000
0010
0100
0001
0000
1000
0000
,
0010
0000
0000
0100
0001
0000
1000
0000
,
0001
0100
0001
1000
,
0010
0000
1000
0001
0100
1000
0001
0000
,
0100
1000
0100
0001
,
0100
1000
0100
0001
,
0010
1000
0010
0100
,
0100
0100
0000
1000
,
0000
0100
0000
0010
,
0000
0001
0000
0100
,
0001
1000
0010
1001
,
0000
0110
1001
0001
,
1000
0000
0010
0000
0100
0000
0001
0010
,
0001
0000
0000
0000
1000
0000
0010
0000
0200
0000
0000
0300
0001
0000
0000
0000
,
1000
0000
0010
0001
0010
0000
1000
0000
,
0100
0010
1000
0020
0000
0030
1000
0000
,
0001
0000
0100
0010
1000
0000
0001
0000
,
0010
0100
0000
0001
,
1000
0000
0001
0100
0010
0000
0020
0000
,
0000
0000
0000
0000
2030
0000
0000
0000
3002
0000
0000
0003
2000
0000
0000
0000
,
3001
0100
0010
0002
,
1003
0100
0010
0001
,
0100
0001
0100
0001
,
0000
1000
1001
0002
,
1003
2000
3001
0010
,
0100
0010
0110
1000
,
1001
0001
1001
0100
,
0010
0100
0010
0110
;

//--------------- dance-single - XLΣv450X (Sampled Yooh)-DSP ----------------
#NOTES:
     dance-single:
     XLΣv450X (Sampled Yooh):
     Medium:
     11:
     0,0,0,0,0:
0000
0000
0000
0000
,
0000
0000
0000
0000
,
0000
0000
0000
0000
,
0000
0000
0000
0000
,
0000
0000
0000
0000
0000
0000
0000
0000
0000
0000
0000
0000
1000
0000
0000
0001
,
0000
0000
0100
0000
0010
0000
0000
1000
0000
0000
0001
0000
0100
0000
0010
0000
,
1000
0000
0000
0000
0001
0000
0100
0000
0010
0000
0000
0000
0001
0000
0000
1000
,
0000
0000
0010
0000
0100
0000
0000
0001
0000
0000
1000
0000
0010
0000
0100
0000
,
0001
0000
1000
0000
0010
0000
0100
0000
1000
0000
0000
0100
0001
0000
0100
0000
,
0010
0100
0001
0000
0010
0000
0001
0100
,
0010
0100
0001
0000
0010
0000
1002
0000
,
0010
0100
1000
2003
,
0100
0010
3001
0002
,
0100
2003
0100
3002
,
0100
0000
2003
0000
0100
0000
3001
0100
,
1000
0100
0001
0100
1000
0100
0002
1000
,
2003
0000
0000
0000
3001
0000
0000
0000
1001
0000
0000
0000
1000
0000
0000
0001
,
0000
0000
0100
0000
0010
0000
0000
1000
0000
0000
0001
0000
0100
0000
0010
0000
,
1000
0000
0000
0001
0000
0000
0100
0000
0000
0010
0000
0000
1000
0000
0001
0100
0000
0000
0001
0000
0000
0100
0000
0000
,
0010
1000
0001
0100
0010
0100
0001
0100
,
0001
0100
0010
0100
0001
0000
1000
0100
,
0010
0001
1000
0100
0010
0100
1000
0100
,
1000
0100
1000
0100
0110
0000
0010
1000
,
0010
1000
0001
0100
0001
0100
0002
0000
,
0010
0000
0000
0000
0103
0000
0000
0000
1001
0000
0000
0000
0001
0000
0000
1000
,
0000
0000
0010
0000
0000
0100
0000
0000
0001
0000
1000
0000
0010
0000
0000
0100
,
0000
0000
0001
0000
0000
0010
0000
0000
0001
0000
1000
0000
0010
0000
0100
0000
,
0001
0000
0010
0001
1000
0000
0010
0100
,
0001
0000
1000
0000
0010
0000
0000
0100
0000
0000
0001
0000
0010
0000
0000
0000
,
1020
0230
0010
0001
,
1000
0000
0001
0000
0302
0000
0103
0010
,
1000
0100
0010
0001
1000
0100
0020
0000
,
0001
1000
0031
0001
,
1000
0000
0001
0010
0001
0000
1000
0000
,
0010
0000
0100
0001
1000
0010
0100
0000
,
0001
0000
0000
0000
1000
0000
0000
0001
0000
0000
0100
0000
0010
0000
1000
0000
,
0001
0000
0010
0000
0100
0000
0001
0000
1000
0010
0100
0000
0001
0000
0100
0000
,
0010
0100
0001
0000
0010
0000
0001
0100
,
0010
0100
0001
0000
0010
0000
1002
0000
,
0010
0100
1000
2003
,
0100
0010
3001
0002
,
0100
2003
0100
3002
,
0100
0000
2003
0000
0100
0000
3001
0100
,
1000
0100
0001
0100
1000
0100
0002
1000
,
2003
0000
3001
0000
1001
0000
0001
1000
,
0010
0000
0100
0001
1000
0000
0010
1000
,
0001
0100
0010
1000
0100
0000
0001
0010
,
0001
0000
0000
0000
1000
0000
0010
0000
0100
0000
0000
0000
0001
0000
0000
1000
,
0000
0001
0010
0100
0001
0000
0001
1000
,
0010
0100
0001
0000
0010
0000
1000
0001
,
0000
0100
0000
0010
1000
0000
0001
0100
,
0001
0000
0000
0000
1000
0000
0010
0000
0100
0000
0001
0000
1000
0000
0000
0010
,
0000
0000
0100
0000
0000
0001
0000
0000
1000
0000
0000
0000
0001
0000
0010
0000
,
0001
0000
0001
0100
0010
1000
0001
0100
,
0001
0000
1000
0010
1000
0000
0001
0010
,
0001
0000
0001
0100
0010
0100
0001
0010
,
0001
0000
1000
0100
1000
0000
0001
0010
,
0001
0000
0010
0100
0010
1000
0001
0010
,
0001
2002
3003
0020
,
0230
0320
0230
0320
,
0100
0001
1030
1001
;

//--------------- dance-single - XLΣv450X (Sampled Yooh)-ESP ----------------
#NOTES:
     dance-single:
     XLΣv450X (Sampled Yooh):
     Hard:
     15:
     0,0,0,0,0:
0000
0000
0000
0000
,
0000
0000
0000
0000
,
0000
0000
0000
0000
,
0000
0000
0000
0000
,
0000
0000
0000
0000
0000
0000
1000
0001
,
0100
0010
0000
1000
0001
0100
0000
0001
,
1000
0000
0010
0000
0100
0000
0001
1000
0010
0000
0100
0000
0001
0000
1000
0000
,
0010
0100
0000
1000
0001
0100
0001
0000
,
1000
0000
0000
0000
0010
0000
1000
0000
0010
0100
0010
1000
0001
0000
0000
0100
,
0000
0000
0010
0000
0000
1000
0000
0000
1001
0000
1000
0100
0010
0000
0000
0001
,
0000
0000
0100
0000
0000
0010
0000
0000
0110
0000
0001
0000
1000
0000
0000
0010
,
0000
0000
0100
0000
0000
0001
0000
0000
1001
0000
0000
0000
0010
0000
0000
0000
,
0010
0000
0010
0000
0100
0100
0001
0010
,
0001
0010
0100
1000
0100
1000
0010
1000
,
0010
1000
0001
0100
0001
0100
0010
0010
,
0010
0000
0000
0010
0000
0000
0010
0000
0000
0010
0000
0000
0010
0000
0000
0010
0000
0000
0010
0000
1000
0100
0000
0000
,
1000
0000
0000
0001
0000
0100
0000
0000
0000
0010
0000
0000
1001
0000
0000
0110
0000
0000
0001
0000
0000
0100
0000
1000
,
0000
0000
0010
0000
0000
0001
0100
0000
0000
1000
0000
0001
0000
0000
1000
0000
0000
0100
0011
0000
0000
0101
0000
0000
,
1010
0000
0000
1001
0000
0000
0110
0000
0001
0000
0000
1000
0001
0000
0000
0100
0000
0000
0001
0000
0000
1000
0000
0000
,
0100
0000
0000
0010
0000
0000
0001
0000
0010
0100
0000
1000
0100
0000
0010
0001
0000
1000
0001
0000
0000
0100
0000
0000
,
0010
1000
0001
1000
0002
0000
1003
0001
,
0100
0000
0000
0010
0000
0000
1000
0000
0010
0100
0000
0001
1000
0000
0001
0100
0000
0010
1000
0000
0000
0100
0000
0000
,
0010
0001
0100
0010
0200
0000
0301
0100
,
0010
0000
0000
0000
0000
0000
0100
0000
0000
0000
0000
0000
0010
0000
0000
0000
1000
0000
0010
0000
0000
0000
0100
0000
0001
0000
0000
0000
1000
0000
0001
0000
0000
0000
0100
0000
0020
0000
0000
0000
0000
0000
0000
0000
0000
2030
0000
0000
,
0000
0000
3200
0000
0000
0310
0000
0000
0110
0000
0000
0000
0001
0000
1000
0000
,
0010
0000
0100
0000
0001
0000
1000
0001
0000
0100
0000
0000
0001
0000
1000
0000
,
0010
0000
0001
0000
1000
0000
0010
0100
0001
1000
0010
0000
0100
0000
0001
0000
,
1000
0000
0010
0000
0100
0000
0001
1000
0000
0010
0000
0000
0100
0000
0001
0000
,
1000
0000
0010
0000
0100
0000
0001
1000
0000
0100
0000
0000
2002
0000
0000
3003
,
0001
0000
0000
0010
0000
0000
0001
0000
0100
0010
0000
0100
0000
0000
0010
0000
0000
0010
1000
0000
0001
0100
0000
0000
,
0001
0000
1000
0100
0000
0000
1000
0000
0001
0100
0000
0000
0010
0000
0000
0010
0000
0000
0100
0000
0000
0100
0000
0000
,
0100
0000
0000
0000
0000
0000
0000
0000
0000
0000
0000
0000
0001
0000
0000
0000
1000
0000
0001
0000
0000
0000
1000
0000
0000
0000
0000
0000
0010
0000
0000
0000
0000
0000
0010
0000
0200
0000
0000
0000
0000
0000
0000
0000
0000
0302
0000
0000
,
0000
0000
2003
0000
0000
3001
0000
0000
1001
0000
0000
0000
1000
0000
0001
1000
,
0100
0000
0010
0000
0100
0000
0001
0100
1000
0000
0010
0000
0001
0000
0010
0001
,
0010
0000
1000
0000
0001
0000
0010
1000
0100
0000
0001
0000
1000
0000
0010
1000
,
0001
0000
0100
0000
0010
0000
1000
0001
0100
0000
0010
0000
1000
0000
0001
0010
,
0100
0000
0000
0000
0000
0000
0010
0000
0000
0000
0000
0000
1000
0000
0000
0000
0000
0000
0100
0000
0000
1000
0000
0000
0010
0000
0100
0000
0001
0000
0010
0000
0100
0000
0010
0000
0001
0000
0000
0000
0000
0000
0000
0000
0000
0100
0000
0000
,
0000
0000
0010
0000
0000
1000
0000
0000
1001
0000
1000
0100
0010
0000
0000
0001
,
0000
0000
0100
0000
0000
0010
0000
0000
0110
0000
0001
0000
1000
0000
0000
0010
,
0000
0000
0100
0000
0000
0001
0000
0000
1001
0000
0000
0000
0010
0000
0000
0000
,
0010
0000
0010
0000
0100
0100
0001
0010
,
0001
0010
0100
1000
0100
1000
0010
1000
,
0010
1000
0001
0100
0001
0100
0010
0010
,
0010
0000
0000
0010
0000
0000
0010
0000
0000
0010
0000
0000
0010
0000
0000
0010
0000
0000
0010
0000
1000
0100
0000
0000
,
1000
0000
0000
0001
0000
0100
0000
0000
0000
0010
0000
0000
1001
0000
0000
0110
0000
0000
0010
0000
0001
1000
0000
0000
,
0010
0000
1000
0000
0001
0000
0100
0000
0010
0000
0001
1000
0010
0000
0001
0000
,
0100
0000
0001
0000
1000
0000
0001
0100
0000
0010
0000
0000
1000
0000
0001
0000
,
0100
0000
0010
0000
1000
0001
0010
0100
1000
0000
0001
0000
0010
0000
0001
0000
,
0010
0000
0000
0000
0000
0000
0001
0000
0000
0000
0000
0000
1000
0000
0000
0010
0000
0000
0100
0000
0000
0001
0000
0000
0100
0000
0000
0000
0001
0000
1000
0000
0000
0000
0010
0000
1000
0000
0000
0000
0000
0000
0001
0000
0000
0000
0000
0000
,
0100
0000
0010
0000
1000
0001
0100
0000
0010
0000
1000
0000
0001
0010
0001
0000
,
1000
0001
0100
0000
0010
0000
1000
0000
0001
1000
0100
0000
0010
0000
0001
0000
,
1000
0000
0010
0000
0100
0001
0000
1000
0000
0010
0000
0000
0100
0000
0000
1000
,
0000
0000
0001
0000
0000
0100
0000
0000
0010
0000
1000
0000
0001
0000
0101
0000
,
0000
1100
0000
1010
0000
0011
0001
1000
,
0100
0000
0000
0010
0000
0000
0001
0000
0100
0010
0000
0100
0020
0000
0000
0130
0000
0000
0000
0000
0000
0101
0000
0000
,
0000
0011
0000
1010
0000
1100
1000
0100
,
0010
0000
0000
0001
0000
0000
1000
0000
0010
0100
0000
0010
0200
0000
0000
0000
0000
0000
0301
0000
0000
0100
0000
0000
,
1000
0000
0000
0100
0000
0000
0001
0000
0000
0010
0000
0000
0100
0000
0000
1000
0000
0000
0010
0000
0100
0010
0000
0000
,
0010
0000
0100
0010
0000
0000
0010
0000
0100
0010
0000
0000
0100
0000
0100
0000
0100
0000
0001
0000
0000
0010
0000
0000
,
0100
0000
0010
0000
0001
0000
1000
0000
0100
0000
0010
0000
0002
0000
0000
2003
,
0000
0000
3020
0000
0000
0130
0000
0000
0110
0000
0000
0000
1001
0000
0000
0000
;
