#TITLE:The Future of INFINITAS;
#ARTIST:BEMANI Sound Team;
#GENRE:THEME SONG;
#MUSIC:The Future of INFINITAS.ogg;
#BANNER:The Future of INFINITAS.png;
#BACKGROUND:The Future of INFINITAS-bg.png;
#CDTITLE:./CDTitles/bm IIDX INFINITAS.png;
#SAMPLESTART:79.076;
#SAMPLELENGTH:15;
#BPMS:0=169.964;
#DISPLAYBPM:169;
#BGSTAGE:27;

//--------------- dance-single - XLev450X-bSP ----------------
#NOTES:
     dance-single:
     XLev450X:
     Beginner:
     3:
     0,0,0,0,0:
0000
0000
0000
0000
,
0000
0000
0000
0000
,
0000
0000
0000
0000
,
0000
0000
0000
0000
,
0000
0000
0000
0000
,
0000
0000
0000
0000
,
0000
0000
0000
0000
,
0000
0000
0000
0000
,
0001
0001
0001
0000
,
1000
1000
1000
0000
,
0010
0010
0010
0000
,
0100
0100
0100
0000
,
0010
0100
0010
0000
,
1000
0001
1000
0000
,
0010
1000
0010
0000
,
2002
0000
0000
3003
,
0010
0010
0001
0000
,
0100
0100
1000
0000
,
0001
0001
0100
0000
,
0010
0010
1000
0000
,
1000
0001
1000
0000
,
0100
1000
0100
0000
,
0010
0100
0010
0001
,
1000
0000
0000
0000
,
0001
1000
0001
0000
,
0010
0010
0100
0000
,
1000
0001
1000
0000
,
0100
1000
0010
0000
,
0001
0000
1000
0000
,
0010
0000
0100
0000
,
0001
0000
1000
0000
,
0022
0000
0000
0033
,
1000
0010
1000
0000
,
0001
0100
0001
0000
,
0010
0010
0100
0000
,
1000
0000
0001
0000
,
0100
0100
1000
0000
,
0010
0010
0001
0000
,
0100
1000
0100
0000
,
0010
0000
0100
0000
,
0001
1000
0000
0000
,
0010
0000
1000
0000
,
0010
0100
0000
0000
,
0001
0000
0010
0000
,
1000
0001
0000
0000
,
0100
0000
0010
0000
,
1000
0010
0000
0000
,
0220
0000
0000
0330
,
0001
0000
1000
0000
,
0001
0000
0000
0000
,
0010
0000
0100
0000
,
0010
0000
0000
0000
,
1000
0000
0100
0000
,
1000
0000
0000
0000
,
0001
0000
0010
0000
,
0001
0000
0000
0000
,
0010
0000
1000
0000
,
0001
0000
0000
0000
,
0100
0000
0100
0000
,
0010
0000
0000
0000
,
0001
0000
0010
0000
,
0001
0000
0000
0000
,
1000
0000
0100
0000
,
1000
0000
0000
0000
,
0010
0010
0010
0000
,
0001
0001
0001
0000
,
0100
0100
0100
0000
,
1000
1000
1000
0000
,
0001
1000
0001
0000
,
0010
0100
0010
0000
,
1000
0100
1000
0000
,
0001
0010
0001
0000
,
0001
0000
1000
0000
,
0001
0000
1000
0000
,
0010
0000
0100
0000
,
0010
0000
0100
0000
,
0001
0000
0010
0000
,
0001
0000
0010
0000
,
1000
0000
0100
0000
,
1000
0000
0000
0000
,
2002
0000
0000
0000
,
0000
0000
0000
0000
;

//--------------- dance-single - XLev450X-BSP ----------------
#NOTES:
     dance-single:
     XLev450X:
     Easy:
     6:
     0,0,0,0,0:
0000
0000
0000
0000
,
0000
0000
0000
0000
,
0000
0000
0000
0000
,
0000
0000
0000
0000
,
0000
0000
0000
0000
,
0000
0000
0000
0000
,
0000
0000
0000
0000
,
0000
0000
0000
0000
,
0001
1000
0001
0010
,
1000
0000
0010
0000
0100
0000
0001
0010
,
0001
1000
0100
1000
,
0001
0000
1000
0000
0100
0000
1000
0010
,
1000
0010
0100
0001
,
1000
0000
0010
0000
0100
0000
0001
0010
,
0001
0000
1000
0100
1000
0000
0001
0010
,
2002
0000
0000
3003
,
0011
0000
0100
0010
2000
0000
3000
0000
,
0101
0000
0010
0100
0020
0000
0030
0000
,
1001
0000
0010
0001
0020
0000
0030
0000
,
1000
0001
1000
0100
,
1010
0000
1000
0010
2000
0000
3000
0000
,
0101
0000
0100
0010
0200
0000
0300
0000
,
0110
0001
1000
0001
,
0010
0000
1000
0010
1000
0000
0001
0000
,
0100
1000
0001
0010
,
1000
0000
0010
1000
0010
0000
0001
0000
,
0100
0000
1000
0000
0001
0000
0100
0001
,
0100
0000
0010
1000
0010
0000
0000
0000
,
0001
1000
0010
0100
,
1000
0000
0001
0000
1000
0000
0010
1000
,
0010
0001
0010
0100
,
2002
0000
0000
3003
,
0011
0000
0001
0010
0002
0000
0003
0000
,
0110
0000
0100
0010
0200
0000
0300
0000
,
1100
0000
1000
0100
2000
0000
3000
0000
,
0001
0000
1000
0000
0001
0010
0001
0000
,
0100
0000
1000
0010
1000
0000
0000
0000
,
0100
0000
0010
0100
0010
0000
0000
0000
,
0001
1000
0001
0010
,
1000
0000
0001
0010
0001
0000
0100
0000
,
1000
0001
1000
0010
,
0100
0000
0001
0100
0001
0000
1000
0010
,
1000
0001
0010
1000
,
0001
0100
0010
0000
,
0010
1000
0100
0001
,
1000
0000
0001
1000
0001
0000
0010
1000
,
0010
0100
1000
0001
,
0020
0000
0000
0030
,
0001
0010
0002
0003
,
1000
0100
2000
3000
,
0010
0100
0020
0030
,
1000
0001
2000
3000
,
0010
1000
0001
0000
,
0100
1000
0100
0000
,
0010
0001
1000
0001
,
0010
0001
0010
0000
1000
0000
0100
0000
,
0001
1000
0010
1000
,
0010
0000
1000
0000
0010
1000
0000
0001
,
0010
0000
1000
0000
0001
0000
0010
1000
,
0010
0001
0010
0000
,
0001
1000
0001
0000
,
1000
0000
0010
0000
0100
0000
1000
0010
,
1000
0001
0010
1000
,
0001
0010
0200
0300
,
0001
1000
0001
1000
,
0010
0000
1000
0010
1000
0000
0001
0000
,
0100
0001
1000
0000
,
0010
0000
1000
0000
0010
0000
0001
0010
,
0001
0100
1000
0000
,
1000
0001
0100
0010
,
1000
0001
0010
0100
,
0002
0000
0000
0003
,
1000
0001
1000
0000
,
0010
1000
0100
0001
,
1000
0001
0010
0000
,
0100
1000
0100
0001
,
1000
0010
0100
0000
,
0001
1000
0001
0010
,
0100
1000
0001
0010
,
0200
0010
0010
0310
,
2002
0000
0000
0000
,
0000
0000
0000
0000
0000
0000
0000
0000
0000
0000
0000
0000
0000
0000
0000
0000
0000
0000
0000
0000
0000
0000
0000
0000
0000
0000
0000
0000
0000
0000
0000
0000
0000
0000
0000
0000
0000
0000
0000
0000
0000
0000
0000
0000
0000
0000
0000
0000
0000
0000
0000
0000
0000
0000
0000
0000
0000
0000
0000
0000
0000
0000
0000
0000
0000
0000
0000
0000
0000
0000
0000
0000
0000
0000
0000
0000
0000
0000
0000
0000
0000
0000
0000
0000
3003
0000
0000
0000
0000
0000
0000
0000
0000
0000
0000
0000
;

//--------------- dance-single - XLev450X-DSP ----------------
#NOTES:
     dance-single:
     XLev450X:
     Medium:
     12:
     0,0,0,0,0:
0000
0000
0000
0000
,
0000
0000
0000
0000
,
0000
0000
0000
0000
,
0000
0000
0000
0000
,
0000
0000
0000
0000
,
0000
0000
0000
0000
,
0000
0000
0000
0000
,
0000
0000
0000
0000
,
0001
1000
0010
0100
,
0001
0010
0001
0000
1000
0010
1000
0000
,
0100
1000
0001
1000
,
1000
0001
1000
0000
0010
1000
0010
0000
,
0001
0010
0001
0010
,
0001
0010
0001
0000
1000
0100
1000
0000
,
0001
0000
0010
0000
0100
0010
0100
0000
,
2002
0000
0000
0000
0000
0000
0000
3003
,
0001
0000
0000
0000
1000
0000
0000
0000
0001
0000
0000
0100
0000
0000
1000
0000
,
0001
0000
0000
0000
0100
0000
0000
0000
0001
0000
0000
1000
0000
0000
0010
0000
,
0100
0000
0000
0000
0001
0000
0000
0000
1000
0000
0000
0001
0000
0000
0100
0000
,
0010
0000
1000
0000
0001
0010
0001
1000
,
0010
0000
0000
0000
0100
0000
0000
0000
1000
0000
0000
0001
0000
0000
0100
0000
,
0010
0000
0000
0000
1000
0000
0000
0000
0001
0000
0000
0100
0000
0000
1000
0000
,
0001
0000
0010
0000
1000
0001
0100
0001
,
0010
0000
1000
0000
0001
0100
1000
0000
,
0010
0001
0010
0000
1000
0100
1000
0000
,
0001
1000
0010
0100
,
0010
0100
0010
0000
1000
0010
1000
0000
,
0001
0010
0001
0000
0100
0000
0001
0000
,
1000
0000
0001
0000
1000
0000
0010
1000
,
0010
0000
0001
0000
0100
0000
1000
0001
,
1000
0000
0010
0000
0100
0001
0010
0001
,
0220
0000
0000
0000
0000
0000
0000
0330
,
0001
0000
0000
0000
1000
0000
0000
0000
0001
0000
0000
0100
0000
0000
1000
0000
,
0001
0000
0000
0000
0010
0000
0000
0000
1000
0000
0000
0100
0000
0000
0001
0000
,
0010
0000
0000
0000
1000
0000
0000
0000
0001
0000
0000
0100
0000
0000
1000
0000
,
0001
0000
0010
0000
1000
0001
0010
0001
,
1000
0000
0000
0000
0010
0000
0000
0000
0100
0000
0000
0001
0000
0000
1000
0000
,
0010
0000
0000
0000
1000
0000
0000
0000
0100
0000
0000
0001
0000
0000
1000
0000
,
0010
0000
0100
0000
1000
0100
0001
0010
,
1000
0000
0001
0000
0010
0001
1000
0001
,
0100
0001
1000
0010
,
0001
0010
0001
0000
0100
1000
0100
0000
,
0001
1000
0010
1000
,
0001
0001
1000
0010
0100
1000
0001
0010
,
1000
0001
1000
0001
,
0010
0010
1000
0000
0100
0100
0001
0000
,
1000
0000
0001
0000
0100
1000
0001
0010
,
2002
0000
0000
0000
0000
0000
0000
3003
,
0010
0000
0000
0000
1000
0000
0000
0000
0010
0000
0000
0001
0000
0000
0010
0000
,
0100
0000
0000
0000
1000
0000
0000
0000
0001
0000
0000
1000
0000
0000
0100
0000
,
0001
0000
0000
0000
1000
0000
0000
0000
0001
0000
0000
0100
0000
0000
0010
0000
,
1000
0000
0001
0000
0010
0001
1000
0001
,
0100
0000
0000
0000
0001
0000
0000
0000
1000
0000
0000
0100
0000
0000
0001
0000
,
1000
0000
0000
0000
0010
0000
0000
0000
0100
0000
0000
1000
0000
0000
0001
0000
,
0010
0000
1000
0000
0001
1000
0001
1000
,
0010
0000
0000
0000
1000
0000
0000
0000
0001
0000
0010
0000
0001
0010
0100
0000
,
1000
0001
1000
0100
,
1000
0000
0001
0000
0010
1000
0010
0100
,
0001
0000
1000
0000
0001
0000
0010
0001
,
0010
0000
1000
0100
1000
0000
0001
0000
,
1000
0000
0001
0000
0100
0000
1000
0001
,
1000
0000
0010
0100
0010
0000
1000
0000
,
0001
0000
0001
0000
1000
0000
0001
1000
,
0001
0100
1000
0010
,
0010
0000
1000
0001
1000
0000
0010
1000
,
0010
0000
0001
0010
0001
0000
1000
0000
,
0001
0000
0100
0000
1000
0000
0001
1000
,
0001
0000
1000
0010
1000
0000
0010
0100
,
1000
0000
0001
0000
0001
0000
1000
0001
,
0100
0000
1000
0010
1000
0000
0010
0100
,
0001
0000
0100
0000
0100
0000
0001
1000
,
0010
1000
0001
0100
1000
0001
0010
1000
,
0001
1000
0010
1000
,
0001
0100
0001
0000
1000
0010
1000
0000
,
0001
0100
1000
0001
,
1000
0100
0001
0000
0001
0010
0100
0000
,
0001
1000
0010
0010
,
0001
0100
1000
0000
1000
0100
0001
0000
,
1000
0010
1000
0100
,
1000
0100
0001
1000
0100
0001
1000
0100
,
0020
0000
0000
0000
,
0000
0000
0000
0000
0000
0000
0000
0030
;

//--------------- dance-single - XLev450X-ESP ----------------
#NOTES:
     dance-single:
     XLev450X:
     Hard:
     16:
     0,0,0,0,0:
0000
0000
0000
0000
,
0000
0000
0000
0000
,
0000
0000
0000
0000
,
0000
0000
0000
0000
,
0000
0000
0000
0000
,
0000
0000
0000
0000
,
0000
0000
0000
0000
,
0000
0000
0000
0000
,
0001
0000
1000
0000
0010
1000
0010
0000
,
0001
0010
0001
1000
0001
0100
1000
0001
,
0010
0000
1000
0000
0010
1000
0010
0000
,
0010
0100
0001
1000
0001
0010
0001
1000
,
0001
0000
1000
0000
0010
1000
0010
0000
,
0001
0010
0001
1000
0100
1000
0001
0010
,
1000
0000
0001
0000
1000
0001
0100
0001
,
2000
0000
0001
0000
0001
0000
3001
0000
,
0001
0000
0000
0000
1000
0000
0000
0000
0001
0010
0100
1000
0001
0010
0100
1000
,
0001
0000
0000
0000
1000
0000
0000
0000
1000
0100
0010
0001
1000
0100
0010
0001
,
1000
0000
0001
0000
1000
0000
0100
0000
0010
1000
0001
0100
0001
1000
0010
0001
,
0100
0000
0001
0000
1000
0000
0100
0000
0001
0000
1000
0100
0001
0000
1000
0001
,
0010
0000
1000
0000
0001
0000
1000
0000
0010
0001
1000
0100
0001
0010
1000
0100
,
0001
0000
1000
0000
0001
0000
0010
0000
1000
0001
0100
0010
0001
1000
0100
0010
,
0001
0000
1000
0000
0100
0000
1000
0000
0001
0100
1000
0100
0001
0010
0100
1000
,
0100
0000
0001
0000
1000
0000
0010
1000
0100
0000
0010
0001
1000
0000
0100
1000
,
0100
0000
0000
0000
0000
0000
0010
0000
0000
0000
0000
0000
0001
0000
0000
0000
0000
0000
0010
0000
0000
0000
0000
0000
0100
0000
0000
0000
0000
0000
1000
0000
0000
0000
0000
0000
0001
0000
0000
0000
0000
0000
0100
0000
0000
0000
0000
0000
,
0001
0000
0000
0000
0000
0000
1000
0000
0000
0000
0000
0000
0001
0000
0000
0000
0000
0000
0100
0000
0000
0000
0000
0000
0010
0000
0000
0000
0000
0000
1000
0000
0000
0000
0000
0000
0010
0000
0000
0000
0000
0000
1000
0000
0000
0000
0000
0000
,
0100
0000
0000
0000
0000
0000
1000
0000
0000
0000
0000
0000
0100
0000
0000
0000
0000
0000
0010
0000
0000
0000
0000
0000
0100
0000
0000
0000
0000
0000
1000
0000
0000
0000
0000
0000
0010
0000
0000
0000
0000
0000
0100
0000
0000
0000
0000
0000
,
0001
0000
0000
0000
0000
0000
1000
0000
0000
0000
0000
0000
0010
0000
0000
0000
0000
0000
0100
0000
0000
0000
0000
0000
0001
0000
0000
0000
0000
0000
0010
0000
0000
0000
0000
0000
0100
0000
0000
0000
0000
0000
0010
0000
0000
0000
0000
0000
,
0001
0000
0000
0000
0000
0000
0010
0000
0000
0000
0000
0000
0100
0000
0000
0000
0000
0000
1000
0000
0000
0000
0000
0000
0010
0000
0000
0000
0000
0000
1000
0000
0000
0001
0000
0000
0010
0000
0000
0000
0000
0000
1000
0000
0000
0000
0000
0000
,
0100
0000
0000
0000
0000
0000
0010
0000
0000
0000
0000
0000
0001
0000
0000
0000
0000
0000
0100
0000
0000
0000
0000
0000
0010
0000
0000
0000
0000
0000
1000
0000
0000
0010
0000
0000
0100
0000
0000
0000
0000
0000
0010
0000
0000
0000
0000
0000
,
0001
0000
0000
0000
0000
0000
0100
0000
0000
0010
0000
0000
0001
0000
0000
0000
0000
0000
0010
0000
0000
1000
0000
0000
0100
0000
0000
0000
0000
0000
1000
0000
0000
0100
0000
0000
0001
0000
0000
1000
0000
0000
0010
0000
0000
0001
0000
0000
,
0200
0000
0000
0000
0000
0000
0000
0000
0000
0000
0000
0000
0010
0000
0000
0000
0000
0000
0000
0000
0000
0000
0000
0000
0010
0000
0000
0000
0000
0000
0000
0000
0000
0000
0000
0000
0310
0000
0000
0000
0000
0000
0000
0000
0000
0000
0000
0000
,
0100
0000
0000
0000
0000
0000
0010
0000
0000
0000
0000
0000
0001
0000
0000
0000
0000
0000
1000
0000
0000
0000
0000
0000
0100
0000
0000
0001
0000
0000
1000
0000
0000
0100
0000
0000
0001
0000
0000
1000
0000
0000
0100
0000
0000
0001
0000
0000
,
0010
0000
0000
0000
0000
0000
1000
0000
0000
0000
0000
0000
0100
0000
0000
0000
0000
0000
0010
0000
0000
0000
0000
0000
0001
0000
0000
0100
0000
0000
1000
0000
0000
0001
0000
0000
0010
0000
0000
1000
0000
0000
0100
0000
0000
0010
0000
0000
,
0001
0000
0000
0000
0000
0000
0100
0000
0000
0000
0000
0000
0001
0000
0000
0000
0000
0000
0100
0000
0000
0000
0000
0000
0010
0000
0000
0001
0000
0000
1000
0000
0000
0010
0000
0000
0100
0000
0000
1000
0000
0000
0010
0000
0000
0100
0000
0000
,
0001
0000
0000
0000
0000
0000
1000
0000
0000
0000
0000
0000
0100
0000
0000
0000
0000
0000
1000
0000
0000
0001
0000
0000
0010
0000
0000
0000
0000
0000
0100
0000
0000
1000
0000
0000
0010
0000
0000
0000
0000
0000
1000
0000
0000
0000
0000
0000
,
0010
0000
0000
0000
0000
0000
1000
0000
0000
0000
0000
0000
0001
0000
0000
0000
0000
0000
0010
0000
0000
0000
0000
0000
0001
0000
0000
0000
0000
0000
0100
0000
0000
0010
0000
0000
0001
0000
0000
0100
0000
0000
1000
0000
0000
0001
0000
0000
,
0100
0000
0000
0000
0000
0000
1000
0000
0000
0000
0000
0000
0010
0000
0000
0000
0000
0000
0100
0000
0000
0000
0000
0000
0001
0000
0000
0000
0000
0000
1000
0000
0000
0001
0000
0000
0100
0000
0000
1000
0000
0000
0010
0000
0000
0100
0000
0000
,
0001
0000
0000
0000
0000
0000
0010
0000
0000
0000
0000
0000
0100
0000
0000
0000
0000
0000
0010
0000
0000
0000
0000
0000
0100
0000
0000
0000
0000
0000
1000
0000
0000
0100
0000
0000
0001
0000
0000
1000
0000
0000
0010
0000
0000
0001
0000
0000
,
0100
0000
0000
0000
0000
0000
1000
0000
0000
0000
0000
0000
0100
0000
0000
0000
0000
0000
0010
0000
0000
1000
0000
0000
0001
0000
0000
0000
0000
0000
0100
0000
0000
0001
0000
0000
0010
0000
0000
0000
0000
0000
1000
0000
0000
0000
0000
0000
,
0010
0000
0000
0000
0000
0000
0100
0000
0000
0000
0000
0000
1000
0000
0000
0000
0000
0000
0100
0000
0000
0000
0000
0000
0010
0000
0000
0000
0000
0000
0001
0000
0000
0000
0000
0000
1000
0000
0000
0000
0000
0000
0010
0000
0000
0000
0000
0000
,
1000
0000
0000
0000
0000
0000
0001
0000
0000
0000
0000
0000
1000
0000
0000
0000
0000
0000
0010
0000
0000
0000
0000
0000
0100
0000
0000
0000
0000
0000
0001
0000
0000
0000
0000
0000
0100
0000
0000
0000
0000
0000
0001
0000
0000
0000
0000
0000
,
0010
0000
0000
0000
0000
0000
0001
0000
0000
0000
0000
0000
0010
0000
0000
0000
0000
0000
0100
0000
0000
0000
0000
0000
0010
0000
0000
0000
0000
0000
0001
0000
0000
0000
0000
0000
0100
0000
0000
0000
0000
0000
0010
0000
0000
0000
0000
0000
,
1000
0000
0000
0000
0000
0000
0001
0000
0000
0000
0000
0000
0100
0000
0000
0000
0000
0000
0010
0000
0000
0000
0000
0000
1000
0000
0000
0000
0000
0000
0100
0000
0000
0000
0000
0000
0010
0000
0000
0000
0000
0000
0100
0000
0000
0000
0000
0000
,
1000
0000
0000
0000
0000
0000
0100
0000
0000
0000
0000
0000
0010
0000
0000
0000
0000
0000
0001
0000
0000
0000
0000
0000
0100
0000
0000
0000
0000
0000
0001
0000
0000
1000
0000
0000
0100
0000
0000
0000
0000
0000
0001
0000
0000
0000
0000
0000
,
0010
0000
0000
0000
0000
0000
0100
0000
0000
0000
0000
0000
1000
0000
0000
0000
0000
0000
0010
0000
0000
0000
0000
0000
0100
0000
0000
0000
0000
0000
0001
0000
0000
0100
0000
0000
0010
0000
0000
0000
0000
0000
0100
0000
0000
0000
0000
0000
,
1000
0000
0000
0000
0000
0000
0010
0000
0000
0100
0000
0000
1000
0000
0000
0000
0000
0000
0100
0000
0000
0001
0000
0000
0010
0000
0000
0000
0000
0000
0001
0000
0000
0010
0000
0000
1000
0000
0000
0001
0000
0000
0100
0000
0000
1000
0000
0000
,
0020
0000
0100
0000
0100
0000
0130
0000
,
1000
0000
0000
0000
0001
0000
0000
0000
1000
0100
0010
0001
1000
0100
0010
0001
,
1000
0000
0000
0000
0001
0000
0000
0000
0001
0010
0100
1000
0001
0010
0100
1000
,
0001
0000
1000
0000
0001
0000
0010
0000
0100
0001
1000
0010
1000
0001
0100
1000
,
0010
0000
1000
0000
0001
0000
0010
0000
1000
0000
0001
0010
1000
0000
0001
1000
,
0100
0000
0001
0000
1000
0000
0001
0000
0100
1000
0001
0010
1000
0100
0001
0010
,
1000
0000
0001
0000
1000
0000
0100
0000
0001
1000
0010
0100
1000
0001
0010
0100
,
1000
0000
0001
0000
0010
0000
0001
0000
1000
0010
0001
0010
1000
0100
0010
0001
,
0010
0000
1000
0000
0001
0000
0100
0000
0010
0000
0100
0000
0001
1000
0010
0001
,
0100
0000
0000
0000
0000
0000
0010
0000
0000
0000
0000
0000
0001
0000
0000
0000
0000
0000
1000
0000
0000
0000
0000
0000
0001
0000
0000
0000
0000
0000
0010
0000
0000
0000
0000
0000
0100
0000
0000
0001
0000
0000
1000
0000
0000
0000
0000
0000
,
0001
0000
0000
0100
0000
0000
1000
0000
0000
0000
0000
0000
0010
0000
0000
0100
0000
0000
1000
0000
0000
0000
0000
0000
0001
0000
0000
1000
0000
0000
0010
0000
0000
0001
0000
0000
0100
0000
0000
0010
0000
0000
1000
0000
0000
0100
0000
0000
,
0010
0000
0000
0000
0000
0000
0100
0000
0000
0000
0000
0000
0001
0000
0000
0000
0000
0000
1000
0000
0000
0000
0000
0000
0100
0000
0000
0000
0000
0000
0010
0000
0000
0000
0000
0000
0001
0000
0000
0100
0000
0000
1000
0000
0000
0000
0000
0000
,
0100
0000
0000
0001
0000
0000
0010
0000
0000
0000
0000
0000
0100
0000
0000
0001
0000
0000
1000
0000
0000
0000
0000
0000
0001
0000
0000
1000
0000
0000
0100
0000
0000
0001
0000
0000
0010
0000
0000
0100
0000
0000
1000
0000
0000
0100
0000
0000
,
0001
0000
0000
0000
0000
0000
0100
0000
0000
0000
0000
0000
0001
0000
0000
0000
0000
0000
1000
0000
0000
0000
0000
0000
0010
0000
0000
0000
0000
0000
1000
0000
0000
0000
0000
0000
0001
0000
0000
0100
0000
0000
1000
0000
0000
0000
0000
0000
,
0010
0000
0000
1000
0000
0000
0100
0000
0000
0000
0000
0000
0001
0000
0000
1000
0000
0000
0010
0000
0000
0000
0000
0000
0100
0000
0000
0001
0000
0000
1000
0000
0000
0001
0000
0000
0010
0000
0000
1000
0000
0000
0100
0000
0000
0001
0000
0000
,
0010
0000
0000
0000
0000
0000
1000
0000
0000
0000
0000
0000
0001
0000
0000
0000
0000
0000
0100
0000
0000
0000
0000
0000
0010
0000
0000
0000
0000
0000
0100
0000
0000
0000
0000
0000
0010
0000
0000
1000
0000
0000
0100
0000
0000
0000
0000
0000
,
0001
0000
0000
0100
0000
0000
0010
0000
0000
0000
0000
0000
0100
0000
0000
0001
0000
0000
1000
0000
0000
0000
0000
0000
0010
0000
0000
0001
0000
0000
1000
0000
0000
0010
0000
0000
0100
0000
0000
0001
0000
0000
1000
0000
0000
0100
0000
0000
,
0001
0000
0000
0000
0000
0000
0010
0000
0000
0000
0000
0000
0001
0000
0000
0000
0000
0000
1000
0000
0000
0000
0000
0000
0010
0000
0000
0000
0000
0000
1000
0000
0000
0000
0000
0000
0010
0000
0000
1000
0000
0000
0100
0000
0000
0000
0000
0000
,
0010
0000
0000
0001
0000
0000
0100
0000
0000
0000
0000
0000
0001
0000
0000
0100
0000
0000
1000
0000
0000
0000
0000
0000
0001
0000
0000
1000
0000
0000
0010
0000
0000
0100
0000
0000
0001
0000
0000
1000
0000
0000
0010
0000
0000
0001
0000
0000
,
0100
0000
0000
0000
0000
0000
0010
0000
0000
0000
0000
0000
0001
0000
0000
0000
0000
0000
1000
0000
0000
0000
0000
0000
0010
0000
0000
0000
0000
0000
0100
0000
0000
0000
0000
0000
0001
0000
0000
1000
0000
0000
0010
0000
0000
0000
0000
0000
,
0100
0000
0000
0010
0000
0000
1000
0000
0000
0000
0000
0000
0001
0000
0000
1000
0000
0000
0010
0000
0000
0000
0000
0000
0001
0000
0000
1000
0000
0000
0100
0000
0000
0010
0000
0000
0001
0000
0000
1000
0000
0000
0100
0000
0000
0001
0000
0000
,
0010
0000
0000
0000
0000
0000
1000
0000
0000
0000
0000
0000
0010
0000
0000
0000
0000
0000
0100
0000
0000
0000
0000
0000
0010
0000
0000
0000
0000
0000
0100
0000
0000
0000
0000
0000
0001
0000
0000
1000
0000
0000
0010
0000
0000
0000
0000
0000
,
0100
0000
0000
0001
0000
0000
0010
0000
0000
0000
0000
0000
0100
0000
0000
0001
0000
0000
1000
0000
0000
0000
0000
0000
0001
0000
0000
1000
0000
0000
0100
0000
0000
0001
0000
0000
0010
0000
0000
0100
0000
0000
1000
0000
0000
0100
0000
0000
,
0001
0000
0000
0000
0000
0000
0010
0000
0000
0000
0000
0000
0100
0000
0000
0000
0000
0000
1000
0000
0000
0000
0000
0000
0001
0000
0000
0000
0000
0000
0010
0000
0000
0000
0000
0000
0001
0000
0000
1000
0000
0000
0010
0000
0000
0000
0000
0000
,
0001
0000
0000
0100
0000
0000
1000
0000
0000
0000
0000
0000
0010
0000
0000
1000
0000
0000
0001
0000
0000
0000
0000
0000
0010
0000
0000
0100
0000
0000
1000
0000
0000
0100
0000
0000
0001
0000
0000
0100
0000
0000
1000
0000
0000
0100
0000
0000
,
0010
0000
0000
0000
0000
0000
0100
0000
0000
0000
0000
0000
0010
0000
0000
0000
0000
0000
1000
0000
0000
0000
0000
0000
0001
0000
0000
1000
0000
0000
0100
0000
0000
0001
0000
0000
0010
0000
0000
0100
0000
0000
1000
0000
0000
0000
0000
0000
,
0001
0000
0000
0000
0000
0000
1000
0000
0000
0000
0000
0000
0100
0000
0000
0000
0000
0000
1000
0000
0000
0000
0000
0000
0001
0000
0000
1000
0000
0000
0010
0000
0000
0001
0000
0000
0100
0000
0000
0010
0000
0000
1000
0000
0000
0000
0000
0000
,
0001
0000
0000
0000
0000
0000
1000
0000
0000
0000
0000
0000
0100
0000
0000
0000
0000
0000
0010
0000
0000
0000
0000
0000
0001
0000
0000
0100
0000
0000
1000
0000
0000
0001
0000
0000
0010
0000
0000
0100
0000
0000
1000
0000
0000
0000
0000
0000
,
0010
0000
0000
0000
0000
0000
0100
0000
0000
0000
0000
0000
0001
0000
0000
0000
0000
0000
0100
0000
0000
0000
0000
0000
0001
0000
0000
0100
0000
0000
1000
0000
0000
0000
0000
0000
0100
0000
0000
0001
0000
0000
0010
0000
0000
0000
0000
0000
,
0100
0000
0000
0000
0000
0000
1000
0000
0000
0000
0000
0000
0001
0000
0000
0000
0000
0000
1000
0000
0000
0000
0000
0000
0100
0000
0000
0001
0000
0000
0010
0000
0000
1000
0000
0000
0001
0000
0000
0100
0000
0000
0010
0000
0000
0000
0000
0000
,
0100
0000
0000
0000
0000
0000
1000
0000
0000
0000
0000
0000
0010
0000
0000
0000
0000
0000
0100
0000
0000
0000
0000
0000
0001
0000
0000
0010
0000
0000
1000
0000
0000
0001
0000
0000
0010
0000
0000
1000
0000
0000
0100
0000
0000
0000
0000
0000
,
0010
0000
0000
0000
0000
0000
0100
0000
0000
0000
0000
0000
0001
0000
0000
0000
0000
0000
1000
0000
0000
0000
0000
0000
0100
0000
0000
0001
0000
0000
1000
0000
0000
0100
0000
0000
0001
0000
0000
1000
0000
0000
0100
0000
0000
0001
0000
0000
,
0200
0000
0010
0000
0010
0000
0310
0000
,
0220
0000
0000
0000
0000
0000
0000
0000
,
0000
0000
0000
0000
0000
0000
0000
0000
;
