#TITLE:The First Step;
#ARTIST:Yooh;
#MUSIC:The First Step.ogg;
#BANNER:The First Step.png;
#BACKGROUND:The First Step-bg.png;
#CDTITLE:./CDTitles/DANCERUSH STARDOM.png;
#SAMPLESTART:23.832;
#SAMPLELENGTH:15;
#SELECTABLE:YES;
#OFFSET:-0.196;
#BPMS:0=132;
#BGSTAGE:4;

//--------------- dance-single - XLev450X-bSP ----------------
#NOTES:
     dance-single:
     XLev450X:
     Beginner:
     2:
     0,0,0,0,0:
0000
0000
0000
0000
,
0000
0000
0000
0000
,
0000
0000
0000
0000
,
0000
0000
0000
0000
,
0000
0000
0000
0000
,
0001
0000
1000
0000
,
0001
0000
0000
0000
,
0010
0100
0010
0000
,
1001
0000
0000
0000
,
0001
0000
0001
0000
,
0001
0000
0000
0000
,
1000
0000
0010
0000
,
0100
0000
0000
0000
,
0001
0000
1000
0000
,
0001
0000
0000
0000
,
0100
0000
1000
0000
,
0010
0000
0000
0000
,
0001
0000
1000
0000
,
0001
0000
0010
0000
,
1000
0000
0100
0000
,
0010
0000
0000
0000
,
0000
1000
0000
0001
,
0000
0010
0000
0100
,
0000
0001
0000
1000
,
0000
0010
0000
0100
,
0001
0000
1000
0000
,
0010
0000
0100
0000
,
1000
0000
0001
0000
,
0100
0000
0000
0000
,
0010
0000
0000
0000
,
0000
0000
0000
0000
,
0000
0000
0000
0000
,
0000
0000
0000
0000
,
1000
0000
0000
0000
,
0001
0000
0000
0000
,
0100
0000
0000
0000
,
0010
0000
0000
0000
,
1000
1000
1000
0000
,
0001
0000
0100
0000
,
0010
0010
0010
0000
,
1000
0000
0001
0000
,
0100
0000
0000
0000
,
0010
0000
0000
0000
,
1000
0000
0000
0000
,
0001
0000
0000
0000
,
0010
0000
1000
0000
,
0010
0000
0000
0000
,
0100
0000
0001
0000
,
0100
0000
0000
0000
,
1000
0000
0010
0000
,
0100
0000
0000
0000
,
0001
0000
0010
0000
,
0100
0000
0000
0000
,
0000
1000
0000
0001
,
0000
0100
0000
0010
,
0000
1000
0000
0001
,
0000
0100
0000
0010
,
1000
0000
0001
0000
,
0100
0000
0010
0000
,
1000
0001
0100
0000
,
0010
0000
0000
0000
,
1001
0000
0000
0000
;

//--------------- dance-single - XLev450X-BSP ----------------
#NOTES:
     dance-single:
     XLev450X:
     Easy:
     6:
     0,0,0,0,0:
0000
0000
0000
0000
,
0000
0000
0000
0000
,
0000
0000
0000
0000
,
0000
0000
0000
0000
,
0000
0000
0000
0000
,
1000
0001
1000
0000
,
0010
0100
0010
0000
,
0001
0000
1000
0000
0010
0100
0001
0000
,
1001
0000
0000
0110
,
0010
0010
1000
0000
,
0100
0100
0001
0000
,
1000
0100
0001
0000
0001
0100
1000
0000
,
0010
0000
0000
0000
,
0100
0001
1000
0010
,
0100
0000
0001
0000
0010
0001
0010
0000
,
1000
0001
0100
0010
,
1000
0000
0100
0000
1000
0010
1000
0100
,
0001
0000
1000
0000
0010
0100
0001
0000
,
1000
0000
0010
0000
0100
0001
0100
0000
,
1000
0000
0010
0000
0100
0001
1000
0010
,
0100
0000
0000
0000
,
0000
0001
1000
0010
,
0100
0001
1000
0001
0100
0010
1000
0000
,
0001
0000
0100
0000
0010
0001
0010
0000
,
1000
0010
0100
0000
0001
0000
1000
0000
,
0001
0000
0010
0000
1000
0010
1000
0000
,
0100
0000
0010
0000
0001
0010
0001
0000
,
1000
0000
0010
0000
1000
0010
0100
0001
,
1000
0000
0000
0000
,
0001
1000
0001
0000
,
1000
0010
0100
0000
,
0001
0000
1000
0000
0010
0100
0010
0000
,
0001
0000
1000
0001
,
0100
0000
0010
0001
,
1000
0000
0010
0100
,
0001
1000
0010
0100
,
0001
0000
0000
0000
,
1000
0010
0100
0000
,
0001
0100
0010
0000
,
1000
0001
0100
0000
,
0010
1000
0001
0000
,
0001
1000
0010
0000
,
1000
0001
0010
0000
,
0100
0001
1000
0010
,
1001
0000
0000
0000
,
1000
0001
0100
0010
,
0001
0010
0001
0000
1000
0010
1000
0000
,
0100
0001
1000
0010
,
0010
0001
0010
0000
1000
0010
0100
0000
,
0001
1000
0010
0000
,
0100
0001
0100
0000
1000
0010
1000
0000
,
0100
0000
0001
0000
1000
0010
0100
0000
,
1001
0000
0000
0000
,
0000
1000
0001
0100
,
0010
0001
0010
1000
0010
0100
0001
1000
,
0010
0100
0001
1000
,
0001
0100
0010
0000
1000
0001
0100
0010
,
1000
0001
1000
0100
,
1000
0010
1000
0000
0100
0001
0100
0000
,
0010
0000
1000
0000
0001
0100
0010
0100
,
0001
0000
0000
0000
,
1001
0000
0000
0000
;

//--------------- dance-single - XLev450X-DSP ----------------
#NOTES:
     dance-single:
     XLev450X:
     Medium:
     9:
     0,0,0,0,0:
0000
0000
0000
0000
,
0000
0000
0000
0000
,
0000
0000
0000
0000
,
0000
0000
0000
0000
,
0000
0000
0000
0000
,
1000
0000
0001
0000
1000
0000
0010
0100
,
0010
0001
0010
1000
,
0001
0100
0001
0000
1000
0010
1000
0000
,
0202
0000
0000
0000
0000
0303
1001
0000
,
0010
0000
0010
0000
1000
0010
0100
0000
,
0001
0000
0001
0000
0100
0001
1000
0000
,
0010
0000
0100
0000
0001
1000
0010
0000
,
0001
0001
0001
1000
0010
0100
0001
0000
,
1000
0000
0000
0000
0001
0000
0000
0000
0100
0000
0000
0010
0000
0000
1000
0000
,
0001
0000
0000
1000
0000
0000
0010
0000
0100
0000
0000
0001
0000
0000
1000
0000
,
0010
0000
0000
0000
0100
0000
0001
0000
1000
0000
0000
0010
0000
0000
0100
0000
,
0001
0000
0000
1000
0000
0000
0010
0000
0100
0000
0000
0000
0001
0000
0000
0000
,
1000
0000
0010
0000
0100
0000
0001
0000
1000
0000
0000
0010
0000
0000
0100
0000
,
0001
0000
0000
1000
0000
0000
0010
0000
0100
0000
0000
0001
0000
0000
0100
0000
,
0010
0000
0000
0000
1000
0000
0001
0000
0100
0000
0000
0010
0000
0000
1000
0000
,
0020
0000
0000
0000
0000
0030
0001
0000
,
1000
0000
0010
0100
0010
0000
1000
0000
,
0001
0000
0000
0100
0000
0000
0010
0000
0000
1000
0000
0000
0001
0000
0100
0000
,
0010
0000
0001
0000
1000
0000
0010
0100
,
0001
0000
0000
1000
0000
0000
0010
0000
0000
0100
0000
0000
0001
0000
1000
0000
,
0010
0001
1000
0001
,
0100
0000
0000
0010
0000
0000
1000
0000
0000
0001
0000
0000
0100
0000
0010
0000
,
1000
0000
0000
0000
0010
0000
0100
0000
0001
0000
0100
0000
1000
0010
0000
0100
,
0020
0000
0030
0011
,
1000
0000
0001
0000
0010
0001
0010
0000
,
1000
0000
0001
0000
0100
0010
1000
0000
,
0010
0000
1000
0000
0001
0100
0001
0000
,
1000
0010
1000
0000
,
0001
0000
0010
0000
1000
0001
1000
0000
,
0100
0001
0100
0000
0010
0100
0010
0000
,
1000
0001
0100
0010
,
2002
0000
3003
0101
,
0010
0000
1000
0000
0001
0100
0001
0000
,
1000
1000
0010
0000
,
0100
0001
1000
0000
,
0010
0000
0100
0000
0001
1000
0001
0000
,
0100
0000
0010
0000
0001
0010
0001
0000
,
1000
0000
0010
0000
0100
0010
1000
0000
,
0001
0000
0100
0000
0010
1000
0010
0000
,
0101
1010
0110
1001
,
0001
0000
1000
0000
0001
0100
0010
0000
,
0001
0000
1000
0010
,
0100
0010
0100
0000
1000
0010
1000
0000
,
0100
0010
0001
1000
,
0001
0000
0100
0000
0001
0100
0001
0000
,
1000
0010
1000
0000
0010
0100
0010
0000
,
0001
0000
1000
0000
0010
0100
0001
0000
,
1001
0000
0000
0000
,
0110
0010
1000
0001
,
0100
0001
0100
1000
0010
0100
0001
1000
,
0010
0100
0001
1000
,
0010
0000
1000
0000
0001
0100
0001
0000
,
1000
0010
1000
0100
,
0010
1000
0001
0100
0010
1000
0001
0000
,
0100
0000
0010
0000
1000
0001
0100
0000
,
2002
0000
0000
0000
0000
3003
0010
0000
,
0101
0000
0000
0000
;

//--------------- dance-single - XLev450X-ESP ----------------
#NOTES:
     dance-single:
     XLev450X:
     Hard:
     13:
     0,0,0,0,0:
0000
0000
0000
0000
,
0000
0000
0000
0000
,
0000
0000
0000
0000
,
0000
0000
0000
0000
,
0000
0000
0000
0000
,
1000
0001
0100
0000
0001
0100
0010
1000
,
0001
0100
0010
0000
0010
0000
1000
0000
,
0001
0100
0010
0000
0100
0001
0010
0000
,
2002
0000
3003
0010
,
1000
0000
0001
0100
0010
0000
1000
0000
,
0001
0100
0010
0000
1000
0010
0100
0000
,
0001
1000
0010
0100
0001
1000
0010
0100
,
0001
0001
0001
1000
0010
0100
0010
0000
,
1000
0000
0000
0001
0000
0000
0010
0000
0000
1000
0000
0000
0100
0000
0000
0001
0000
1000
0000
0000
0100
0000
0000
0000
,
0010
0000
0000
1000
0000
0001
0000
0000
0100
0000
0000
0000
0010
0000
0000
0100
0000
0001
0000
0000
1000
0000
0000
0000
,
0010
0000
0000
1000
0000
0000
0001
0000
0000
0100
0000
0000
1000
0000
0000
0010
0000
0100
0000
0000
0001
0000
0000
0000
,
1000
0000
0000
0001
0000
0100
0000
0000
0010
0000
0000
0001
1000
0000
0100
0001
0000
0000
0010
0000
0000
1000
0000
0000
,
0001
0000
0000
1000
0000
0000
0010
0000
0000
0001
0000
0000
0100
0000
0000
1000
0000
0001
0000
0000
0100
0000
0000
0000
,
0010
0000
0000
0001
0000
1000
0000
0000
0100
0000
0000
0000
0010
0000
0000
0100
0000
1000
0000
0000
0001
0000
0000
0000
,
0010
0000
0000
0001
0000
0000
1000
0000
0000
0100
0000
0000
0001
0000
0000
0010
0000
0100
0000
0000
1000
0000
0000
0000
,
2002
0000
0000
0000
0000
0000
0000
0000
0000
3003
0000
0000
0000
0000
0000
0001
1000
0001
1000
0000
0000
0220
0000
0000
,
0000
0330
0001
1000
0010
0100
0001
1000
,
0010
0000
0100
0000
0001
1000
0010
0000
,
0100
1000
0100
0000
0010
0001
0100
0000
,
0010
0000
1000
0000
0001
0100
0010
0000
,
1000
0000
0101
0000
1000
0010
0100
0000
,
0001
1000
0010
0000
0100
0001
1000
0000
,
0010
0100
0001
1000
0010
0100
0001
1000
,
0020
0000
0000
0000
0000
0030
0001
0000
,
0220
0000
0000
0330
0001
0000
1000
0000
,
0010
0100
1000
0000
0010
0100
0001
0000
,
0010
1000
0001
0100
0010
1000
0001
0000
,
0010
0000
1000
0000
0010
1000
0010
0000
,
0100
0000
0001
0000
0100
0010
0100
0000
,
1000
0000
0001
0000
0100
0001
1000
0000
,
0010
0100
0001
1000
0100
1000
0100
1000
0010
0100
0001
0100
0010
1000
0100
0010
,
0002
0000
0000
0000
0000
0000
0003
0000
0010
1000
0001
0100
0020
0000
0030
0000
,
0011
0000
1010
0000
0010
0100
0001
0000
,
1000
0001
0100
0010
1000
0001
0100
0000
,
1000
0000
0001
0000
0100
0010
1000
0000
,
0010
0001
1000
0000
0010
0100
1000
0000
,
0001
0100
0010
0000
,
1000
0001
0100
0000
,
0101
1010
0110
1001
,
0020
0000
0000
0000
0030
0000
0110
0110
,
0001
0000
0000
0000
0000
0000
1000
0000
0000
0001
0000
0000
0100
0000
1000
0000
0000
0001
0100
0000
0000
1000
0000
0000
,
0001
0000
0010
0000
0000
1000
0100
0000
0000
0010
0000
1000
0000
0000
0100
0000
0000
0001
0100
0000
0000
0010
0000
0000
,
0100
0000
0000
0000
0000
0000
0001
0000
0000
1000
0000
0000
0010
0000
0001
0000
0000
1000
0010
0000
0000
0001
0000
0000
,
1000
0000
0100
0000
0000
0001
0010
0000
0000
0100
0000
0001
0000
0000
0010
0000
0000
1000
0010
0000
0000
0100
0000
0000
,
0010
0000
0000
0000
0000
0000
1000
0000
0000
0001
0000
0000
0100
0000
1000
0000
0000
0001
0100
0000
0000
1000
0000
0000
,
0001
0000
0010
0000
0000
1000
0100
0000
0000
0010
0000
1000
0000
0000
0100
0000
0000
0001
0100
0000
0000
0010
0000
0000
,
1000
0000
0000
0000
0000
0000
0001
0000
0000
1000
0000
0000
0010
0000
0001
0000
0000
1000
0010
0000
0000
0001
0000
0000
,
1000
0000
0100
0000
0000
0001
0010
0000
0000
0100
0000
0001
0000
0000
0010
0000
0000
1000
0010
0000
0000
0200
0000
0000
,
0000
0300
0001
1000
0010
0000
0100
0000
,
0010
0001
0010
0000
1000
0010
1000
0000
,
0010
0000
0100
0000
0001
0100
0010
0000
,
1000
0000
0001
0000
0100
0010
1000
0000
,
0010
1000
0001
0000
0100
0010
0100
0000
,
0001
1000
0010
0000
0100
0000
0010
0000
,
1000
0001
0100
0010
1000
0001
0100
0010
,
1000
0000
0000
0001
0000
0100
0000
0000
0010
0000
0000
1000
0010
0000
0000
0001
0000
0000
1000
0000
0000
0000
0000
0000
,
0110
0000
0000
0000
;
