#TITLE:The Bad Touch (RGR-Special);
#ARTIST:Bloodhound Gang;
#BANNER:The Bad Touch (RGR-Special).png;
#BACKGROUND:The Bad Touch (RGR-Special)-bg.png;
#CDTITLE:./CDTITLES/DANCE DANCE REVOLUTION HOME VERSION.PNG;
#MUSIC:The Bad Touch (RGR-Special).ogg;
#SAMPLESTART:56.585;
#SAMPLELENGTH:15;
#BPMS:0=123;

//--------------- dance-single - XLev450X ----------------
#NOTES:
     dance-single:
     XLev450X:
     Challenge:
     14:
     0,0,0,0,0:
0000
0000
0000
0000
,
0000
0000
0000
0000
,
0000
0000
0000
0000
,
0000
0000
0000
0000
,
0000
0000
0000
0000
,
0001
0000
1000
0000
0010
0000
0001
0010
0000
0001
0010
0000
1000
0000
0100
0000
,
1000
0000
0010
0000
1000
0000
0010
1000
0000
0010
1000
0000
0001
0000
0100
0000
,
1000
0000
0001
0000
0010
0000
0001
1000
0000
0010
1000
0000
0001
0000
0010
0000
,
0100
0000
1000
0000
0001
0100
1000
0010
0001
1000
0001
0100
0010
1000
0001
1000
,
0010
0000
0100
0000
0001
0000
0010
0001
0000
1000
0010
0000
1000
0000
0001
0000
,
0100
0000
1000
0000
0010
0000
0001
0010
0000
0100
0010
0000
1000
0000
0001
0000
,
0010
0000
1000
0000
0001
0000
1000
0010
0000
1000
0010
0000
0001
0000
0010
0000
,
0100
0000
1000
0000
0001
1000
0001
0010
1000
0001
0100
0010
1000
0001
1000
0010
,
0001
0000
1000
0000
0010
0001
1000
0100
0001
0000
0010
0000
0001
1000
0010
0100
,
0001
0000
1000
0010
1000
0000
0001
1000
0001
0000
0001
0000
1000
0000
0001
0000
,
1000
0000
0001
1000
0001
0000
0010
0000
1000
0000
0001
0000
0010
0000
1000
0000
,
0010
0000
0001
0010
0001
0000
1000
0000
0010
0000
0100
0000
1000
0000
0001
0000
,
0002
0103
0200
1300
0020
0130
1000
0001
,
0010
0000
0001
0010
0001
0000
2002
0000
3003
0000
0010
0000
1000
0000
0010
0000
,
1000
0010
1000
0000
0001
0000
0010
0000
0100
0001
0100
0000
0001
0000
0010
0000
,
1000
0000
0001
1000
0001
0000
0010
0000
1000
0000
0010
0000
0001
0000
1000
0000
,
0010
0000
1000
0010
1000
0000
0001
0010
0001
0000
0100
0010
0100
0000
1000
0000
,
0001
0000
1000
0001
1000
0000
0010
1000
0010
0000
0001
0000
1000
0000
0010
0000
,
0100
0000
0001
0010
0001
0000
0100
0010
0100
0000
1000
0010
1000
0000
0001
0010
,
0001
0000
0100
0000
1000
0000
0001
0000
1000
0000
0001
0100
1000
0001
0010
0100
,
1000
0000
0001
0000
1000
0000
0010
0000
0001
0000
0010
0001
0010
0000
1000
0000
,
0010
0000
1000
0010
1000
0000
0001
0000
0100
0000
1000
0000
0001
0000
0010
0000
,
1000
0000
0010
1000
0010
0000
0001
0000
0010
0000
0100
0000
1000
0000
0001
0000
,
0002
0100
0100
0100
0100
0103
0210
0310
,
1000
0000
0001
0000
1000
0000
0010
0000
1000
0000
0001
0010
0001
0000
1000
0000
,
0010
0000
0100
0000
1000
0000
0001
1000
0001
0000
0010
0000
1000
0000
0001
0000
,
1000
0000
0010
1000
0010
0000
0001
0010
0001
0000
0100
0000
1000
0000
0001
0000
,
0100
0000
0001
0100
0001
0000
1000
0000
0010
0000
0001
0100
1000
0000
0010
0000
,
1000
0000
0010
1000
0010
0000
0100
0000
1000
0000
0001
0010
0001
0000
1000
0000
,
0100
0000
1000
0010
1000
0000
0001
0100
0010
0000
1000
0000
0001
0000
0000
0010
,
1000
0000
0001
1000
0001
0000
1000
0010
1000
0000
0001
0100
0001
0000
0010
0000
,
1000
0000
0001
0000
0100
0000
1000
0000
0001
0000
0010
0001
0010
0000
1000
0000
,
0010
0000
1000
0000
0001
0000
0100
0001
0000
1000
0010
0000
1000
0000
0001
0000
,
0010
0000
0100
0000
1000
0000
0010
0001
0000
0100
1000
0000
0001
0000
0010
0000
,
1000
0000
0001
0000
0100
0000
0010
1000
0000
0001
1000
0000
0010
0000
0100
0000
,
0001
0000
1000
0000
0010
1000
0100
0010
0001
0010
1000
0100
0010
0001
0010
0001
,
1000
0000
0001
0000
1000
0000
0010
0001
0000
1000
0010
0000
0100
0000
1000
0000
,
0001
0000
0010
0000
1000
0000
0010
0100
0000
0010
1000
0000
0001
0000
0010
0000
,
1000
0000
0001
0000
0010
0000
1000
0010
0000
1000
0010
0000
0001
0000
0010
0000
,
1000
0000
0001
0000
1000
0001
1000
0010
1000
0001
0100
0010
1000
0001
1000
0001
,
0010
0000
1000
0000
0001
0000
0010
0001
0000
1000
0010
0000
1000
0000
0100
0000
,
1000
0000
0001
0000
0010
0000
0100
0010
0000
0100
0010
0000
1000
0000
0001
0000
,
0020
0100
0100
0100
,
0130
0000
0000
0000
;
