#TITLE:That Feeling;
#ARTIST:Crayvxn;
#GENRE:SPEED HOUSE;
#MUSIC:That Feeling.ogg;
#BANNER:That Feeling.png;
#BACKGROUND:That Feeling-bg.png;
#CDTITLE:./CDTitles/bm IIDX 28 BISTROVER.png;
#SAMPLESTART:40;
#SAMPLELENGTH:15;
#OFFSET:-0.400;
#BPMS:0=150
,95=300
,99=150
,242=300
,243=150
,255=300
,259=150;
#STOPS:95=0.200
,96=0.200
,97=0.200
,98=0.200
,242=0.200
,255=0.200
,256=0.200
,257=0.200
,258=0.200;
#BGSTAGE:28;
#BGCHANGES:3.000=That Feeling.mp4=1.000=0=0=0=StretchNoLoop====,
99999=-nosongbg-=1.000=0=0=0 // don't automatically add -songbackground-;

//--------------- dance-single - XLev450X-bSP ----------------
#NOTES:
     dance-single:
     XLev450X:
     Beginner:
     4:
     0.169129,0.23678,0.032436,0,0,146,142,4,0,0,0,0.169129,0.23678,0.032436,0,0,146,142,4,0,0,0:
0000
0000
0000
0000
,
0000
0000
0000
0000
,
0000
0000
0000
0000
,
0000
0000
0000
0000
,
0000
0000
0000
0000
,
0000
0000
0000
0000
,
0000
0000
0000
0000
,
0000
0000
0000
0000
,
0000
0000
0000
1000
,
0000
0000
0000
0010
,
0000
0000
0000
0001
,
0000
0000
0000
0100
,
0000
0000
0000
0010
,
0000
0000
0000
0001
,
0000
0000
0000
1000
,
0000
0000
0000
0100
,
0000
0000
0000
0010
,
0010
0010
0000
0100
,
0100
0100
0000
0001
,
0001
0001
0000
1000
,
1000
1000
0000
0010
,
0000
0100
0000
0001
,
0000
1000
0000
0010
,
0100
0001
0000
1000
,
0000
0001
0000
0010
,
1000
0010
0000
0010
,
0100
0010
0000
0100
,
0001
0100
0000
0100
,
0010
0100
0000
0001
,
1000
0001
0000
0001
,
1000
0001
0000
0010
,
0100
0001
0000
1001
,
0000
0000
0000
0010
,
0100
0010
0000
1000
,
0001
0100
0000
0010
,
1000
0010
0000
0100
,
0001
0100
0000
0010
,
1000
0001
0100
0010
,
1000
0001
0000
0100
,
0001
1000
0010
0100
,
0000
0000
0000
0001
,
0000
0000
0000
1000
,
0000
0000
0000
0010
,
0000
0000
0000
0100
,
0000
0000
0000
0010
,
0000
0000
0000
1000
,
0000
0000
0000
0001
,
0000
0000
0000
0100
,
0000
0000
0000
0010
,
0000
1000
0000
0100
,
0000
0000
0000
0001
,
0000
1000
0000
0010
,
0000
0000
0000
0100
,
0000
0010
0000
1000
,
0000
0000
0000
0100
,
0000
0001
0000
0100
,
0000
0000
0000
0010
,
0010
1000
0000
0100
,
0001
1000
0000
0010
,
0100
0001
0000
1000
,
0001
0100
0000
0010
,
1000
0001
0000
0100
,
0010
0001
0000
1000
,
0010
0100
0000
0010
,
0000
0100
0000
0010
,
0010
0010
0000
0100
,
0100
0100
0000
0010
,
0100
0001
0000
1000
,
0100
1000
0000
0010
,
0100
0001
0000
1000
,
0010
0100
0000
0001
,
1000
0010
0000
0100
,
0000
0001
0000
1001
;

//--------------- dance-single - XLev450X-BSP ----------------
#NOTES:
     dance-single:
     XLev450X:
     Easy:
     6:
     0.228208,0.356387,0.097307,0.22705,0.028381,197,185,12,28,0,0,0.228208,0.356387,0.097307,0.22705,0.028381,197,185,12,28,0,0:
0000
0000
0000
0000
,
0000
0000
0000
0000
,
0000
0000
0000
0000
,
0000
0000
0000
0000
,
0000
0000
0000
0000
,
0000
0000
0000
0000
,
0000
0000
0000
0000
,
0000
0000
0000
0000
,
0000
0000
0000
0001
,
1000
0010
0000
0100
,
0000
0001
0000
1000
,
0010
0100
0000
0001
,
0000
1000
0000
0010
,
0100
0010
0000
1000
,
0010
0100
0000
0001
,
1000
0010
0000
0001
,
1000
0010
0100
0001
,
0000
1000
0000
0010
,
0000
0100
0000
0001
,
0000
1000
0000
0010
,
0000
0100
0000
0010
,
0100
0010
0000
1000
,
0001
1000
0000
0100
,
0001
0000
0000
0000
1000
0000
0000
0000
0000
0000
0000
0000
0200
0300
0000
0000
,
0200
0300
0000
0000
0200
0300
0000
0000
0020
0000
0030
0000
0010
0000
0000
0000
,
0100
0000
0001
0000
1000
0010
0001
0000
,
0010
0000
1000
0000
0001
0100
0010
0000
,
0100
0000
1000
0000
0100
0010
0001
0000
,
0100
0000
0010
0000
0001
0010
1000
0000
,
0010
0100
0000
1000
,
0010
0100
0000
1000
,
0100
0001
0100
0220
,
0000
0000
0330
0001
,
1000
0010
0000
0100
,
1000
0001
0000
0100
,
1000
0001
0100
0010
,
1000
0000
0001
0010
0100
0000
0001
0000
,
1000
0000
2002
0000
0000
3003
0010
0000
,
0100
0000
0022
0000
0000
0033
1000
0000
,
0010
0100
0001
2200
,
0000
3300
0022
0000
0033
0000
0010
0000
,
0000
0100
0000
0001
,
0000
1000
0010
0100
,
0000
0001
0000
1000
,
0000
0010
0100
1000
,
0000
0001
0000
0100
,
0000
0010
1000
0001
,
0000
0100
0000
0010
,
0000
1000
0000
0010
,
0000
0100
0000
0001
,
0000
1000
0000
0010
,
0000
0100
0000
0001
,
0000
0000
0000
1000
,
0000
0010
0000
0100
,
0000
0000
0000
0001
,
0000
1000
0000
0010
,
0100
0001
1000
0010
,
0000
0100
0000
0001
,
0000
1000
0000
0100
,
0000
0001
0000
0010
,
1000
0000
0000
0000
0000
0000
0000
0000
0000
0000
0000
0000
0000
0000
0000
0000
0000
0000
0000
0000
0000
0000
0000
0000
0000
0000
0000
0000
0000
0000
0000
0000
0000
0000
0000
0000
0000
0000
0000
0000
0000
0000
0000
0000
0000
0000
0000
0000
0001
0000
0000
0000
0000
0000
0000
0000
0000
0000
0000
0000
0000
0000
0000
0000
0000
0000
0000
0000
0000
0000
0000
0000
0000
0000
0000
0000
0000
0000
0000
0000
0000
0000
0000
0000
0000
0000
0000
0000
0000
0000
0000
0000
0000
0000
0000
0000
2002
0000
0000
0000
0000
0000
0000
0000
0000
0000
0000
0000
0000
0000
0000
0000
0000
0000
0000
3003
0000
0000
0000
0000
0000
0000
0000
0000
0000
0000
0000
0000
0000
0000
0000
0000
0000
0000
0000
0000
0000
0000
0000
0000
0000
0000
0000
0000
0010
0000
0000
0000
0000
0000
0000
0000
0000
0000
0000
0000
0000
0000
0000
0000
0000
0000
0000
0000
0000
0000
0000
0000
0000
0000
0000
0000
0000
0000
0000
0000
0000
0000
0000
0000
0000
0000
0000
0000
0000
0000
0000
0000
0000
0000
0000
0000
,
0000
0100
0000
1000
,
0000
0001
0000
0100
,
0000
0000
0010
0000
0000
0000
0200
0300
,
0200
0000
0000
0300
0000
0000
0200
0000
0000
0000
0300
0000
0020
0000
0030
0000
0000
0000
0010
0000
0000
0000
0000
0000
,
0100
0001
0000
1000
,
0010
0000
0000
0100
0000
0000
2002
0000
3003
0010
0000
0000
,
0100
0001
0000
1000
,
0010
0100
0000
1000
,
0001
0100
0000
1000
,
0010
0100
0000
0001
,
1000
0010
0100
0001
,
1000
0010
0100
2002
,
3003
0000
0000
0000
;

//--------------- dance-single - XLev450X-DSP ----------------
#NOTES:
     dance-single:
     XLev450X:
     Medium:
     10:
     0.352159,0.504235,0.07298,0.162178,0.03649,304,295,9,20,0,0,0.352159,0.504235,0.07298,0.162178,0.03649,304,295,9,20,0,0:
0000
0000
0000
0000
,
0000
0000
0000
0000
,
0000
0000
0000
0000
,
0000
0000
0000
0000
,
0000
0000
0000
0000
,
0000
0000
0000
0000
,
0000
0000
0000
0000
,
0000
0000
0000
0000
,
0000
0000
0000
0001
,
1000
0000
0010
0100
0001
0000
1000
0000
,
0010
0100
0000
0001
,
1000
0000
0010
0100
0001
0000
1000
0000
,
0010
0100
0000
0001
,
1000
0000
0010
0100
,
0001
0000
1000
0100
,
0010
0000
0000
0000
1000
0000
0001
0100
,
0010
1000
0001
0000
0100
0000
0010
0000
,
1000
0000
0001
0100
0010
0000
1000
0000
,
0001
0100
0010
1000
,
0001
0000
0100
0010
1000
0000
0001
0000
,
0100
0000
0010
0100
0001
0000
1000
0010
,
0100
0000
0001
1000
0100
0000
0010
1000
,
0001
0000
0100
0010
1000
0000
0100
0001
,
1000
0000
0000
0000
0000
0000
0000
0000
0000
0000
0000
0000
0000
0000
0000
0000
0000
0000
0000
0000
0000
0000
0000
0000
0010
0000
0000
0000
0000
0000
0000
0000
0000
0000
0000
0000
0000
0000
0000
0000
0000
0000
0000
0000
0000
0000
0000
0000
0100
0000
0000
0000
0000
0000
0000
0000
0000
0000
0000
0000
0000
0000
0000
0000
0000
0000
0000
0000
0000
0000
0000
0000
0001
0000
0000
0000
0000
0000
0000
0000
0000
0000
0000
0000
0000
0000
0000
0000
0000
0000
0000
0000
0000
0000
0000
0000
1000
0000
0000
0000
0000
0000
0000
0000
0000
0000
0000
0000
0000
0000
0000
0000
0000
0000
0000
0000
0000
0000
0000
0000
0000
0000
0000
0000
0000
0000
0000
0000
0000
0000
0000
0000
0000
0000
0000
0000
0000
0000
0000
0000
0000
0000
0000
0000
2002
0000
0000
0000
0000
0000
0000
0000
0000
0000
0000
0000
0000
0000
0000
0000
0000
0000
0000
3003
0000
0000
0000
0000
0000
0000
0000
0000
0000
0000
0000
0000
0000
0000
0000
0000
0000
0000
0000
0000
0000
0000
0000
0000
0000
0000
0000
0000
,
0022
0000
0000
0000
0000
0000
0000
0000
0000
0000
0000
0000
0000
0000
0000
0000
0000
0000
0000
0033
0000
0000
0000
0000
0000
0000
0000
0000
0000
0000
0000
0000
0000
0000
0000
0000
0000
0000
0000
0000
0000
0000
0000
0000
0000
0000
0000
0000
2200
0000
0000
0000
0000
0000
0000
0000
0000
0000
0000
0000
0000
0000
0000
0000
0000
0000
0000
3300
0000
0000
0000
0000
0000
0000
0000
0000
0000
0000
0000
0000
0000
0000
0000
0000
0000
0000
0000
0000
0000
0000
0000
0000
0000
0000
0000
0000
0220
0000
0000
0000
0000
0000
0000
0000
0000
0000
0000
0000
0000
0000
0000
0000
0000
0000
0000
0330
0000
0000
0000
0000
0000
0000
0000
0000
0000
0000
0000
0000
0000
0000
0000
0000
0000
0000
0000
0000
0000
0000
0000
0000
0000
0000
0000
0000
0010
0000
0000
0000
0000
0000
0000
0000
0000
0000
0000
0000
0000
0000
0000
0000
0000
0000
0000
0000
0000
0000
0000
0000
1000
0000
0000
0000
0000
0000
0000
0000
0000
0000
0000
0000
0000
0000
0000
0000
0000
0000
0000
0000
0000
0000
0000
0000
,
0001
0100
0010
1000
0001
0000
0100
0010
,
0001
1000
0010
0100
0001
0000
1000
0010
,
0100
0000
0001
1000
0010
0000
0100
0001
,
1000
0010
0100
0001
1000
0000
0010
0100
,
0001
0000
1000
0010
0100
0000
0001
0000
,
1000
0000
0010
0100
0001
0000
1000
0000
,
0010
0000
0100
0000
0001
0000
1000
0010
,
0100
0001
1000
0010
0100
0000
0001
0000
,
0100
1000
0010
0100
,
0001
0000
1000
0010
0100
0000
0001
0000
,
1000
0010
0100
0001
,
1000
0000
0001
0100
0001
0000
1000
0000
,
0010
1000
0000
0100
,
0001
1000
0000
0010
,
0100
0001
1000
0010
,
0100
0000
0001
1000
0010
0000
0100
0000
,
0000
0001
0000
0000
1000
0000
0000
0010
,
0100
0010
0000
1000
,
0000
0010
0000
0000
0001
0000
0000
1000
,
0001
0100
0000
0010
,
0000
1000
0000
0000
0100
0000
0000
0001
,
1000
0100
0000
0100
,
0000
0010
0000
0000
1000
0000
0000
0001
,
0100
0000
0020
0000
0000
0030
0001
0000
,
1000
0000
0010
0100
,
0000
0001
0000
1000
,
0010
0100
0000
0001
,
0000
1000
0000
0010
,
0100
0001
0000
1000
,
0000
0010
0000
0100
,
0001
0000
1000
0000
0000
0000
0010
0100
,
0001
1000
0010
0000
0100
0000
0001
0000
,
1000
0000
0010
0100
0001
0000
1000
0000
,
0010
0000
0100
0001
1000
0000
0010
0000
,
0100
0000
0001
1000
0010
0000
0100
0000
,
0001
0000
1000
0010
1000
0000
0100
0000
,
0001
0000
1000
0010
0100
0000
0001
0000
,
0100
0000
0001
0000
1000
0000
0010
0100
,
0001
0000
1000
0000
0010
0000
0100
0000
0001
0000
0000
0000
2200
3300
0000
0000
,
2002
3003
0000
0000
0220
0330
0000
0000
2002
0000
3003
0000
0010
0000
0100
0000
,
0001
1000
0010
0100
0001
1000
0010
0100
,
0001
0000
0000
1000
0000
0000
0010
0000
0000
0001
0000
0000
0200
0000
0000
0000
0300
0000
0001
0000
0000
1000
0000
0000
,
0010
0000
0100
0001
1000
0000
0010
0100
,
0001
1000
0010
0100
0001
0000
1000
0000
,
0010
0000
0100
0001
1000
0000
0010
0000
,
0100
0000
0001
1000
0010
0000
0100
0001
,
1000
0010
0100
0001
1000
0000
0010
0100
,
0001
0000
0000
0000
1000
0000
0000
0000
0010
0000
0000
0000
0100
0000
0000
0000
0001
0000
0000
0000
0100
0000
0000
0000
2002
0000
0000
0000
0000
3003
0000
0000
;

//--------------- dance-single - XLev450X-ESP ----------------
#NOTES:
     dance-single:
     XLev450X:
     Hard:
     16:
     0.57805,0.742473,0.081089,0.145961,0.271649,499,489,10,18,0,0,0.57805,0.742473,0.081089,0.145961,0.271649,499,489,10,18,0,0:
0000
0000
0000
0000
,
0000
0000
0000
0000
,
0000
0000
0000
0000
,
0000
0000
0000
0000
,
0000
0000
0000
0000
,
0000
0000
0000
0000
,
0000
0000
0000
0000
,
0000
0000
0000
0000
,
0000
0000
0000
0000
0000
0000
0100
0010
,
0001
0000
1000
0000
0100
0000
0000
0001
0000
0000
1000
0000
0000
0001
0000
0000
,
0100
0000
0000
0000
0010
0000
0000
1000
0000
0000
0001
0000
0010
0000
1000
0000
,
0001
0000
0100
0001
0100
0000
0010
0000
1000
0000
0001
0000
0000
0000
0100
0000
,
0010
0000
1000
0000
0001
0000
0000
0100
0000
0000
1000
0000
0010
0000
0100
1000
,
0001
0000
0100
0000
0010
0000
0100
0000
0010
1000
0000
0000
0001
0000
0010
0000
,
0100
0000
1000
0000
0100
0000
1000
0000
0100
0010
1000
0010
0001
0000
0100
0000
,
0010
0000
0100
0000
0001
0000
0000
0010
0000
0000
1000
0000
0100
0000
0001
0100
,
0010
0000
0001
0000
1000
0000
0001
0000
0010
1000
0001
0000
0100
0000
0010
1000
,
0001
0000
1000
0100
0010
0000
0100
0010
0001
1000
0010
0001
0100
0000
1000
0100
,
0001
0000
1000
0001
0010
0000
1000
0100
0010
0001
1000
0100
0001
0000
1000
0100
,
0010
0000
0001
1000
0010
0000
1000
0001
0100
0010
1000
0001
0100
0000
1000
0100
,
0001
0000
1000
0010
0001
0000
0100
1000
0010
1000
0100
0010
0001
0000
0010
1000
,
0100
0000
0001
0010
0100
0000
1000
0100
0010
0000
1000
0010
0001
0000
1000
0100
,
0010
0000
0001
1000
0010
0000
0100
0001
0010
0000
1000
0010
0100
1000
0010
0100
,
0001
0000
0000
0000
0000
0000
0000
0000
0000
0000
0000
0000
0010
0000
0000
0000
0000
0000
0000
0000
0000
0000
0000
0000
1000
0000
0000
0000
0000
0000
0000
0000
0000
0000
0000
0000
0001
0000
0000
0000
0000
0000
0000
0000
0000
0000
0000
0000
0100
0000
0000
0000
0000
0000
0000
0000
0000
0000
0000
0000
0010
0000
0000
0000
0000
0000
0000
0000
0000
0000
0000
0000
0001
0000
0000
0000
0000
0000
0000
0000
0000
0000
0000
0000
1000
0000
0000
0000
0000
0000
0000
0000
0000
0000
0000
0000
0001
0000
0000
0000
0000
0000
0000
0000
0000
0000
0000
0000
1000
0000
0000
0000
0000
0000
0000
0000
0000
0000
0000
0000
0100
0000
0000
0000
0000
0000
0000
0000
0000
0000
0000
0000
0010
0000
0000
0000
0000
0000
0000
0000
0000
0000
0000
0000
2002
0000
0000
0000
0000
0000
0000
0000
0000
0000
0000
0000
0000
0000
0000
0000
0000
0000
0000
3003
0000
0000
0000
0000
0000
0000
0000
0000
0000
0000
0000
0000
0000
0000
0000
0000
0000
0000
0000
0000
0000
0000
0000
0000
0000
0000
0000
0000
,
0022
0000
0000
0000
0000
0000
0000
0000
0000
0000
0000
0000
0000
0000
0000
0000
0000
0000
0000
0033
0000
0000
0000
0000
0000
0000
0000
0000
0000
0000
0000
0000
0000
0000
0000
0000
0000
0000
0000
0000
0000
0000
0000
0000
0000
0000
0000
0000
2200
0000
0000
0000
0000
0000
0000
0000
0000
0000
0000
0000
0000
0000
0000
0000
0000
0000
0000
3300
0000
0000
0000
0000
0000
0000
0000
0000
0000
0000
0000
0000
0000
0000
0000
0000
0000
0000
0000
0000
0000
0000
0000
0000
0000
0000
0000
0000
0220
0000
0000
0000
0000
0000
0000
0000
0000
0000
0000
0000
0000
0000
0000
0000
0000
0000
0000
0330
0000
0000
0000
0000
0000
0000
0000
0000
0000
0000
0000
0000
0000
0000
0000
0000
0000
0000
0000
0000
0000
0000
0000
0000
0000
0000
0000
0000
0010
0000
0000
0000
0000
0000
0000
0000
0000
0000
0000
0000
0000
0000
0000
0000
0000
0000
0000
0000
0000
0000
0000
0000
0100
0000
0000
0000
0000
0000
0000
0000
0000
0000
0000
0000
1000
0000
0000
0000
0000
0000
0000
0000
0000
0000
0000
0000
,
0001
0000
0100
0010
0001
0000
0100
1000
0010
0000
1000
0010
0100
0000
0010
1000
,
0100
0000
0001
0100
0010
0000
1000
0100
0010
0000
0010
0100
0010
0000
1000
0100
,
0010
0000
0100
0010
0001
0000
0010
1000
0001
0000
0010
1000
0100
0000
1000
0100
,
0010
0000
1000
0001
0100
0000
1000
0100
0001
0000
0100
1000
0010
0000
0100
0001
,
0010
0000
0001
1000
0100
0000
0010
0100
0001
0000
1000
0100
0010
0000
0100
0001
,
0010
0000
1000
0100
0001
0000
0100
0010
0100
0000
1000
0010
0001
0000
1000
0100
,
0001
0000
0100
1000
0010
0000
1000
0100
0001
0000
0010
0001
0100
0000
1000
0000
,
0001
0000
0000
1000
0000
0000
0100
0000
0000
0001
0000
0000
0010
0000
0000
0000
1000
0000
0000
0000
0100
0000
0000
0000
0010
0000
0000
0000
0001
0000
0000
0000
1000
0000
0000
0000
0001
0000
0000
0000
0000
0000
0100
0000
0000
1000
0000
0000
,
0010
0000
1000
0001
0100
0000
1000
0010
0001
0000
0010
1000
0100
0000
1000
0010
,
0001
0000
1000
0001
0100
0000
0010
1000
0001
0000
0010
1000
0100
0000
0010
0100
,
0001
0000
1000
0100
0001
0000
0010
1000
0001
0000
0100
1000
0010
0000
1000
0001
,
0100
0000
1000
0010
0100
0000
1000
0100
0001
0000
0100
1000
0001
0000
1000
0000
,
0001
0000
0100
1000
0010
0000
0001
1000
,
0010
0000
0001
0100
0010
0000
0010
0100
,
0001
0000
0000
0000
0100
0000
1000
0000
0100
0000
0010
0000
0001
0000
0000
1000
,
0001
0000
0100
0000
0010
0000
1000
0001
0100
0000
0010
0000
0100
0000
0000
1000
,
0000
0000
0001
0000
0000
0010
0000
0000
1000
0000
0000
0001
0000
0000
0010
0000
,
0100
0000
0001
1000
0010
0000
0100
0000
0001
0010
0100
1000
0100
0000
0000
1000
,
0000
0000
0010
0000
0000
0100
0000
0000
0001
0000
0000
0010
0000
0000
1000
0000
,
0001
0000
0010
0000
0100
0000
0000
0100
0000
0000
0100
0000
0010
0000
0000
0001
,
0000
0000
1000
0000
0000
0010
0000
0000
0100
0000
0000
0010
0000
0000
0001
0000
,
1000
0000
0100
0001
0100
0000
0010
0000
0001
1000
0010
0100
0001
0000
0000
1000
,
0000
0000
0010
0000
0000
0001
0000
0000
1000
0000
0000
0100
0000
0000
0001
0000
,
0100
0000
1000
0001
0020
0000
0000
0100
0000
0000
0130
0000
1000
0000
0010
0000
,
0001
0000
0010
1000
0100
0000
0000
0010
0000
0000
0100
0000
0000
0001
0100
0000
,
0001
0000
1000
0000
0100
0000
0000
0010
0000
0000
0100
0000
0001
0000
1000
0000
,
0001
1000
0010
0000
0001
0100
1000
0000
0100
0000
0010
0000
0000
0000
0100
0000
,
0010
0000
1000
0000
0001
0000
0000
0100
0000
0000
1000
0000
0010
0000
0100
1000
,
0001
0000
0100
0000
0010
0000
0000
0100
0000
0000
1000
0000
0001
0000
0010
1000
,
0100
0000
1000
0000
0100
0000
0000
1000
0000
0000
0010
0000
0001
0000
0100
1000
,
0010
0000
0100
0000
0001
0000
0000
0010
0000
0000
1000
0000
0100
0000
0001
0100
,
0010
0000
0001
0010
1000
0000
0001
1000
0010
0100
0001
0000
0100
0000
0010
1000
,
0001
0000
1000
0100
0010
0000
0100
0010
0001
1000
0010
0001
0100
0000
1000
0100
,
0001
0000
0100
1000
0010
0000
1000
0001
0010
0100
1000
0100
0001
0000
1000
0100
,
0010
0000
0100
1000
0010
0000
1000
0001
0100
0010
1000
0001
0100
0000
1000
0100
,
0001
0000
0010
1000
0001
0000
0100
0000
1010
0000
0000
0000
0001
0000
0010
0001
,
0100
0000
0001
1000
0100
0000
1000
0100
0010
0001
0100
0010
0001
0000
1000
0100
,
0010
0000
1000
0001
0010
0000
0100
0001
0010
0000
1000
0100
0010
0000
1000
0000
,
0010
0000
1000
0000
0100
0010
0001
1000
0001
1000
0100
0010
2200
3300
0000
0000
,
2002
3003
0000
0000
0220
0330
0000
0000
2002
0000
3003
0000
0110
0000
0000
0000
,
1100
0011
0101
1010
,
1001
0000
0000
0000
0110
0000
0000
0000
2002
0000
3003
0000
0010
0000
0100
1000
,
0010
0000
1000
0001
0100
0000
0010
1000
0100
0000
1000
0001
0100
0000
1000
0100
,
0001
0000
1000
0100
0010
0000
0001
0100
0010
0000
0100
0001
1000
0000
0010
1000
,
0001
0000
0010
0100
0001
0000
0100
0010
0001
0000
0010
1000
0100
0000
0010
0100
,
0001
0000
0100
0001
0010
0000
1000
0100
0001
0000
1000
0001
0100
0000
0010
1000
,
0001
0000
0100
1000
0010
0000
1000
0001
0100
0000
1000
0100
0001
0000
0010
0000
,
0100
0000
0000
1000
0000
0000
0001
0000
0000
0010
0000
0000
0100
0000
0000
0000
0001
0000
0000
0000
1000
0000
0000
0000
0010
0000
0000
0000
0001
0000
0000
0000
0100
0000
0000
0000
0002
0000
0000
0000
0000
0000
0000
0000
0000
0000
0000
0000
,
0003
0000
0000
0000
;
