#TITLE:Tangerine Stream;
#ARTIST:dj TAKA;
#GENRE:AMBIENT;
#MUSIC:Tangerine Stream.ogg;
#BANNER:Tangerine Stream.png;
#BACKGROUND:Tangerine Stream-bg.png;
#CDTITLE:./CDTitles/bm IIDX 3rd style.png;
#SAMPLESTART:23.125;
#SAMPLELENGTH:15;
#OFFSET:-0.268;
#BPMS:0=84;
#BGSTAGE:17;

//--------------- dance-single - XLev450X-bSP ----------------
#NOTES:
     dance-single:
     XLev450X:
     Beginner:
     3:
     0,0,0,0,0:
0000
0000
0000
0000
,
0000
0000
0000
0000
,
0000
0000
0000
0000
,
0000
0000
0000
0000
,
0001
0010
1000
0000
,
0001
1000
0010
0000
,
0100
0010
0001
1000
,
0001
0010
0000
1000
,
0010
0100
0001
0010
,
0100
1000
0001
0100
,
0010
1000
0010
0100
,
0001
1000
0010
0100
,
0001
0100
1000
0010
,
0100
1000
0001
1000
,
0010
0100
0000
0100
,
0001
0010
1000
0010
,
0100
0001
1000
0010
,
0100
0001
0010
0100
,
1000
0010
0001
1000
,
0010
0100
0001
1000
,
0010
0001
0100
1000
,
0001
0010
1000
0001
,
0010
0100
0001
1000
,
0010
0100
0001
1000
,
0010
0001
0100
0000
,
0001
0010
1000
0010
,
0100
1000
0001
1000
,
0001
0001
0010
1000
,
0010
0000
0000
0000
0100
0000
0000
0000
0010
0000
0000
0000
0000
0000
0000
0101
,
0000
0000
0000
0000
1000
0000
0000
0000
0001
0000
0000
0000
0010
0000
0000
1010
,
0000
0000
0000
0000
,
1001
0000
0000
0000
;

//--------------- dance-single - XLev450X-BSP ----------------
#NOTES:
     dance-single:
     XLev450X:
     Easy:
     5:
     0,0,0,0,0:
0000
0000
0000
0000
,
0000
0000
0000
0000
,
0000
0000
0000
0000
,
0000
0000
0000
0000
,
0001
1000
0001
0100
,
0010
1000
0001
0010
,
0100
0001
0000
1000
,
0001
0010
0000
0100
,
0010
1000
0001
0010
,
0100
0010
1000
0001
,
0100
0001
0010
1000
,
0001
0010
0100
1000
,
0001
1000
0010
0100
,
0001
0010
1000
0010
,
0100
1000
0010
0001
,
1000
0001
0010
0100
,
0010
0001
0010
1000
,
1000
0010
0100
0001
,
1000
0001
0010
0100
,
0001
0100
1000
0010
,
0100
0010
0001
1000
,
0010
0100
0001
1000
,
0010
0000
1000
0001
0100
1000
0001
0010
,
1000
0100
0010
0000
0100
0001
1000
0000
,
0101
0010
1000
0010
,
0100
0001
1000
0010
,
0100
0000
0001
0000
1000
0100
0010
0000
,
0100
0000
0010
0000
0001
0010
1000
0000
,
0010
0000
0000
0000
1000
0000
0000
0000
0011
0000
0000
0000
1000
0000
0000
0101
,
0000
0000
0000
0000
0010
0000
0000
0000
0100
0000
1000
0000
0001
0000
0000
1010
,
0000
0101
0000
0000
0000
0000
0000
0000
,
1001
0000
0000
0000
;

//--------------- dance-single - XLev450X-DSP ----------------
#NOTES:
     dance-single:
     XLev450X:
     Medium:
     8:
     0,0,0,0,0:
0000
0000
0000
0000
,
0000
0000
0000
0000
,
0000
0000
0000
0000
,
0000
0000
0000
0000
,
1000
0000
0010
0000
0100
0001
0100
0000
,
0010
0000
1000
0000
0010
0100
0001
1000
,
0010
0000
0100
0000
0000
0000
0001
1000
,
0010
0000
0100
0000
0000
0000
0001
1000
,
0010
0000
0100
0000
0001
0010
1000
0000
,
0001
0000
1000
0000
0010
0100
0001
1000
,
0010
0000
0100
0000
0001
1000
0010
0000
,
0100
0000
1000
0000
0001
0100
0010
1000
,
0010
0000
0100
0000
0001
1000
0010
0000
,
0100
0000
0001
0000
0010
0100
0001
1000
,
0010
0000
0100
0000
0000
0000
0001
1000
,
0010
0000
0100
0000
0001
0000
0010
0100
,
1001
0010
0100
0001
,
1000
0000
0001
0000
0100
0010
1000
0001
,
0010
0100
0001
1000
,
0001
0000
0100
0000
0010
1000
0001
0010
,
0100
0001
1000
0001
,
0010
0100
1000
0001
,
0010
0000
0100
0001
1000
0010
0100
0001
,
1000
0010
0100
0000
0001
0000
1000
0000
,
0001
0010
0100
0001
,
1000
0000
0001
0010
,
0100
1000
0001
0100
,
0010
0000
0000
0000
1000
0000
0001
0010
,
0100
0000
0000
0000
1000
0000
0000
0000
0010
0000
0100
0000
0001
0000
0000
0110
,
0000
0000
0000
0000
1000
0000
0000
0000
0010
0000
0100
0000
0001
0000
1000
0011
,
0000
1100
0000
0000
0000
0000
0000
0000
,
1001
0000
0000
0000
;

//--------------- dance-single - XLev450X-ESP ----------------
#NOTES:
     dance-single:
     XLev450X:
     Hard:
     11:
     0,0,0,0,0:
0000
0000
0000
0000
,
0000
0000
0000
0000
,
0000
0000
0000
0000
,
0000
0000
0000
0000
,
0001
0000
0000
0000
0010
1000
0001
0100
0010
1000
0000
0001
0000
0000
0000
0010
,
0100
0000
0000
0000
0001
0000
0000
1000
0010
0100
0001
1000
0010
0100
0000
0001
,
1000
0000
0000
0000
0110
0000
0000
0000
0000
0000
0000
0000
0100
0000
0001
0100
,
0010
0000
0000
0000
0000
0000
0000
0000
1001
0000
0000
0000
0000
0000
0000
0000
0010
0000
0000
0000
0000
0000
0000
0000
0100
0010
0001
0000
1000
0000
0001
0000
,
0110
0000
0000
0000
0001
0000
1000
0000
0000
0010
1000
0000
0001
1000
0000
0001
,
0100
0000
0001
1000
0010
0100
0001
1000
0010
0100
0001
0000
1000
0010
0000
0000
,
0100
1000
0001
0010
0100
0001
1000
0010
,
0100
0000
0000
0000
0001
0000
0000
0000
1000
0000
0010
0000
0100
0001
0000
0000
,
1000
0000
0000
0000
0010
0100
0001
1000
0010
1000
0000
0001
0000
0000
1000
0000
,
0001
0000
0000
0000
1000
0000
0000
0010
0100
0001
1000
0010
0100
0001
0000
0000
,
1000
0000
0000
0000
0010
0000
0000
0000
0100
0000
0001
0000
1000
0000
0010
0100
,
0001
0000
0000
0000
1000
0000
0000
0000
0010
0000
0100
0000
0001
1000
0001
0010
,
0100
0000
0001
0000
1000
0000
0010
0100
,
0001
0000
1000
0010
0100
0001
1000
0010
,
0100
0000
0001
0000
0000
1000
0001
0010
,
0200
0000
0000
0000
0000
0000
0000
0000
0000
0000
0000
0000
0000
0300
0000
0000
0001
0000
0000
0000
0000
0000
1000
0000
0000
0000
0001
0000
0000
0000
1000
0000
,
0100
0010
1000
0001
0100
0010
0001
1000
,
0010
0000
0000
0001
0100
0000
0001
0000
1000
0000
0000
0000
0010
0000
0100
0000
,
0001
0000
0000
1000
0000
0000
0010
1000
0001
0100
0001
0100
0001
0010
0100
1000
0001
1000
0010
1000
0001
0100
0010
1000
,
0001
1000
0010
0100
0010
0100
0001
0000
0000
0000
0000
0000
1000
0000
0000
0000
0000
0000
0010
0000
0000
0000
0000
0000
,
1000
0000
0001
0000
0010
1000
0100
0001
,
1000
0000
0000
0000
0010
0000
0000
0000
0100
0000
0000
0001
0000
1000
0000
0000
,
0010
0000
0100
0000
0001
0000
0000
0000
1000
0000
0000
0010
0000
0000
0100
0000
,
0001
0000
1000
0000
0010
0000
0100
0000
0001
0000
0000
1000
0000
0010
0000
0000
,
0100
0000
0001
0000
1000
0000
0000
0010
0000
0000
0100
0000
0001
0000
0000
0101
,
0000
0000
0000
0010
1000
0000
0000
0001
0000
0100
0000
0010
1000
0001
0100
1000
,
0000
0200
0000
0000
0000
0300
0000
0000
,
1001
0000
0000
0000
;

//--------------- dance-single - XLev450X†-CSP ----------------
#NOTES:
     dance-single:
     XLev450X†:
     Challenge:
     13:
     0,0,0,0,0:
0000
0000
0000
0000
,
0000
0000
0000
0000
,
0000
0000
0000
0000
,
0000
0000
0000
0000
,
1000
0000
0000
0000
0000
0000
0000
0000
0001
0000
1000
0000
0010
0000
0100
0000
0001
0000
1000
0000
0000
0000
0010
0000
0000
0000
1000
0000
0000
0000
0100
0010
,
0001
0000
0000
0000
0100
0000
0000
0000
1000
0000
0000
0000
0000
0000
0010
0000
0100
0000
0001
0000
0100
0000
1000
0000
0010
0000
1000
0000
0000
0000
0010
0100
,
1000
0000
0001
0000
1000
0000
0010
0000
0000
0001
0000
0000
1000
0000
0010
0100
,
0001
0000
0000
0000
0010
0000
0000
0000
1000
0000
0000
0000
0100
0000
0000
0000
0001
0000
0100
0000
0000
0000
0010
0000
1000
0100
0001
0010
0100
1000
0010
0001
,
1000
0000
0001
0000
0010
1000
0000
0001
0100
0000
0010
0000
1000
0001
0000
0010
,
0001
0000
1000
0010
0100
1000
0001
0100
0010
1000
0001
0000
1000
0010
0000
0000
,
0100
0000
0001
0000
1000
0000
0010
0000
0100
0000
1000
0010
0100
1000
0010
0000
,
0100
0000
0010
0001
0000
1000
0010
0000
0100
0000
0010
1000
0000
0001
0000
0000
,
0100
0000
0010
0000
1000
0001
0100
0010
1000
0001
0000
0100
0000
0010
1000
0000
,
0001
0000
0100
0000
0010
0000
0000
1000
0010
1000
0010
0100
0001
1000
0000
0010
,
1000
0000
0001
0000
0100
0000
0000
0010
1000
0000
0010
0000
0100
0000
0001
0010
,
0001
0000
0000
0000
1000
0000
0000
0000
0001
0000
0000
0000
0000
0000
0100
0000
0000
0000
0010
0000
1000
0000
0100
0010
0001
0000
1000
0000
0100
0000
0001
0000
,
0010
0000
1000
0000
0100
0000
1000
0000
0000
0000
0100
0000
0001
0000
1000
0010
,
1000
0000
0001
0000
0100
0000
0010
0100
0001
0000
0000
1000
0000
0000
0010
0000
,
0100
0000
0010
0001
0010
0000
1000
0000
0001
0000
1000
0000
0010
0000
0100
1000
,
0010
0000
0100
0000
0010
0000
0000
0001
1000
0000
0001
0100
0000
0010
0000
1000
,
0010
0000
0100
0000
1000
0000
0001
0100
0010
0000
1000
0000
0001
0000
1000
0010
,
1000
0000
0001
0000
0100
0000
0010
0000
1000
0000
0001
0100
0000
0010
0000
1000
,
0001
0000
0000
0100
0000
0000
1000
0010
0100
0010
0001
1000
0100
0010
0100
0001
1000
0010
0001
0100
0010
1000
0001
0100
,
0010
0000
0000
0000
0000
0000
0000
0000
0010
0000
0000
0000
0100
0000
0000
0000
0000
0000
0000
0000
1000
0000
0000
0000
0100
0000
0000
0000
0000
0000
0000
0000
0000
0000
0000
0000
0001
0000
0000
0000
0000
0000
0100
0000
0000
0000
0000
0000
1000
0000
0000
0000
0000
0000
0010
0000
0000
0000
0000
0000
0000
0000
0000
0000
0000
0000
1000
0000
0000
0001
0000
0000
0010
0000
0000
0000
0000
0000
0100
0000
0000
0000
0000
0000
0001
0000
0000
0000
0000
0000
0010
0000
0000
0000
0000
0000
,
1000
0000
0001
0000
0100
0010
0000
1000
0001
0000
1000
0000
0010
0100
1000
0010
,
0100
0000
0001
0000
1000
0000
0000
0010
0100
0000
0001
1000
0000
0001
0000
0100
,
0010
0000
1000
0000
0010
0000
0000
0000
0001
0000
1000
0010
0000
0100
1000
0000
,
0010
0000
0100
0000
0010
0000
1000
0000
0001
0000
0100
0010
0000
1000
0000
0001
,
0100
0000
0010
0000
1000
0001
0100
0010
0000
1000
0000
0001
0100
0000
1000
0010
,
0000
0000
1000
0000
0010
0000
1000
0001
0100
0000
0000
0000
0001
0000
1000
0000
0000
0000
0010
0000
0000
0000
0100
1000
0001
0000
1000
0000
0010
0000
0100
0000
,
0000
0000
0000
1001
0000
0000
0000
0000
0000
0000
0000
0000
0000
0000
0000
0000
0000
0000
0000
0000
0000
0000
0000
0000
0000
0000
0000
0000
0000
0000
0000
0100
,
0010
0000
0000
0000
;
