#TITLE:TWILIGHT ZONE (R-C Extended Club MIX) (RGR-Special);
#ARTIST:2 UNLIMITED;
#MUSIC:TWILIGHT ZONE (R-C Extended Club MIX) (RGR-Special).ogg;
#BANNER:TWILIGHT ZONE (R-C Extended Club MIX) (RGR-Special).png;
#BACKGROUND:TWILIGHT ZONE (R-C Extended Club MIX) (RGR-Special)-bg.png;
#CDTITLE:./CDTitles/Dancemania 19.png;
#SAMPLESTART:17.360;
#SAMPLELENGTH:15;
#BPMS:0=138.018;
#DISPLAYBPM:138;
#BGSTAGE:30;

//--------------- dance-single - XLev450X ----------------
#NOTES:
     dance-single:
     XLev450X:
     Challenge:
     15:
     0,0,0,0,0:
0000
0000
0000
0000
,
0000
0000
0000
0000
,
0000
0000
0000
0000
,
0000
0000
0000
0000
,
0000
0000
0000
0000
,
0100
1000
0100
0010
0001
0010
0100
1000
0200
0000
0300
0000
0110
0000
0000
0000
,
0001
0010
0000
1000
0010
0000
0100
0001
0000
1000
0010
0000
0100
0000
0001
0000
,
1000
0010
0000
0100
0001
0000
1000
0010
0000
0100
0001
0000
0010
0000
0001
0000
,
1000
0010
0000
0100
0001
0000
1000
0100
0000
0010
0001
0000
1000
0000
0010
0000
,
0100
0000
0001
0000
1000
0000
0010
0100
0001
0000
0000
0000
1001
0000
0000
0000
,
1000
0001
0000
0100
0001
0000
1000
0010
0000
0100
0001
0000
1000
0000
0010
0000
,
0100
0001
0000
1000
0010
0000
0001
1000
0000
0010
0100
0000
0001
0000
1000
0000
,
0010
0001
0000
1000
0010
0000
0100
0001
0000
1000
0010
0000
0100
0000
0001
0000
,
1000
0000
0010
0000
0100
0000
0001
1000
0010
0000
0100
0000
0001
0000
0000
0000
,
1000
0010
0000
0100
0010
0000
0001
0100
0000
0001
1000
0000
0010
0000
0100
0000
,
0001
1000
0000
0010
0100
0000
0001
1000
0000
0100
0010
0000
0001
0000
0100
0000
,
0010
1000
0000
0001
0100
0000
1000
0010
0000
0001
0100
0000
0010
0000
1000
0000
,
0001
0000
0100
0000
0010
0000
1000
0001
0100
0000
0000
0000
1010
0000
0000
0000
,
0001
0000
1000
0010
1000
0000
0010
0000
0001
0010
0001
0000
0100
1000
0100
0000
,
0010
0001
0010
0000
1000
0000
0100
1000
0001
0000
1000
0000
0010
0000
0000
0000
,
0001
0000
1000
0010
0100
0000
0001
0000
1000
0010
0100
0000
0001
1000
0010
0000
,
0010
0100
0001
0100
0001
0010
0001
0010
0200
0000
0000
0300
0000
0000
0100
0010
,
1000
0001
0000
0100
0001
0000
1000
0010
0000
0100
0001
0000
1000
0000
0010
0000
,
0100
0001
0000
1000
0010
0000
0001
1000
0000
0010
0100
0000
0001
0000
1000
0000
,
0010
0001
0000
1000
0010
0000
0100
0001
0000
1000
0010
0000
0100
0000
0001
0000
,
1000
0000
0010
0000
0100
0000
0001
1000
0010
0000
0100
0000
0001
0000
0000
0000
,
1000
0010
0000
0100
0010
0000
0001
0100
0000
0001
1000
0000
0010
0000
0100
0000
,
0001
1000
0000
0010
0100
0000
0001
1000
0000
0100
0010
0000
0001
0000
0100
0000
,
0010
1000
0000
0001
0100
0000
1000
0010
0000
0001
0100
0000
0010
0000
1000
0000
,
0001
0000
0100
0000
0010
0000
1000
0001
0100
0000
0000
0000
1010
0000
0000
0000
,
0001
1000
0000
0010
0100
0000
1000
0001
0000
0100
1000
0000
0010
0000
0100
0000
,
0001
1000
0000
0010
0100
0000
0001
1000
0000
0010
0100
0000
0001
0000
1000
0000
,
0001
0100
0000
0001
1000
0000
0010
1000
0000
0001
0100
0000
0010
0000
1000
0000
,
0001
0010
0100
1000
0010
0100
0001
0100
0010
0100
0010
1000
0010
1000
0001
0100
,
0001
0000
1000
0000
0010
0000
0000
0100
0000
0000
0001
0000
1000
0000
0100
0000
,
0001
0000
0100
0000
0001
0010
0000
1000
0000
0000
0010
0000
0100
0000
0001
0000
,
1000
0010
0100
0000
0001
0000
1000
0010
,
0100
0000
0000
0000
0001
0000
0000
0000
0010
0000
1000
0000
0001
0100
0010
1000
,
0001
0000
0010
0000
0100
0000
0000
1000
0000
0000
0001
0000
0100
0000
0010
0000
,
1000
0000
0001
0000
0100
0001
0000
0010
0000
0000
1000
0000
0001
0000
0100
0000
,
0010
0000
1000
0001
0100
0000
0010
0000
1000
0000
0100
0010
0001
1000
0100
0001
,
0020
0000
0000
0000
0000
0000
0000
0000
0000
0000
0000
0000
0030
0000
0001
0100
,
0010
1000
0000
0010
0001
0000
0100
0010
0000
1000
0001
0000
0100
0000
0001
0000
,
0010
0100
0000
1000
0010
0000
1000
0001
0000
0010
0100
0000
0010
0000
1000
0000
,
0010
0001
0000
1000
0100
0000
0010
0100
0000
1000
0010
0000
0100
0000
0001
0000
,
1000
0000
0010
0000
0100
0000
0001
1000
0010
0000
0100
0000
0001
0000
0000
0000
,
1000
0010
0000
0100
0010
0000
0001
0100
0000
0001
1000
0000
0010
0000
0100
0000
,
0001
1000
0000
0010
0100
0000
0001
1000
0000
0100
0010
0000
0001
0000
0100
0000
,
0010
1000
0000
0001
0100
0000
1000
0010
0000
0001
0100
0000
0010
0000
1000
0000
,
0001
0000
0100
0000
0010
0000
1000
0002
0000
0000
0000
0000
0000
0000
0000
0000
,
0000
0000
0000
0000
,
0003
0000
0000
0000
;
