#TITLE:TROOPERS;
#ARTIST:Des-TRACT;
#GENRE:ULTIMATE CORE;
#MUSIC:TROOPERS.ogg;
#BANNER:TROOPERS.png;
#BACKGROUND:TROOPERS-bg.png;
#CDTITLE:./CDTitles/bm IIDX 15 DJ TROOPERS.png;
#SAMPLESTART:0.338;
#SAMPLELENGTH:15;
#OFFSET:1.017;
#BPMS:0=177;
#BGCHANGES:0=TROOPERS.mp4=1.000=0=0=0=StretchNoLoop====,
99999.000=-nosongbg-=1.000=0=0=0=StretchNoLoop====;
#BGSTAGE:33;

//--------------- dance-single - XLEV450X-bSP ----------------
#NOTES:
     dance-single:
     XLEV450X:
     Beginner:
     4:
     0,0,0,0,0:
0000
0000
0000
0000
,
0000
0000
0000
0000
,
0000
0000
0000
0000
,
0000
0000
0000
0000
,
0000
0000
0000
0000
,
0001
1000
0001
0000
,
0010
1000
0010
0000
,
0100
0010
0100
0000
,
2002
0000
0000
3003
,
0001
1000
0010
0100
,
0001
0010
0100
0000
,
1000
0001
1000
0010
,
0100
1000
0001
0000
,
0010
1000
0010
0100
,
0010
0100
0001
0000
,
0001
1000
0010
0100
,
2002
0000
0000
3003
,
0001
1000
0001
0000
,
0010
1000
0010
0000
,
0100
0010
0100
0000
,
0010
0001
0010
0000
,
1000
0001
1000
0000
,
0010
1000
0010
0000
,
0100
0010
0100
0000
,
2002
0000
0000
3003
,
0001
1000
0001
0000
,
0010
0010
1000
0000
,
0100
0010
0100
0001
,
1000
0000
0010
0000
,
0100
0001
0100
0000
,
1000
0001
1000
0000
,
0010
1000
0100
0001
,
2002
0000
0000
3003
,
0001
1000
0001
0000
,
0010
1000
0010
0000
,
0100
0010
0100
0000
,
0010
0001
0010
0000
,
0001
1000
0001
0000
,
0001
1000
0010
0000
,
0100
0100
0010
0000
,
2002
0000
0000
3003
,
0001
0000
1000
0000
,
0010
0000
0100
0000
,
0001
0000
1000
0000
,
0001
0000
1000
0000
,
0010
0000
0100
0000
,
0010
0000
0000
0000
,
1000
0000
0100
0000
,
1000
0000
0000
0000
,
0010
0000
0001
0000
,
0010
0000
0000
0000
,
0100
0000
0010
0000
,
0100
0000
0000
0000
,
0001
0000
1000
0000
,
0010
0000
0000
0000
,
0100
0000
0001
0000
,
0100
0000
0000
0000
,
1000
0000
0010
0000
,
1000
0000
0000
0000
,
0001
0000
1000
0000
,
0001
0000
0000
0000
,
1000
0000
0010
0000
,
0100
0000
0001
0000
,
1000
0000
0010
0000
,
0100
0000
0001
0000
,
1000
0000
0010
0000
,
0100
0001
0100
0000
,
1000
0000
0010
0000
,
2002
0000
0000
3003
,
2002
0000
0000
0000
,
3003
0000
0000
0000
,
2002
0000
0000
0000
,
3003
0000
0000
0000
,
2002
0000
0000
0000
,
3003
0000
0000
0000
,
2002
0000
0000
0000
,
3003
0000
0000
0000
,
0010
0000
1000
0000
,
0010
0000
0000
0000
,
0001
0000
0100
0000
,
0001
0000
0000
0000
,
1000
0000
0001
0000
,
1000
0000
0000
0000
,
0001
0000
1000
0000
,
0001
0000
0000
0000
,
2002
0000
0000
0000
,
3003
0000
0000
0000
;

//--------------- dance-single - XLEV450X-BSP ----------------
#NOTES:
     dance-single:
     XLEV450X:
     Easy:
     8:
     0,0,0,0,0:
0000
0000
0000
0000
,
0000
0000
0000
0000
,
0000
0000
0000
0000
,
0000
0000
0000
0000
,
0000
0000
0000
0000
,
0001
0000
1000
0000
,
0010
1000
0010
0000
,
0100
0001
0100
0000
,
2002
3003
2002
3003
,
0001
1000
0010
1000
,
0100
0001
0010
0100
,
1000
0001
1000
0010
,
0100
0001
0010
0000
,
1000
0001
1000
0010
,
0100
0001
0010
0100
,
1000
0001
0010
0100
,
2002
3003
2002
3003
,
0001
1000
0010
0000
,
0100
0010
0100
0000
,
0001
0010
0001
1000
,
0001
1000
0010
0000
,
1000
0100
0010
0000
,
0001
1000
0001
0000
,
0100
0001
1000
0010
,
2000
0000
0002
3003
,
0001
1000
0010
0100
,
0000
0001
1000
0100
,
0000
0001
1000
0010
,
0002
1000
1000
1003
,
0000
0001
1000
0010
,
0000
0100
0001
0010
,
0000
1000
0001
1000
,
0002
0000
2000
3003
,
0001
1000
0010
0100
,
0001
0010
0100
0000
,
1000
0010
1000
0100
,
0001
0010
0100
0000
,
0001
1000
0001
1000
,
0010
0100
0010
0000
,
0001
0100
0001
0010
,
0202
0303
2020
3030
,
0001
1000
0001
0100
,
0010
1000
0010
0100
,
0001
0100
1000
0001
,
0010
1000
0001
0100
,
0010
0000
1000
0000
,
0001
0000
0000
1000
0000
0000
0010
0000
0001
0000
1000
0000
,
0100
0000
0001
0000
,
1000
0001
0100
1000
,
0010
0000
1000
0000
,
0001
0000
0000
0100
0000
0000
0001
0000
0010
0000
0100
0000
,
1000
0000
0010
0100
,
2002
3003
0220
0330
,
0001
1000
0010
0000
,
0100
0010
0100
0000
,
0001
0010
1000
0000
,
0010
1000
0100
0000
,
0001
1000
0001
1000
,
0010
0100
0010
0000
,
0001
0010
0100
1000
,
2002
3003
0220
0330
,
0001
1000
0010
0100
,
0000
0001
1000
0010
,
0101
0000
1000
0010
,
1000
0100
0001
1000
,
1010
0000
1000
0100
,
0001
0100
0010
0000
,
1000
0001
0100
0010
,
0220
0330
2002
3003
,
0001
0000
0000
1000
0000
0000
0010
0000
,
0000
0100
0000
0000
0001
0000
1000
0000
,
0010
0000
0000
0100
0000
0000
0001
0000
,
0000
1000
0000
0000
0001
0000
0100
0000
,
0010
0000
0000
1000
0000
0000
0001
0000
,
0000
0100
0000
0000
0010
0000
1000
0000
,
0001
0000
0000
1000
0000
0000
0010
0000
,
0000
0100
0000
0000
0001
0000
1000
0000
,
0001
0000
1000
0010
,
0100
0000
0001
0010
,
0001
0000
0100
1000
,
0001
0000
1000
0010
,
0100
0010
0001
0100
,
1000
0001
0010
1000
,
0100
0001
0010
1000
,
0010
1000
0010
0000
0001
0100
0010
0000
,
2002
0000
0000
0000
,
3003
0000
0000
0000
;

//--------------- dance-single - XLEV450X-DSP ----------------
#NOTES:
     dance-single:
     XLEV450X:
     Medium:
     11:
     0,0,0,0,0:
0000
0000
0000
0000
,
0000
0000
0000
0000
,
0000
0000
0000
0000
,
0000
0000
0000
0000
,
0000
0000
0000
0000
,
0001
1000
0001
0010
,
0100
1000
0001
0000
,
0100
1000
0010
0100
,
2002
3003
0220
0330
,
1000
0000
0001
0000
1000
0010
1000
0000
,
0010
0000
0100
0000
0001
0010
0001
0000
,
1000
0000
0010
0000
0100
0010
0100
0000
,
0001
1000
0001
0000
0010
1000
0010
0000
,
0100
0000
0001
0000
1000
0001
1000
0000
,
0010
0000
0100
0000
0001
0010
0001
0000
,
0100
1000
0100
0000
0001
1000
0001
0000
,
2002
3003
2002
3003
,
0001
1000
0010
0000
,
0100
0000
1000
0000
0010
0000
1000
0010
,
1000
0100
0001
0000
,
0001
0000
1000
0000
0001
0000
1000
0001
,
1000
0010
1000
0100
,
0001
0010
0100
0000
,
1000
0001
1000
0010
,
1000
2020
3030
0000
0100
0202
0303
0000
,
0001
0000
1000
0000
0010
1000
0010
0000
,
0001
0000
0100
0000
0001
0100
0001
0000
,
1000
0000
0010
0000
1000
0001
1000
0000
,
0002
1000
1000
1003
,
0010
0000
1000
0000
0010
0100
0010
0100
,
0001
0000
0010
0000
0001
0010
0001
0010
,
0100
1000
0100
0000
0010
0100
0010
0000
,
0001
0202
0303
0000
1000
2020
3030
0000
,
0001
0000
1000
0000
0010
0000
0100
0010
,
0100
0000
0001
0010
0001
0000
1000
0000
,
0202
0303
0000
0010
1000
0010
0100
1000
,
0000
0001
0000
0100
1000
0000
1001
0000
,
0220
0330
0000
0001
0010
0001
0000
0100
,
1000
0100
0000
0010
0100
0010
1000
0000
,
0001
0000
1000
0000
0010
0100
0010
0000
,
0010
0220
0330
0000
0001
2002
3003
0000
,
0001
1000
0001
0010
,
1000
0100
0010
0001
,
0100
1000
0001
0100
,
0010
1000
0001
1000
,
0001
0000
0100
0000
0010
0100
0010
0000
,
1000
0000
0000
0001
0000
0000
1000
0100
0010
0001
0000
0000
,
0100
1000
0001
0010
,
1000
0000
0100
0000
0010
0001
0010
1000
,
0010
1000
0001
1000
,
0100
0000
0000
1000
0000
0000
0001
0010
0100
1000
0000
0000
,
0010
0100
0001
0010
,
0001
0202
0303
0000
0010
2020
3030
0000
,
0001
1000
0010
0100
,
0001
0000
0010
0000
0100
0001
0100
0000
,
1000
0010
1000
0001
,
1000
0001
1000
0000
0010
1000
0010
0000
,
0100
0001
0010
1000
,
0100
0000
0010
0000
0001
0010
0001
0000
,
1000
0001
0100
0010
,
0100
0220
0330
0000
1000
2002
3003
0000
,
0001
0000
1000
0000
0010
0000
0100
0010
,
0100
0000
0001
0010
0001
0000
1000
0000
,
0202
0303
0000
0010
1000
0010
0100
1000
,
0000
0001
0000
0100
1000
0000
1001
0000
,
0220
0330
0000
0001
0010
0001
0000
0100
,
1000
0100
0000
0010
0100
0010
1000
0000
,
0001
0000
1000
0000
0010
0100
0010
0000
,
0010
0220
0330
0000
0001
2002
3003
0000
,
0001
0000
0000
1000
0000
0000
0010
0000
,
0000
0100
0000
0000
0001
0100
1000
0001
,
0010
0000
0100
0000
0000
0001
0000
0000
,
1000
0000
0000
0010
0000
1000
0100
0010
,
0100
0000
0001
0000
0000
1000
0000
0000
,
0010
0000
0000
0100
0000
0001
1000
0001
,
0100
0000
0010
0000
0000
1000
0000
0000
,
0001
0000
0000
0100
0000
0000
0001
0000
,
1000
0010
0100
0001
,
0010
0000
0100
0000
1000
0001
1000
0000
,
0010
0010
1000
0100
,
0001
0100
0001
0000
0010
1000
0010
0000
,
0100
0001
0010
0100
,
1000
0001
1000
0000
0010
1000
0010
0000
,
0100
0001
0010
0100
,
0001
0100
0001
1000
0010
1000
0100
0001
,
2002
0000
0000
0000
,
3003
0000
0000
0000
;

//--------------- dance-single - XLEV450X-ESP ----------------
#NOTES:
     dance-single:
     XLEV450X:
     Hard:
     15:
     0,0,0,0,0:
0000
0000
0000
0000
,
0000
0000
0000
0000
,
0000
0000
0000
0000
,
0000
0000
0000
0000
,
0000
0000
0000
0000
,
0001
0000
1000
0000
0010
0000
0100
0001
,
0100
0000
0010
0000
1000
0000
0001
1000
,
1000
0010
0100
0001
,
0101
0101
0000
0000
1010
1010
0000
0000
,
0001
0100
1000
0001
0010
0100
0010
1000
,
0001
0010
0001
0100
1000
0010
1000
0000
,
0100
1000
0001
0010
1000
0001
0010
1000
,
0010
0100
0001
1000
0010
0100
0001
0000
,
0010
0001
0010
0100
1000
0010
1000
0001
,
0010
0100
0010
0100
0001
1000
0001
0000
,
1000
0001
0010
1000
0100
0001
0100
1000
,
0001
1000
1001
0000
0010
0100
0110
0000
,
1000
0001
0100
0000
0001
1000
0010
0000
,
1000
0001
1000
0010
1000
0010
0100
0000
,
0010
0001
0010
0000
0100
1000
0100
0000
,
0001
1000
0010
1000
0100
1000
0001
1000
,
0010
1000
0010
0100
1000
0010
0100
0001
,
0010
0100
1000
0001
1000
0010
1000
0000
,
0001
0100
0001
0100
0010
1000
0010
1000
,
0010
0100
0001
0000
1000
0010
0000
0000
,
0001
0000
1000
0000
0010
1000
0100
1000
,
0001
0000
0010
0001
1000
0010
0100
0000
,
1000
0001
1000
0010
1000
0001
1000
0010
,
0002
1000
1000
1003
,
0001
1000
0010
0100
0010
1000
0001
0000
,
0010
0001
0010
0100
1000
0001
1000
0000
,
0010
1000
0010
0100
1000
0001
0010
1000
,
0001
0100
0000
0000
0010
1000
0000
0000
,
0001
0010
0001
1000
0100
0001
1000
0010
,
0000
1000
0001
1000
0010
0000
1001
0000
,
0110
0000
0001
1000
0010
0100
1000
0010
,
0000
0001
0010
0100
1000
0001
0010
0000
,
0101
0000
0010
1000
0010
1000
0000
0010
,
0100
0010
0000
0001
0010
0100
0001
0000
,
1001
0000
0010
0000
1000
0010
1000
0000
,
0010
0100
0000
0000
0001
1000
0000
0000
,
0001
0000
1000
0000
0010
0001
1000
0000
0010
0000
0100
1000
0001
0000
1000
0000
,
0010
0000
1000
0100
0001
0000
0100
0000
0010
0000
1000
0001
0010
0000
1000
0000
,
0010
0000
0100
1000
0001
0000
0100
0000
0001
0100
1000
0000
0010
0000
1000
0100
,
0001
0000
1000
0000
0010
0001
1000
0000
0001
0000
0100
1000
0010
0000
1000
0000
,
0001
0000
1000
0000
0010
0000
0100
0010
,
0100
0000
0000
0000
0000
0000
0001
0000
0000
0100
0000
0000
1000
0000
0100
0000
0010
0000
0001
0000
0000
0100
0000
0000
,
1000
0000
0010
1000
0010
0000
0100
0001
,
0100
0000
0000
0000
0001
0000
1000
0000
0001
0100
1000
0001
0010
1000
0100
0010
,
0001
0000
0100
1000
0001
0000
0010
1000
,
0010
0000
0000
0000
0000
0000
0100
0000
0000
1000
0000
0000
0001
0000
1000
0000
0001
0000
1000
0000
0000
0100
0000
0000
,
1000
0000
0010
1000
0001
0000
0010
0100
,
0001
0202
0303
0000
1010
0020
0030
0000
,
1000
0001
0100
0000
0001
1000
0010
0000
,
1000
0001
1000
0010
1000
0010
0100
0000
,
0010
0001
0010
0000
0100
1000
0100
0000
,
0001
0000
1000
0000
0010
0000
1000
0000
0100
0000
1000
0000
0001
0000
1000
0100
,
0010
1000
0010
0100
1000
0010
0100
0001
,
0010
0000
0100
0000
1000
0000
0001
0000
1000
0000
0010
0000
1000
0000
0100
0010
,
0001
0100
0001
0100
0010
1000
0010
1000
,
0010
0100
0101
0000
1000
0010
1010
0000
,
0001
0010
0001
1000
0100
0001
1000
0010
,
0000
1000
0001
1000
0010
0000
1001
0000
,
0110
0000
0001
1000
0010
0100
1000
0010
,
0000
0001
0010
0100
1000
0001
0010
0000
,
0101
0000
0010
1000
0010
1000
0000
0010
,
0100
0010
0000
0001
0010
0100
0001
0000
,
1001
0000
0010
0000
1000
0010
1000
0000
,
0010
0100
0110
0000
0001
1000
1001
0000
,
0001
0010
0001
0000
0010
0000
1000
0100
1000
0000
0100
0000
0010
0100
0010
0000
,
0001
0000
0100
0010
0100
0000
1000
0000
0001
0000
0100
0000
1000
0000
0001
0000
,
0010
0100
0010
0000
0100
0000
0100
0010
0100
0000
0010
0000
0001
1000
0001
0000
,
0100
0000
1000
0001
1000
0000
0100
0000
0010
0000
0001
0000
1000
0000
0001
0000
,
0100
0010
0100
0000
0010
0000
0001
1000
0001
0000
0100
0000
1000
0001
1000
0000
,
1000
0000
0010
0100
0010
0000
0001
0000
1000
0000
0100
0000
0001
0000
1000
0000
,
0100
0010
0100
0000
0001
0000
0010
0100
0010
0000
0010
0000
1000
0001
1000
0000
,
0100
0000
0001
1000
0001
0000
0100
0000
1000
0000
0100
0000
0001
0000
0000
0000
,
0001
1000
0010
0100
1000
0001
1000
0010
,
0100
1000
0010
0100
0001
1000
0010
0100
,
1000
0010
1000
0001
0100
1000
0001
1000
,
0010
1000
0010
0100
0001
1000
0101
0000
,
0010
1000
0010
1000
0100
1000
0001
0010
,
1000
0100
1000
0010
0100
1000
0001
0010
,
1000
0010
0100
1000
0001
0010
0100
1000
,
0001
0000
0010
1000
0100
0000
0001
0000
1000
0000
0001
1000
0100
0001
0010
0100
,
2002
0000
0000
0000
,
3003
0000
0000
0000
;

//--------------- dance-single - XLEV450X†-CSP ----------------
#NOTES:
     dance-single:
     XLEV450X†:
     Challenge:
     17:
     0,0,0,0,0:
0000
0000
0000
0000
,
0000
0000
0000
0000
,
0000
0000
0000
0000
,
0000
0000
0000
0000
,
0000
0000
0000
0000
,
0001
0000
1000
0000
0010
0000
0100
0010
,
0100
0000
0001
0000
0010
0000
0001
1000
,
0001
0000
0010
0000
1000
0010
1000
0000
,
0001
0100
0000
0000
0010
1000
0000
0000
,
0010
1000
0001
0010
0100
1000
0100
1000
0010
0100
0001
0100
0001
0010
0001
0100
,
0001
0100
0010
1000
0001
0100
0010
1000
0010
1000
0010
1000
0100
0010
0001
0010
,
0100
1000
0100
1000
0010
0100
0001
1000
0001
0100
0001
1000
0100
1000
0010
0100
,
0010
0100
0001
0100
0010
1000
0001
1000
0100
0010
0001
1000
0100
0010
0001
0010
,
0100
0010
0001
0100
0010
0100
0010
1000
0010
0100
0010
0100
0001
0100
0010
0100
,
0001
1000
0001
0100
0010
0100
0001
0010
0001
0010
0100
0010
0100
1000
0001
0100
,
0010
0100
0001
0100
0001
0010
0100
1000
0001
0010
0001
1000
0001
1000
0010
0100
,
0001
0100
1000
0000
0110
0000
0000
0000
1000
0001
1000
0000
1001
0000
0000
0000
,
0001
0010
0001
0100
0010
1000
0100
1000
,
0001
0000
0100
0000
0001
0000
0010
0000
0100
0000
1000
0000
0010
0000
1000
0001
,
0100
0010
0001
0100
0010
0100
0001
1000
,
0100
0000
1000
0000
0010
0000
1000
0000
0001
0000
0010
0000
0001
1000
0100
0001
,
0010
1000
0001
0100
0010
1000
0010
1000
,
0001
0010
1000
0010
0100
1000
0001
0010
,
0100
0001
1000
0010
0100
0001
0010
1000
,
0101
0101
0000
0000
1010
1010
0000
0000
,
1000
0000
0100
0000
0010
0001
1000
0000
0100
0000
0010
0000
1001
0000
0000
0000
,
0001
0000
0100
0000
0010
1000
0001
0000
0100
0000
0010
0000
1001
0000
0000
0000
,
1000
0000
0001
0000
0010
0100
0010
0000
0001
0000
1000
0000
0010
0100
0010
0000
,
1000
0000
0001
0000
0100
0010
0100
0000
0110
0000
0000
0000
1001
0000
0000
0000
,
0001
1000
0010
0100
1000
0001
0010
0100
,
0000
0001
1000
0010
1000
0010
0100
0100
,
0000
0000
0001
0100
1000
0000
0010
0000
1000
0000
0001
1000
0100
0000
0010
0000
,
1000
0100
0001
0000
0100
0010
0000
0000
,
2001
0000
0000
0000
3001
0000
0100
0000
0010
1000
0100
0000
0010
0000
0001
0000
,
0100
0010
1000
0000
0001
0000
0010
0000
0100
1000
0010
0000
0110
0000
0000
0000
,
1002
0000
0000
0000
1003
0000
0100
0000
0010
0001
0100
0000
0010
0000
1000
0000
,
0100
0010
0001
0000
1000
0000
0010
0000
0100
0001
0010
0000
0110
0000
0000
0000
,
2001
0000
0000
0000
3001
0000
0100
0000
0010
1000
0001
0000
1000
0000
0100
0000
,
0010
0001
1000
0000
0010
0000
0100
0000
0001
0000
0010
0000
0100
1000
0001
0000
,
0100
0001
0100
0000
0001
0010
0001
0000
1000
0010
1000
0000
0100
1000
0100
0000
,
0010
0110
0100
0000
0110
0010
1001
0000
,
0001
0100
1000
0000
0010
0000
0100
0000
0010
0000
1000
0000
0001
0000
0010
0000
,
1000
0001
0010
0000
0100
0000
1000
0000
0001
1000
0010
0000
0100
0000
0001
0000
,
1000
0001
0010
0000
1000
0000
0010
0000
0100
1000
0001
0000
0010
0000
0100
0010
,
0001
0000
1000
0000
0010
0001
1000
0000
0100
0000
1000
0100
0001
0000
0010
0000
,
1000
0001
1000
0000
0010
0000
0100
0001
,
1000
0000
0000
0000
0000
0000
0010
0000
0000
1000
0000
0000
0001
0000
0010
0000
1000
0000
0010
0000
0000
0001
0000
0000
,
1000
0000
0001
1000
0010
0000
0010
1000
,
0010
0000
0000
0000
0001
0000
0100
0000
1000
0000
0001
0000
1000
0100
0001
0000
,
0010
0000
1000
0001
1000
0000
0010
0100
,
0010
0000
0000
0000
0000
0000
0001
0000
0000
1000
0000
0000
0010
0000
1000
0000
0100
0000
0001
0000
0000
0100
0000
0000
,
1000
0000
0001
1000
0010
0000
0100
0010
,
0100
0101
0000
0000
0010
1010
0000
0000
,
0001
0010
0001
0100
0010
1000
0100
1000
,
0001
0000
0100
0000
0001
0000
0010
0000
0100
0000
1000
0000
0010
0000
1000
0001
,
0100
0010
0001
0100
0010
0100
0001
1000
,
0100
0000
1000
0000
0010
0000
1000
0000
0001
0000
0010
0000
0001
1000
0100
0001
,
0010
1000
0001
0100
0010
1000
0010
1000
,
0001
0000
0010
0000
1000
0000
0010
0000
0100
0000
1000
0000
0001
0000
0010
1000
,
0100
0001
1000
0010
0100
0001
0010
1000
,
0100
0101
0001
0000
0010
1010
1000
0000
,
2001
0000
0000
0000
3001
0000
0100
0000
0010
1000
0100
0000
0010
0000
0001
0000
,
0100
0010
1000
0000
0001
0000
0010
0000
0100
1000
0010
0000
0110
0000
0000
0000
,
1002
0000
0000
0000
1003
0000
0100
0000
0010
0001
0100
0000
0010
0000
1000
0000
,
0100
0010
0001
0000
1000
0000
0010
0000
0100
0001
0010
0000
0110
0000
0000
0000
,
2001
0000
0000
0000
3001
0000
0100
0000
0010
1000
0001
0000
1000
0000
0100
0000
,
0010
0001
1000
0000
0010
0000
0100
0000
0001
0000
0010
0000
0100
1000
0001
0000
,
0100
0001
0100
0000
0001
0010
0001
0000
1000
0010
1000
0000
0100
1000
0100
0000
,
0010
0110
0100
0000
0110
0010
0100
0000
,
0001
0010
0001
0010
0001
0000
1000
0100
1000
0100
1000
0000
0001
0010
0001
0010
,
0001
0000
1000
0100
1000
0100
1000
0000
0001
0010
0001
0010
0001
0010
0100
0010
,
1000
0010
1000
0010
1000
0000
0001
0100
0001
0100
0001
0000
1000
0010
1000
0010
,
1000
0000
0001
0100
0001
0100
0001
0000
1000
0010
1000
0010
1000
0100
0001
0100
,
1000
0100
0010
0100
1000
0000
0001
0010
0100
0010
0001
0000
1000
0100
0010
0100
,
1000
0000
0001
0010
0100
0010
0001
0000
1000
0100
0010
0100
1000
0100
0010
0100
,
0001
0100
0010
0100
0001
0000
1000
0010
0100
0010
1000
0000
0001
0100
0010
0100
,
0001
0000
1000
0010
0100
0010
1000
0000
0001
1000
0001
1000
0200
0000
0300
0000
,
0100
1000
0100
0010
0001
1000
0100
1000
0001
0100
0010
0100
0001
0010
0100
1000
,
0010
0100
0010
0100
0001
0100
0010
1000
0001
1000
0100
1000
0001
0100
0001
0100
,
0010
0100
0010
0100
0001
1000
0100
0010
0001
1000
0010
1000
0001
0100
0010
0100
,
0001
0100
0001
0010
0100
1000
0001
0010
0100
1000
0001
0010
0100
1000
0010
0100
,
0010
1000
0100
0010
0001
1000
0010
1000
0100
0010
0100
0010
0001
1000
0001
1000
,
0010
1000
0100
1000
0100
0010
0001
0010
0100
0010
0100
1000
0100
0010
0001
0100
,
0010
0100
0001
1000
0100
0010
0001
0100
0010
1000
0001
0100
0001
1000
0100
0010
,
0001
1000
0010
1000
0001
0010
0100
1000
0001
1000
0010
0100
0001
0010
0100
1000
,
0200
0000
0000
0000
,
0300
0000
0000
0000
;
