#TITLE:TRIUMPH;
#ARTIST:AJURIKA;
#GENRE:UK HARDCORE;
#MUSIC:TRIUMPH.ogg;
#BANNER:TRIUMPH.png;
#BACKGROUND:TRIUMPH-bg.png;
#CDTITLE:./CDTitles/bm IIDX 27 HEROIC VERSE.png;
#SAMPLESTART:84.948;
#SAMPLELENGTH:15;
#OFFSET:0.298;
#BPMS:0=183;
#BGCHANGES:0=TRIUMPH.mp4=1.000=0=0=0=StretchNoLoop====,
99999.000=-nosongbg-=1.000=0=0=0=StretchNoLoop====;
#BGSTAGE:16;

//--------------- dance-single - XLev450X-bSP ----------------
#NOTES:
     dance-single:
     XLev450X:
     Beginner:
     3:
     0,0,0,0,0:
0000
0000
0000
0000
,
0000
0000
0000
0000
,
0000
0000
0000
0000
,
0000
0000
0000
0000
,
0000
0000
0000
0000
,
0001
0001
0001
0000
,
1000
1000
1000
0000
,
0010
0100
0010
0000
,
2002
0000
0000
3003
,
0001
1000
0001
0000
,
0010
1000
0010
0000
,
0100
0001
0100
0000
,
0001
0000
0001
0000
,
1000
0010
1000
0000
,
0100
0010
0100
0000
,
0001
0010
0001
0000
,
1000
0000
1000
0000
,
1001
0000
0000
0000
,
0000
0000
0000
0000
,
0110
0000
0000
0000
,
0000
0000
0000
0000
,
0001
0000
0000
0000
,
0000
0000
0000
0000
,
1000
0000
0000
0000
,
0000
0000
0000
0000
,
0001
0000
0001
0000
,
0010
0000
0000
0000
,
0100
0000
0100
0000
,
1000
0000
0000
0000
,
0010
0000
0010
0000
,
0100
0000
0000
0000
,
0001
0000
1000
0000
,
0001
0000
0000
0000
,
1000
0000
0000
0000
,
0001
0000
0000
0000
,
1000
0000
0000
0000
,
0000
0000
0000
0000
,
0010
0000
0000
0000
,
0100
0000
0000
0000
,
0010
0000
0000
0000
,
0000
0000
0000
0000
,
0001
0000
0000
0000
,
0001
0000
0000
0000
,
1000
0000
0000
0000
,
0000
0000
0000
0000
,
0100
0000
0000
0000
,
0010
0000
0000
0000
,
0100
0000
0000
0000
,
0000
0000
0000
0000
,
1001
0000
0000
0000
,
0000
0000
0000
0000
,
1010
0000
0000
0000
,
0000
0000
0000
0000
,
0101
0000
0000
0000
,
0000
0000
0000
0000
,
0110
0000
0000
0000
,
0000
0000
0000
0000
,
0001
0000
0000
0000
,
0001
0000
0000
0000
,
0001
0000
0000
0000
,
0000
0000
0000
0000
,
1000
0000
0000
0000
,
1000
0000
0000
0000
,
1000
0000
0000
0000
,
0000
0000
0000
0000
,
0010
0000
0010
0000
,
0010
0000
0000
0000
,
0100
0000
0100
0000
,
0100
0000
0000
0000
,
0001
0000
1000
0000
,
0001
0000
0000
0000
,
1000
0000
0100
0000
,
1000
0000
0000
0000
,
0010
0000
0000
0000
,
0010
0000
0000
0000
,
0100
0000
0000
0000
,
0000
0000
0000
0000
,
0010
0000
0000
0000
,
0001
0000
0000
0000
,
0010
0000
0000
0000
,
0000
0000
0000
0000
,
1000
0000
0000
0000
,
0000
0000
0000
0000
,
1000
0000
0000
0000
,
0000
0000
0000
0000
,
1000
0000
0000
0000
,
0000
0000
0000
0000
,
2002
0000
0000
0000
,
3003
0000
0000
0000
;

//--------------- dance-single - XLev450X-BSP ----------------
#NOTES:
     dance-single:
     XLev450X:
     Easy:
     7:
     0,0,0,0,0:
0000
0000
0000
0000
,
0000
0000
0000
0000
,
0000
0000
0000
0000
,
0000
0000
0000
0000
,
0000
0000
0000
0000
,
0001
1000
0010
0000
,
0001
0010
0100
0000
,
0010
1000
0010
0000
0010
0100
0010
0000
,
2002
0000
0000
3003
,
0001
1000
0010
0100
,
0001
0010
0100
1000
,
0001
1000
0100
0010
,
0001
0010
0100
0000
,
0001
1000
0010
0100
,
1000
0000
0001
0000
1000
0001
1000
0000
,
0010
0100
0010
0001
,
0010
0100
1000
0000
,
2001
0000
0001
0000
,
0001
0001
0002
3003
,
1002
0000
1000
0000
,
1000
1000
2000
3003
,
0120
0000
0100
0000
,
0100
0100
0200
0330
,
0210
0000
0010
0000
,
0010
0000
0010
0000
0010
0010
0020
0330
,
0001
1000
0001
0000
,
0010
1000
0100
0001
,
0010
0100
1000
0000
,
0001
0001
1000
0100
,
0010
0001
0010
0000
,
0001
1000
0001
0000
,
0010
1000
0100
0010
,
0001
0100
0001
0000
,
0001
0000
1000
0000
0001
1000
0001
0000
,
0010
0000
1000
0000
0010
1000
0010
0000
,
0001
0000
0100
0000
0010
0100
0010
0000
,
0001
1000
0001
0000
,
0100
0100
0001
1000
,
0001
1000
0001
0000
0010
1000
0010
0000
,
0001
0010
0100
1000
,
0001
1000
0001
0000
,
0010
0000
1000
0000
,
0100
0010
0100
0000
,
0001
0010
0001
0000
,
0100
1000
0100
0000
,
0001
1000
0001
0000
,
0010
1000
0010
0000
,
0100
0100
0001
1000
,
0001
1000
0002
0003
,
2001
0001
0001
0001
,
0001
0000
0001
0000
0001
0001
3001
0000
,
2001
0001
0001
0001
,
0001
0000
0001
0000
0001
0001
3001
0000
,
1002
1000
1000
1000
,
1000
0000
1000
0000
1000
1000
1003
0000
,
1002
1000
1000
1000
,
1000
0000
1000
0000
1000
1000
2000
3003
,
0001
1000
0010
0100
,
0001
0010
0100
0000
,
1000
0001
1000
0100
,
0010
0001
0010
0000
,
0001
0000
0010
0000
0001
0010
0001
0000
,
1000
0000
0010
0000
1000
0010
1000
0000
,
0001
1000
0001
0000
0010
0100
0010
0000
,
2002
0000
0000
3003
,
0001
1000
0100
0001
,
0010
0100
1000
0000
,
0010
1000
0100
0000
,
0001
0010
0001
0000
,
0001
1000
0001
1000
,
0100
0010
0001
0000
,
0010
0100
0010
0000
,
0010
1000
0010
0000
,
0001
0001
1000
0000
,
0100
0100
0001
0000
,
0010
0100
0010
0000
,
1000
0100
1000
0000
,
0001
0001
1000
0000
,
0100
0100
0001
0000
,
0010
0100
0010
1000
,
0001
1000
0001
0000
,
1000
0000
0010
1000
,
0010
0000
0001
0100
,
0001
0000
0010
0100
,
0010
0001
1000
0000
,
0001
0001
1000
0000
,
0010
0010
1000
0000
,
0001
0010
0001
0000
0100
1000
0100
0000
,
0001
1000
0001
0000
,
1001
0000
0000
0000
;

//--------------- dance-single - XLev450X-DSP ----------------
#NOTES:
     dance-single:
     XLev450X:
     Medium:
     12:
     0,0,0,0,0:
0000
0000
0000
0000
,
0000
0000
0000
0000
,
0000
0000
0000
0000
,
0000
0000
0000
0000
,
0000
0000
0000
0000
,
0010
0001
0010
0000
0010
1000
0010
0000
,
0010
0100
0010
0000
0001
1000
0001
0000
,
1000
0010
0100
0010
0001
0010
0100
1000
,
2002
0000
0000
3003
,
1001
0000
1000
0100
1000
0100
0000
0010
,
0000
0100
0010
0001
0100
0000
0110
0000
,
1001
0000
0001
0100
0001
0100
0000
0010
,
0000
0100
0010
1000
0100
0000
0110
0000
,
1001
0000
0001
0010
0001
0010
0000
0100
,
0000
0010
0001
0100
0010
0000
0110
0000
,
1001
0000
1000
0010
1000
0010
0000
0100
,
0000
0000
0010
0000
1000
0000
0100
0000
0010
0000
0000
0001
0000
0000
1000
0000
,
0010
0000
0000
0010
0000
0010
0000
0010
,
0000
0100
0001
1000
0100
0000
0110
0000
,
0010
0000
0000
0010
0000
0010
0000
0010
,
0000
0100
1000
0001
0100
0000
0110
0000
,
0001
0000
0000
0001
0000
0001
0000
0001
,
0000
0010
0100
1000
0001
0000
1001
0000
,
1000
0000
0000
1000
0000
1000
0000
1000
,
0000
0000
0010
0000
0100
0000
0001
0000
1000
0000
0000
0100
0000
0000
0010
0000
,
0001
0000
1000
0000
0001
0100
0010
0000
,
0001
0000
1000
0000
0010
1000
0100
0000
,
0010
0001
0010
0000
0010
0100
0010
0000
,
0010
1000
0010
1000
0001
0100
0001
1000
,
0001
0000
1000
0000
0100
0001
0100
0000
,
0010
0000
1000
0000
0001
0010
0001
0000
,
0100
0000
1000
0000
0010
1000
0010
0000
,
0001
0000
1000
0000
0100
0001
0100
0000
,
0001
0000
1000
0000
0010
1000
0010
0000
,
0001
0000
1000
0000
0100
0001
0100
0000
,
0001
0000
1000
0000
0001
1000
0001
0000
,
0001
0001
0001
0000
1000
0010
1000
0000
,
0010
0100
1000
0001
1000
0010
1000
0000
,
0001
0000
0010
0000
0001
0010
0001
0000
,
0100
0000
1000
0000
0001
1000
0001
0000
,
0010
1000
0100
0010
0001
0010
0100
1000
,
0002
0000
1000
0000
1000
0000
2000
3003
,
0010
1000
0010
0000
0100
0000
0001
0000
,
2000
0000
0001
0000
0001
0000
0002
3003
,
1000
0001
1000
0100
0010
0000
0001
0000
,
0010
0001
0010
0000
0010
0100
0010
0000
,
0010
1000
0010
0000
0001
0010
0001
0000
,
1000
0100
0001
0000
0001
0100
0010
0000
,
0010
1000
0001
0000
0100
0010
0100
1000
,
0002
1000
1000
1000
,
1000
0000
1000
0000
1000
1000
2000
3003
,
2000
0001
0001
0001
,
0001
0000
0001
0000
0001
0001
0002
3003
,
0001
0000
1000
0000
0001
1000
0001
0000
,
0010
0000
1000
0000
0010
1000
0010
0000
,
0001
0000
0100
0000
0001
0010
0001
0000
,
0010
0100
0010
0000
0010
1000
0010
0000
,
0001
1000
0100
0001
,
1000
0001
1000
0000
0010
0000
0100
0000
,
0001
0010
0001
0000
0010
0100
0010
0000
,
0010
1000
0010
0000
0001
0000
1000
0000
,
0001
1000
0100
0010
,
0001
0100
1000
0010
,
0010
1000
0010
0100
0001
0010
0100
0010
,
2002
0000
0000
3003
,
1000
0000
0010
0000
0001
0000
0000
0000
0010
0000
0000
0000
1000
0010
1000
0010
,
0100
0001
0000
0200
0000
0310
1000
0001
,
1000
0100
0010
0001
0000
0100
0000
0010
,
1000
0100
0000
0010
0000
0001
1000
0001
,
1000
0000
0100
0000
0001
0000
0000
0000
0100
0000
0000
0000
1000
0100
1000
0100
,
0010
0001
0000
0200
0000
0310
1000
0001
,
0010
0100
0000
1000
0010
0000
0100
0001
,
0000
1001
0000
0220
0000
0330
0000
0000
,
1000
0000
0010
0000
0001
0000
0010
0000
1000
0000
0000
0000
0001
1000
0001
1000
,
0001
1000
0100
0020
0000
0031
1000
0000
,
0001
0100
1000
0100
0000
0001
0000
1000
,
0100
0010
0000
0001
0100
0010
1000
0000
,
0001
0000
0010
0000
1000
0000
0010
0000
0001
0000
0000
0000
1000
0100
1000
0100
,
0010
0001
0100
0020
0000
1030
0100
1000
,
0001
0100
0000
1000
0100
0000
0001
0010
,
0000
0110
0000
2002
0000
3003
0000
0000
,
0001
0010
0001
1000
0010
1000
0010
0001
,
0010
0100
0010
0100
0001
1000
0001
0010
,
1000
0100
0010
0001
0010
0100
1000
0001
,
1000
0010
1000
0010
0100
0010
0001
0000
,
0100
0001
0100
0001
0010
0001
0010
0001
,
1000
0100
0010
0001
0010
0100
1000
0001
,
0100
0001
0100
0000
0000
0000
0010
1000
0010
0000
0000
0000
1000
0001
1000
0000
,
0000
0000
1100
0000
0000
0000
0011
0000
0000
0000
1000
0001
0200
0000
0020
0000
,
0330
0000
0000
0000
;

//--------------- dance-single - XLev450X-ESP ----------------
#NOTES:
     dance-single:
     XLev450X:
     Hard:
     16:
     0,0,0,0,0:
0000
0000
0000
0000
,
0000
0000
0000
0000
,
0000
0000
0000
0000
,
0000
0000
0000
0000
,
0000
0000
0000
0000
,
0100
0010
0001
1000
0100
0010
0100
1000
0010
0100
0010
1000
0010
1000
0100
0010
,
0001
1000
0100
1000
0100
1000
0001
0010
0100
1000
0010
1000
0100
0010
0001
1000
,
0100
0010
0100
1000
0100
0010
0001
0010
0100
0010
0001
0100
0010
0100
0010
2000
,
0002
0000
0000
3003
,
0011
0000
0001
0001
0010
1000
0010
0001
,
0010
0000
0100
0000
1000
0000
0010
0100
0001
0000
0000
0000
0101
0000
0000
0000
,
1010
0000
1000
1000
0010
0001
0010
1000
,
0010
0000
0100
0000
0001
0000
0100
0010
1000
0000
0000
0000
1100
0000
0000
0000
,
0011
0000
0001
0001
1000
0010
0001
0010
,
1000
0000
0001
0000
0010
0000
0100
1000
0001
0000
0000
0000
0101
0000
0000
0000
,
1010
0000
1000
1000
0001
0010
1000
0010
,
0001
0000
1000
0000
0010
0000
0100
0001
1000
0000
0000
0100
0000
0000
0010
0000
,
0021
0000
0001
0001
0000
0001
0000
0001
,
0030
0000
0001
0000
0010
0000
0001
1000
0100
0000
0000
0000
2100
0000
0000
0000
,
0010
0000
0010
0010
0000
0010
0000
0010
,
0000
0000
3010
0000
0010
0000
1000
0001
0010
0000
0000
0000
0012
0000
0000
0000
,
0100
0000
0100
0100
0000
0100
0000
0100
,
0000
0000
0103
0000
0100
0000
0010
1000
0001
0000
0000
0000
2010
0000
0000
0000
,
0100
0000
0100
0100
0000
0100
0000
0100
,
0000
0000
3100
0000
0100
1000
0001
1000
0100
0000
0000
0010
0000
0000
0001
0000
,
0200
0010
1000
0310
,
0001
0000
0000
0100
0010
0000
1000
0000
0010
0100
0010
0100
0001
0000
0000
0000
,
0020
1000
0100
0031
,
0010
0000
1000
0000
0001
0000
0100
0000
1000
0000
0010
0000
1000
0001
1000
0001
,
0020
1000
0100
1030
,
0010
0000
0000
0001
0100
0000
0010
0000
1000
0001
1000
0001
0010
0000
0000
0000
,
2100
0000
0010
3020
0000
0001
0000
0100
,
0000
0000
1030
0000
1000
0100
0000
0100
0010
0000
0010
0001
0000
0000
1000
0001
,
1000
0000
0001
0000
0010
1000
0010
0000
,
0001
0000
0000
1000
0000
0000
0001
0000
0100
0000
0010
0000
1000
0000
0000
0000
,
0001
0000
0010
0000
0001
0000
0000
0000
0100
0000
1000
0100
0001
0000
1000
0000
,
0010
0000
1000
0000
0010
0000
0100
0000
0001
0000
0100
0001
0100
0000
0001
0000
,
1000
0000
1000
0100
0001
0000
0010
0100
1000
0000
0001
1000
0010
0000
0001
1000
,
0100
0000
0000
0001
0000
0000
1000
0000
0010
0000
1000
0000
0010
1000
0001
1000
,
0010
0000
0001
0000
0010
0000
0001
0000
0010
0000
0001
0010
0001
0000
1000
0000
,
0001
0000
0100
0000
0001
0000
1000
0000
0001
1000
0001
0000
1000
0000
0001
0000
,
1000
0000
0001
0000
0010
1000
0010
0000
,
0001
0000
0010
0000
0100
0000
0001
0000
1000
0000
0001
0000
0000
1000
0000
0000
,
0010
0000
1000
0000
0010
0000
1000
0100
0001
0000
0010
0000
0001
0000
0010
0000
,
0001
1000
0010
0001
0100
0001
1000
0100
0001
1000
0001
0010
0100
1000
0001
0100
,
0001
0000
1000
0000
0100
0001
0100
0000
,
1000
0000
0100
0000
0010
0000
1000
0000
0001
0000
1000
0000
0000
0001
0000
0000
,
0100
0000
0001
0000
0100
0000
0001
0010
1000
0000
0100
0000
1000
0000
0100
0000
,
1000
0001
0100
1000
0010
1000
0001
0010
1000
0001
1000
0100
0010
0001
1000
0010
,
0002
1000
1000
1000
,
1000
0000
1000
0000
1000
0000
1000
1000
,
1003
0100
0001
0010
1000
0100
0001
0100
,
1000
0001
0010
1000
0100
0010
0001
0010
,
0001
0100
1000
0001
1000
0010
0100
0010
,
0001
1000
0010
0100
0010
1000
0001
0000
,
0010
1000
0100
0010
0001
0010
0100
1000
,
0001
1000
0001
1000
0001
1000
0001
0000
,
0010
1000
0100
0000
0001
0010
0100
0000
,
0001
1000
0010
0000
0010
0100
0010
0000
,
0001
0010
0001
0000
0100
1000
0100
0000
,
0001
1000
0001
0000
0010
1000
0010
0000
,
0001
1000
0100
0001
1000
0010
0100
0010
,
1000
0001
0100
0010
1000
0001
1000
0001
,
0010
1000
0010
0100
0010
1000
0001
0100
0001
0100
0010
1000
0001
0100
0010
0200
,
0020
0000
0000
0330
,
0100
0000
1000
0000
0010
0000
0100
0000
0001
0000
0010
0000
0100
1000
0001
0100
,
0010
1000
0010
0000
0000
0000
0110
0000
0000
0000
0100
0000
0001
0000
0010
0000
,
1000
0000
0010
0000
0001
0000
1000
0000
0100
0000
1000
0000
0010
0000
0100
0010
,
0100
0001
1000
0200
0000
0310
1000
0010
,
0001
0000
1000
0000
0010
0000
0100
0000
0001
0000
1000
0000
0100
0010
0001
0100
,
0010
1000
0010
0000
0000
0000
2002
0000
0000
0000
3003
0000
0001
0010
0100
1000
,
0001
0101
0100
0010
1010
1000
0100
1100
,
1000
1001
0000
0110
0000
0002
0203
2300
,
3100
0000
0001
0100
0001
0000
1000
0000
0100
0000
1000
0000
0010
1000
0010
0100
,
0001
0010
0100
0000
0000
0000
0110
0000
0000
0000
0010
0000
0001
0000
1000
0000
,
0010
0000
0100
0010
1000
0000
0100
0000
0010
0000
0001
0000
1000
0000
0010
0100
,
0001
0010
0000
0011
0001
0100
0110
0010
,
1000
0000
0001
0100
0010
0000
1000
0000
0001
0000
0010
0000
0100
1000
0010
0100
,
0001
0010
0100
0000
0000
0000
2002
0000
0000
0000
3003
0000
1000
0001
0010
0100
,
1000
1010
0010
0100
0101
0001
0010
0110
,
0000
1100
0000
0022
0000
0000
0033
0000
,
0100
0010
0001
0100
0001
0010
0001
0100
0010
1000
0100
1000
0100
1000
0001
0010
,
0100
0010
0100
1000
0010
0100
0001
0010
0001
0100
0001
0100
0010
0100
0001
0010
,
0001
0100
0001
0100
0010
1000
0100
0010
0001
0100
0001
0010
0001
0010
0100
0010
,
0100
1000
0001
0100
0010
1000
0010
0100
0010
0100
0001
0200
0002
0000
0303
0000
,
0001
0010
0100
1000
0001
0010
0100
0010
1000
0100
1000
0100
0010
0001
0010
0001
,
1000
0010
1000
0010
0100
0010
0100
0001
1000
0001
0010
0100
1000
0100
0001
1000
,
0100
0001
0100
0001
0010
0100
1000
0100
1000
0001
0010
1000
0100
0001
1000
0001
,
0100
1000
0010
0001
0100
0010
1000
0100
1000
0001
0100
0010
2000
0000
0002
0000
,
3003
0000
0000
0000
;
