#TITLE:THANK YOU FOR PLAYING;
#SUBTITLE:;
#ARTIST:SUPER STAR 満-MITSURU-;
#TITLETRANSLIT:;
#SUBTITLETRANSLIT:;
#ARTISTTRANSLIT:SUPER STAR -MITSURU-;
#GENRE:ONLY ONE EPILOGUE;
#CREDIT:;
#MUSIC:THANK YOU FOR PLAYING.ogg;
#BANNER:THANK YOU FOR PLAYING.png;
#BACKGROUND:THANK YOU FOR PLAYING-bg.png;
#CDTITLE:./CDTitles/bm IIDX 16 EMPRESS.png;
#SAMPLESTART:14.739;
#SAMPLELENGTH:15.000;
#SELECTABLE:YES;
#OFFSET:-0.268;
#BPMS:0.000=170.000
,265.000=160.000
,267.000=138.000
,269.000=130.000
,271.000=60.000
,273.000=170.000
;
#STOPS:;
#BGSTAGE:23;
#DISPLAYBPM:170;
#BGCHANGES:;
#FGCHANGES:;

//--------------- dance-single - XLev450X-bSP ----------------
#NOTES:
     dance-single:
     XLev450X:
     Beginner:
     3:
     0,0,0,0,0:
0000
0000
0000
0000
,
0000
0000
0000
0000
,
0000
0000
0000
0000
,
0000
0000
0000
0000
,
0000
0000
0000
0000
,
0000
0000
0000
0000
,
0000
0000
0000
0000
,
0000
0000
0000
0000
,
0000
0000
0000
0000
,
0000
0000
0000
0000
,
0000
0001
0000
1000
,
0000
0010
0000
0000
,
0000
0100
0000
0001
,
0000
1000
0000
0000
,
0000
0010
0000
0100
,
0000
0010
0000
0000
,
0000
0001
0000
1000
,
0000
0100
0000
0001
,
0000
0001
0001
0001
,
0000
0100
0100
0100
,
0000
0010
0010
0010
,
0000
1000
1000
1000
,
0000
1000
0001
1000
,
0000
0010
0100
0010
,
0000
1000
0100
0010
,
0001
0110
0000
0000
,
0000
0001
0000
1000
,
0000
0001
0000
0000
,
0000
0100
0000
0010
,
0000
0100
0000
0000
,
0000
0001
0000
1000
,
0000
0010
0000
0000
,
0000
0100
0000
0010
,
0000
0001
0000
0000
,
0000
0001
0000
0001
,
0000
0001
0000
0000
,
0000
1000
0000
1000
,
0000
1000
0000
0000
,
0000
0010
0000
0010
,
0000
0010
0000
0000
,
0000
0100
0000
0100
,
0000
0100
0000
0000
,
0000
0001
0000
1000
,
0000
0002
0000
0003
,
0110
0001
1000
0001
,
0000
1000
0001
0100
,
0000
0010
0000
1000
,
0000
0001
0100
0010
,
0000
1000
0000
0001
,
0000
0010
0000
0100
,
0000
0001
0000
1000
,
0000
0001
0000
0010
,
0000
0100
0000
0000
,
0000
0001
0000
1000
,
0000
0010
0000
0000
,
0000
0100
0000
0001
,
0000
1000
0000
0000
,
0000
0010
0000
0100
,
0000
0001
0000
0000
,
0000
1000
0000
0001
,
0000
0010
0000
0000
,
0000
0100
0000
0001
,
0000
0010
0000
0000
,
0000
1000
0000
0100
,
0000
0010
0000
0000
,
0000
0001
0000
0000
,
0000
0100
0000
0010
,
0000
0100
0000
0001
,
0000
2002
0000
0000
,
0000
0000
0000
0000
,
0000
0000
3003
0000
;

//--------------- dance-single - XLev450X-BSP ----------------
#NOTES:
     dance-single:
     XLev450X:
     Easy:
     5:
     0,0,0,0,0:
0000
0000
0000
0000
,
0000
0000
0000
0000
,
0000
0000
0000
0000
,
0000
0000
0000
0000
,
0000
0000
0000
0000
,
0000
0000
0000
0000
,
0000
0000
0000
0000
,
0000
0000
0000
0000
,
0000
0000
0000
0000
,
0000
0000
0000
0000
,
0000
0001
1000
0010
,
0000
0100
0001
0100
,
0000
0010
1000
0001
,
0100
0010
0000
0001
,
0000
1000
0001
0100
,
0000
0010
0100
0001
,
0000
0001
1000
0010
,
0100
0001
0010
0100
,
0001
0010
0000
1000
,
0000
0001
0000
0100
,
0000
0010
0000
1000
,
0000
0001
0010
1000
,
0000
0010
0000
0100
,
0000
0001
0000
1000
,
0000
0010
0100
0001
,
1000
0010
0000
0100
,
0001
1000
0000
0001
,
0100
0010
0000
1000
,
0010
0100
0001
1000
,
0000
0010
0000
0100
,
0000
0001
1000
0010
,
0100
0001
0000
1000
,
0000
0010
0100
0001
,
1000
0010
0100
0001
,
0010
1000
0000
0001
,
0000
0010
0001
0100
,
1000
0010
0000
0100
,
0000
0001
1000
0010
,
0100
2002
0000
0000
,
3003
0202
0000
0000
,
0303
2020
0000
0000
,
3030
0022
0000
0000
,
0033
0010
0100
0001
,
1000
0220
0000
0330
,
1001
0001
1000
0010
,
0000
0100
0001
1000
,
0010
0100
0001
0010
,
0000
0001
0000
1000
,
0000
0001
0100
0010
,
1000
0001
0000
0010
,
0000
1000
0000
0001
,
0100
0010
0000
1000
,
0001
0000
0010
1000
0001
0000
0100
0000
,
0010
1000
0000
0001
,
0100
0010
1000
0001
,
0010
1000
0001
0100
,
0010
1000
0000
0001
,
0000
0100
0000
0010
,
0000
1000
0001
0100
,
0010
0001
1000
0010
,
0100
1001
0000
0000
,
0000
0000
0000
0020
,
0030
0200
0000
0300
,
0000
0000
0000
0002
,
0003
2000
0000
0000
,
0000
0000
3000
0020
,
0030
0000
0200
0000
0000
0300
0002
0000
,
0000
0003
2000
0000
0000
3000
0020
0000
,
0000
0030
2002
0000
0000
0000
0000
0000
,
0000
0000
0000
0000
,
0000
0000
3003
0000
;

//--------------- dance-single - XLev450X-DSP ----------------
#NOTES:
     dance-single:
     XLev450X:
     Medium:
     9:
     0,0,0,0,0:
0000
0000
0000
0000
,
0000
0000
0000
0000
,
0000
0000
0000
0000
,
0000
0000
0000
0000
,
0000
0000
0000
0000
,
0000
0000
0000
0000
,
0000
0000
0000
0000
,
0000
0000
0000
0000
,
0000
0000
0000
0000
,
0000
0000
0000
0000
,
0000
0001
1000
0010
,
0100
0001
0010
1000
,
0000
0001
0100
0010
,
1000
0001
0100
0010
,
0000
0001
0010
1000
,
0001
0100
0010
1000
,
0001
0000
0010
0001
0010
0000
0100
1000
,
0100
0000
0010
0000
0100
0000
0010
0001
,
1000
0010
0100
0000
0001
0000
1000
0000
,
0000
0000
0010
0000
0001
0000
0100
0010
,
1000
0001
0100
0000
0010
0000
1000
0000
,
0000
0001
0100
0010
,
0100
0001
1000
0000
0010
0000
0100
0000
,
0000
0001
1000
0010
,
0100
0000
0001
1000
0010
0000
0100
0001
,
1000
0000
0010
0100
0001
1000
0010
0100
,
0001
1000
0010
0000
0100
0000
0001
1000
,
0010
0000
0100
0000
0001
0000
0010
0001
,
0010
0000
1000
0000
0010
0000
1000
0010
,
0100
0001
1000
0000
0010
0000
0100
1000
,
0100
0010
0100
0000
0001
0000
1000
0010
,
0100
0000
0001
0000
1000
0000
0010
0001
,
1000
0000
0010
0100
0001
1000
0010
0100
,
0001
0000
1000
0000
0010
0000
0100
1000
,
0001
0100
0010
0000
0001
0000
1000
0000
,
0010
0000
0100
0000
0001
0000
1000
0010
,
0100
0001
1000
0010
,
0001
0000
0100
0000
0010
0000
1000
0001
,
0100
0010
2000
0000
3000
0000
0020
0000
,
0030
0200
0300
0002
,
0003
0010
1000
0001
,
0000
0100
0010
2000
,
3000
0000
0010
0001
0100
1000
0010
0100
,
0001
2000
3000
0010
0000
0100
0000
0000
,
2002
3003
0010
0000
0100
0000
0001
0000
,
1000
0010
0100
0001
,
1000
0000
0010
0100
0001
0000
1000
0000
,
0010
0000
1000
0010
0100
0001
0010
0000
,
1000
0000
0100
1000
0100
0000
0010
0001
,
0010
0100
0001
1000
,
0010
0000
0100
0001
1000
0000
0010
0000
,
0100
0001
0000
1000
,
0010
0000
0100
0001
0010
0000
1000
0000
,
0010
0000
0100
1000
0100
0000
0010
0001
,
0010
0010
0100
0001
,
1000
0000
0010
0000
0100
0000
0001
1000
,
0010
0000
0100
0000
0001
0000
1000
0010
,
0100
0001
1000
0010
,
0100
0000
0001
1000
0010
0100
0001
0000
,
1000
0000
0010
0100
0001
1000
0010
0100
,
0001
1000
0020
0000
0030
0000
0200
0000
,
0300
0002
0003
1000
,
0010
0200
0300
0002
,
0003
2000
3000
0010
,
0100
0002
0003
2000
,
3000
0020
0030
0100
,
0001
0000
2000
0000
3100
0001
0020
0000
,
1030
0001
0100
1000
0001
0100
1000
0010
,
0002
0003
2002
0000
0000
0000
0000
0000
,
0000
0000
0000
0000
,
0000
0000
3003
0000
;

//--------------- dance-single - XLev450X-ESP ----------------
#NOTES:
     dance-single:
     XLev450X:
     Hard:
     11:
     0,0,0,0,0:
0000
0000
0000
0000
,
0000
0000
0000
0000
,
0000
0000
0000
0000
,
0000
0000
0000
0000
,
0000
0000
0000
0000
,
0000
0000
0000
0000
,
0000
0000
0000
0000
,
0000
0000
0000
0000
,
0000
0000
0000
0000
,
0000
0000
0000
0000
,
0000
0000
0001
0000
1000
0000
0010
0100
,
0001
0000
1000
0000
0010
0000
0100
0001
,
1000
0010
0100
0000
0001
0000
1000
0000
,
0010
0000
0100
0000
1000
0000
0010
0001
,
0100
1000
0010
0000
0100
0000
0001
1000
,
0010
0000
0100
0000
0001
0000
1000
0010
,
0100
0000
0010
0001
0010
0000
0100
1000
,
0100
0000
0000
0000
0010
0000
0100
0000
0001
0000
1000
0000
0010
0000
0000
0010
,
0000
1000
0010
0100
0001
0000
1000
0010
,
0100
0000
0001
0000
0010
0000
0001
1000
,
0010
0100
0001
0000
0010
0000
1000
0100
,
0001
0000
0000
0000
0100
0000
1000
0000
0010
0000
1000
0000
0001
0000
0000
1000
,
0010
0100
0001
0000
1000
0000
0001
0100
,
0010
0000
1000
0001
0010
0000
0100
0000
,
1000
0000
0001
0100
0010
1000
0001
0100
,
0010
0000
0000
0000
1000
0000
0000
0000
0001
0000
0100
0000
0010
0000
0000
0001
,
0000
1000
0001
0000
0010
0000
1000
0001
,
0100
0010
1000
0000
0001
0000
0100
0000
,
0010
0000
1000
0000
0010
0000
0100
1000
,
0001
0010
0000
0100
0001
0000
1000
0000
,
0010
0100
1000
0000
0010
0000
0001
0000
,
0010
0000
1000
0001
0100
0010
1000
0001
,
0100
0010
0001
0000
1000
0000
0010
0000
,
0100
0000
0001
1000
0010
0000
0100
0000
,
0001
0000
1010
0000
0101
0000
0010
1000
,
0001
0000
0100
1000
0100
0000
0010
0001
,
0010
0000
0010
0100
0001
0000
1000
0010
,
0100
0000
0001
0000
1000
0000
0010
0100
,
0001
1000
0010
0000
0100
0000
0001
0000
,
1000
0010
0100
0001
,
1000
0000
0010
0001
0010
0000
0100
1000
,
0100
0000
0010
0100
0001
0000
1000
0010
,
0100
0000
0001
1000
0010
0100
0001
1000
,
0010
0000
0100
0000
0000
1000
0000
0001
0000
1000
0000
0010
0000
0100
0000
1000
,
0020
0030
0001
0000
1000
0000
0010
0100
,
1000
0000
0010
0001
0100
0010
1000
0001
,
0100
0010
0001
0000
0100
1000
0010
0000
,
0100
0001
0010
1000
0001
0100
0010
0000
,
1000
0001
0010
0000
0100
1000
0100
0000
,
0010
0100
0001
0000
1000
0010
0100
0000
,
0001
0000
0010
0001
1000
0010
0100
0001
,
1000
0000
0010
0000
0100
0000
0000
0000
0001
0000
1000
0000
0010
0000
0000
0010
,
0000
0010
1000
0010
0100
0001
0000
1000
,
0010
0000
0100
0001
1000
0010
0100
0001
,
1000
0000
0010
0001
0010
0000
0100
1000
,
0100
0000
0010
0100
0001
0000
0010
1000
,
0010
0000
0100
0001
1000
0010
0100
0001
,
1000
0010
0100
0001
1000
0010
0100
0001
,
1000
0000
0010
0100
0001
0000
1000
0010
,
0100
0000
0000
0000
0001
0000
1000
0000
0010
0000
0100
0000
0001
0000
0000
0100
,
0000
1000
0010
0000
0100
0000
0001
1000
,
0010
0000
0100
1000
0100
0010
0101
0000
,
0000
0000
1010
0000
0010
0100
0000
0001
,
1000
0010
0100
0001
1000
0010
0101
0000
,
0010
0000
1001
0000
0010
0100
0000
0001
,
1000
0010
0100
0001
1000
0010
0100
0000
,
0001
0000
1000
0000
0010
0100
0000
0001
,
1000
0000
0000
0000
0000
0000
0000
0000
0000
0000
0000
0000
0000
0000
0000
0000
0000
0000
0000
0000
0000
0000
0000
0000
0000
0000
0000
0000
0000
0000
0000
0000
0000
0000
0000
0000
0000
0000
0000
0000
0000
0000
0000
0000
0000
0000
0000
0000
0010
0000
0000
0000
0000
0000
0000
0000
0000
0000
0000
0000
0000
0000
0000
0000
0000
0000
0000
0000
0000
0000
0000
0000
0000
0000
0000
0000
0000
0000
0000
0000
0000
0000
0000
0000
0000
0000
0000
0000
0000
0000
0000
0000
0000
0000
0000
0000
0100
0000
0000
0000
0000
0000
0000
0000
0000
0000
0000
0000
0000
0000
0000
0000
0000
0000
0000
0000
0000
0000
0000
0000
0000
0000
0000
0000
0000
0000
0000
0000
0000
0000
0000
0000
0000
0000
0000
0000
0000
0000
0000
0000
0000
0000
0000
0000
0001
0000
0000
0000
1000
0000
0000
0000
0000
0100
0000
0000
0000
0000
0000
0000
0010
0000
0000
0000
0000
0000
0000
0000
0100
0000
0000
0000
0000
0000
0000
0000
0010
0000
0000
0000
1000
0000
0000
0000
0001
0000
0000
0000
0000
0100
0000
0000
,
0000
0020
0000
0000
0000
0000
0000
0000
0030
0000
0000
0000
1000
0000
0000
0001
0000
0000
2000
0000
0000
0000
0000
0000
0000
0000
0000
0000
0000
0000
0000
0000
0000
0000
0000
0000
0000
0000
0000
0000
0000
0000
0000
0000
0000
0000
0000
0000
,
0000
0000
0100
0000
0000
0000
0000
0001
0000
0000
0000
0000
0000
0000
0000
0010
,
0000
0000
3000
0000
;

//--------------- dance-single - XLev450X†-CSP ----------------
#NOTES:
     dance-single:
     XLev450X†:
     Challenge:
     15:
     0,0,0,0,0:
0000
0000
0000
0000
,
0000
0000
0000
0000
,
0000
0000
0000
0000
,
0000
0000
0000
0000
,
0000
0000
0000
0000
,
0000
0000
0000
0000
,
0000
0000
0000
0000
,
0000
0000
0000
0000
,
0000
0000
0000
0000
,
0000
0000
0000
0000
,
0000
0000
0001
1000
0010
0100
0001
1000
,
0010
0000
0100
0001
1000
0000
0010
0001
,
0100
0010
1000
0001
0100
0001
1000
0100
,
0010
0000
0001
0100
0010
1000
0001
0100
,
0010
0100
0000
1000
0001
0000
0000
0000
0100
0000
0010
0000
0000
0000
1000
0000
,
0001
0000
0100
1000
0010
0100
0001
1000
,
0010
0000
0100
0000
0100
1000
0001
1000
0100
0010
0001
0010
0100
0010
0100
1000
,
0001
0010
0001
1000
0010
0000
0000
0000
0100
0000
0001
0000
1000
0000
0010
0000
,
0100
0000
0001
0010
1000
0000
1000
0000
0010
0000
0100
0000
0001
0000
0000
0000
,
1000
0010
0000
0100
0001
1000
0010
0100
,
0001
1000
0010
0000
0100
0000
0001
1000
,
0010
0000
0100
0000
0001
0000
1000
0010
,
0100
0001
1000
0000
0001
0000
0010
0100
,
0001
0000
1000
0000
0010
0000
0100
1000
,
0010
0000
0000
0000
0001
0100
0010
0100
0010
0100
0001
0010
0001
1000
0100
0010
,
0100
0000
0000
0010
0000
0000
0001
0000
0000
1000
0000
0000
0001
0000
1000
0000
0000
0000
0010
0000
0000
0000
0000
0000
0001
0000
0000
0000
0000
0000
0100
0000
0000
0000
1000
0000
0010
0000
0000
0000
0000
0000
1000
0000
0000
0000
0000
0000
,
0001
0100
0101
0000
0010
0000
1000
0001
,
0100
0010
1000
0001
0100
0010
1000
0001
,
0100
1000
0010
0000
0100
0001
0000
1000
,
0010
0100
0001
0000
0100
0000
0001
1000
,
0010
0100
1000
0000
0010
0001
0000
0100
,
1000
0000
0010
0100
0001
1000
0010
0100
,
0001
1000
0010
0000
0100
0001
0000
0000
,
1000
0000
0000
0000
0010
0000
0000
0000
0100
0000
0000
0000
0001
0000
0000
0001
,
1000
0010
0100
0000
0001
1000
0010
0000
,
0100
0010
0010
0000
1000
0000
0001
0100
,
0010
0000
1000
0100
0000
0001
0000
0100
,
0000
1010
0000
0010
0001
0000
0100
1000
,
0010
0000
0002
0003
0020
0000
0030
0000
,
2000
3000
0020
0030
,
2000
0000
3000
0100
0001
0000
0010
0000
0001
0000
0100
0000
0010
0000
0100
0000
,
0010
0100
0001
1000
0010
0100
0001
0010
,
0001
0000
0100
0000
0100
0010
0100
1000
0010
0100
0001
1000
0010
1000
0001
0010
,
0100
0010
0100
0010
0000
1000
0000
0010
0000
1000
0100
0001
0000
0001
0000
0010
,
2000
3000
0010
0000
1000
0000
0010
0100
,
0001
1000
0010
0000
0100
0000
0001
1000
,
0010
0100
0001
0000
0010
0000
0001
0100
,
1000
0010
0100
0001
1000
0010
0100
0000
,
0001
0000
0010
0001
0100
0000
1000
0010
,
0100
0000
0001
1000
0010
0100
0001
1000
,
0010
0000
0000
0000
0010
0100
0001
0010
0001
0100
0010
0100
0010
1000
0010
1000
,
0001
1000
0001
0100
0010
0000
0000
0000
1000
0000
0001
0000
0100
0000
0000
0000
,
0010
0000
0000
0000
1000
0000
0000
0001
0000
0000
0100
0000
0010
0000
0000
0000
,
0001
0000
0000
1000
0010
0000
0000
0010
1000
0000
0000
0100
0010
0000
0000
1000
,
0001
0000
0010
0000
1000
0000
0000
0100
0000
0000
0010
0000
0001
0000
0000
0000
,
0000
0000
0010
1000
0010
0000
0000
1000
0000
0000
0100
0000
0001
0000
0000
0010
,
0000
0000
1000
0000
0001
0100
0001
0100
0010
0100
0010
1000
0001
0100
0010
1000
,
0010
0100
0001
0100
0010
0100
0001
1000
0010
0100
0001
1000
0100
1000
0001
0100
,
0010
0100
0010
1000
0010
1000
0010
0100
0010
0100
0001
0100
0001
1000
0001
0100
,
0010
0000
0000
1000
0000
0000
0010
0000
0000
0100
0000
0000
0001
0000
1000
0000
0000
0000
0010
0000
0000
0000
0000
0000
0001
0000
0000
0000
0000
0000
0100
0000
0000
0000
1000
0000
0010
0000
0000
0000
0000
0000
1000
0000
0000
0000
0000
0000
,
0001
0100
0001
1000
0010
0100
0000
0001
,
1000
0010
0100
0001
1000
0010
0101
0000
,
1010
0000
1001
0000
0010
1000
0000
0001
,
0100
0010
1000
0001
0100
0010
0101
0000
,
1010
0000
0010
0100
0001
1000
0000
0010
,
0100
0001
1000
0010
0100
0001
1000
0000
,
0010
0000
0000
0000
0110
0000
0000
1100
0000
0000
0101
0000
0001
0000
0010
0000
,
1100
0000
0000
0000
0000
0000
0000
0000
0000
0000
0000
0000
0000
0000
0000
0000
0000
0000
0000
0000
0000
0000
0000
0000
0001
0000
0000
0000
0000
0000
0000
0000
0000
0000
0000
0000
0000
0000
0000
0000
0000
0000
0000
0000
0000
0000
0000
0000
0010
0000
0000
0000
0000
0000
0000
0000
0000
0000
0000
0000
1000
0000
0000
0000
0000
0000
0000
0000
0000
0000
0000
0000
0100
0000
0000
0000
0000
0000
0000
0000
0000
0000
0000
0000
0010
0000
0000
0000
0000
0000
0000
0000
0000
0000
0000
0000
0100
0000
0000
0000
0000
0000
0000
0000
0000
0000
0000
0000
0010
0000
0000
0000
0000
0000
0000
0000
0000
0000
0000
0000
0100
0000
0000
0000
0000
0000
0000
0000
0000
0000
0000
0000
0010
0000
0000
0000
0000
0000
0000
0000
0000
0000
0000
0000
0100
0000
0000
0000
0001
0000
0000
0000
0000
0000
0000
0000
1000
0000
0000
0000
0010
0000
0000
0000
0001
0000
0000
0000
0100
0000
0000
0000
0010
0000
0000
0000
1000
0000
0000
0000
0000
0000
0000
0001
0000
0000
0000
0000
0100
0000
0000
0000
,
0020
0000
0000
0000
0000
0000
0000
0030
0000
0000
0000
0000
0100
0000
0000
0001
0000
0000
0200
0000
0000
0000
0000
0000
0000
0000
0000
0000
0000
0000
0000
0000
0000
0000
0000
0000
0000
0000
0000
0000
0000
0000
0000
0000
0000
0000
0000
0000
,
0000
0000
0010
0000
0000
0000
0000
1000
0000
0000
0000
0000
0000
0000
0000
0001
,
0000
0000
0300
0000
;
