#TITLE:TECHNOPHOBIA;
#ARTIST:BEMANI Sound Team "HuΣeR";
#ARTISTTRANSLIT:HuΣeR;
#GENRE:TECH/ELECTRO;
#BANNER:TECHNOPHOBIA.png;
#BACKGROUND:TECHNOPHOBIA-bg.png;
#CDTITLE:./CDTitles/bm IIDX 30 RESIDENT.png;
#MUSIC:TECHNOPHOBIA.ogg;
#SAMPLESTART:78.947;
#SAMPLELENGTH:15;
#BPMS:0=152;
#STOPS:151=0.197
,166.5=0.197;

//--------------- dance-single - XLΣv450X-bSP ----------------
#NOTES:
     dance-single:
     XLΣv450X:
     Beginner:
     3:
     0,0,0,0,0:
0000
0000
0000
0000
,
0000
0000
0000
0000
,
0000
0000
0000
0000
,
0000
0000
0000
0000
,
0000
0000
0000
0000
,
0000
0000
0000
0000
,
0000
0000
0000
0000
,
0000
0000
0000
0000
,
0000
0000
0000
0000
,
2002
0000
0000
3003
,
0010
0000
0010
0000
,
0010
0000
0000
0000
,
0100
0000
0100
0000
,
0100
0000
0000
0000
,
0001
0000
0001
0000
,
0001
0000
0000
0000
,
1000
0000
1000
0000
,
1000
0000
0000
0000
,
0010
0010
0000
0000
,
1000
1000
0000
0000
,
0001
0001
0000
0000
,
0100
0100
0000
0000
,
0010
1000
0000
0000
,
0100
0001
0000
0000
,
0010
0100
0000
0000
,
0202
0000
0000
0303
,
0010
0000
0100
0000
,
1000
0000
0001
0000
,
0100
0000
0000
0000
,
0010
0000
0000
0000
,
0001
0000
0100
0000
,
0010
0000
1000
0000
,
0001
0000
0000
0000
,
0100
0000
0000
0000
,
0001
0000
0001
0000
,
0010
0000
0000
0000
,
1000
0000
1000
0000
,
0100
0000
0000
0000
0000
0000
0000
0001
,
0000
0000
0000
1000
0000
0000
0000
0010
,
0000
0000
0000
0000
0000
0000
0000
1000
,
0000
0000
0000
0001
0000
0000
0000
1000
,
0000
0000
0000
0010
,
0010
0010
0000
0001
,
0001
0001
0000
1000
,
0100
1000
0000
0010
,
0100
0010
0000
1000
,
0000
0001
0000
1000
,
0000
0000
0000
0010
,
0000
0100
0000
0020
,
0000
0000
0030
0001
,
0000
1000
0000
0001
,
0000
0000
0000
0010
,
0000
0100
0000
0010
,
0000
0000
0000
1000
,
0000
0100
0000
1000
,
0000
0000
0000
0001
,
0000
0010
0000
0001
,
0000
0000
0000
1000
,
0000
1000
0000
1000
,
0000
0000
0000
0001
,
0000
0001
0000
0001
,
0000
0000
0000
0010
,
0000
0100
0000
0010
,
0000
0000
0000
1000
,
0000
0001
0000
2000
,
0000
0000
0000
0000
;

//--------------- dance-single - XLΣv450X-BSP ----------------
#NOTES:
     dance-single:
     XLΣv450X:
     Easy:
     7:
     0,0,0,0,0:
0000
0000
0000
0000
,
0000
0000
0000
0000
,
0000
0000
0000
0000
,
0000
0000
0000
0000
,
0000
0000
0000
0000
,
0000
0000
0000
0000
,
0002
0010
0013
0000
,
2000
0100
3100
0000
,
0020
0100
0130
0000
,
2002
0000
0000
3003
,
0001
1000
0001
0010
,
1000
0100
0001
0001
,
1000
0010
1000
0100
,
1000
0000
0001
0000
0001
1000
0001
0000
,
0010
1000
0100
1000
,
0010
1000
0010
0000
0001
0010
0001
0000
,
0100
0000
1000
0000
0001
1000
0001
0000
,
2020
0000
0000
3030
,
0001
0000
1000
0000
0010
1000
0010
0000
,
0010
0000
0100
0000
0010
0100
0010
0000
,
0001
0000
0001
0000
0010
0001
0010
0000
,
0000
0001
0000
1000
0000
0001
0000
0010
,
0000
1000
0010
0000
0100
0001
0010
0000
,
1000
0001
0010
0000
1000
0001
0010
0000
,
0001
0000
1000
0000
0010
1000
0001
0010
,
0002
0000
0000
0000
0203
0000
0000
0000
2300
0000
0000
3020
0000
0000
0000
0030
,
0001
1000
0010
0100
,
1000
0010
1000
0000
0001
0000
0100
0000
,
0001
0000
1000
0001
0010
0000
1000
0000
,
0010
1000
0100
0000
0010
0100
0010
0000
,
0001
0000
1000
0000
0001
0000
0010
1000
,
0010
0000
0001
0000
1000
0000
0001
0100
,
0001
0000
1000
0000
0001
0000
1000
0001
,
0020
0000
0000
0030
,
0001
1000
0010
1000
,
0100
0000
0001
0000
1000
0000
0001
1000
,
0001
0010
1000
0100
,
0002
0000
1000
0000
1000
0000
1003
0001
,
0000
1000
0000
0010
0000
0100
0000
1000
,
0000
0001
0010
0001
0000
0100
0000
1000
,
0000
0001
1000
0001
1000
0010
0100
2000
,
0000
0001
0000
0001
0000
3001
0001
0000
,
1000
0000
0010
1000
0010
0000
0001
0000
,
0100
0000
0100
0001
1000
0000
0001
0000
,
1000
0000
0010
1000
0010
0000
0001
0000
,
0100
0000
1000
0001
1000
0010
0000
0001
,
1000
0000
0000
0010
1000
0000
0000
0100
,
0010
0000
0000
0001
0010
0000
1000
0000
,
0001
0000
1000
0001
1000
0010
0002
0000
,
0203
0000
0000
0000
2300
0000
0000
3020
0000
0000
0030
0000
0001
0000
0000
0000
,
1000
0000
0010
0000
0100
0000
0001
0010
,
0001
0000
1000
0100
1000
0000
0001
0000
,
1000
0010
0000
1000
,
0001
0100
0010
1000
,
0010
0001
0000
1000
,
0001
1000
0010
0010
,
1000
0000
0001
0000
0100
0000
0001
0001
,
1000
0000
0220
0000
0000
0330
0001
0000
,
1000
0000
0010
0000
1000
0010
1000
0000
,
0001
0000
0010
0000
0100
0001
0100
0000
,
0001
1000
0001
0010
,
1000
0001
0000
0010
,
1000
0010
0001
0100
,
1000
0000
0001
0000
0010
0000
1000
0100
,
1000
0000
0001
0010
0001
0000
2002
0000
,
0000
0000
0000
0000
;

//--------------- dance-single - XLΣv450X-DSP ----------------
#NOTES:
     dance-single:
     XLΣv450X:
     Medium:
     11:
     0,0,0,0,0:
0000
0000
0000
0000
,
0000
0000
0000
0000
,
0000
0000
0000
0000
,
0000
0000
0000
0000
,
0000
0000
0000
0000
,
0000
0000
0000
0000
,
0001
1000
0010
1000
0001
0010
1000
0100
,
1000
0001
1000
0010
0100
1000
0001
0010
,
1000
0001
0100
1000
0001
0010
0100
1000
,
2002
0000
3003
0000
0220
0000
0000
0330
,
0001
0000
1000
0000
0010
1000
0100
0001
,
1000
0000
0001
0000
0010
0100
1000
0100
,
0001
0000
0010
0000
1000
0010
1000
0000
,
0001
0000
0100
0000
1000
0001
1000
0001
,
1000
0000
0010
0000
1000
0100
0001
1000
,
0010
0000
0100
0000
0001
1000
0001
0100
,
0010
0000
1000
0000
0001
0010
0100
0001
,
2000
0000
0000
0000
0002
0000
0000
3003
,
0010
0000
0001
0010
0001
0000
1000
0000
0010
0000
0000
0000
1001
0000
0000
0000
,
0100
0000
1000
0010
1000
0000
0001
0000
1000
0000
0001
0000
1000
0000
0000
0000
,
0100
0000
0001
0010
0001
0000
1000
0000
0010
0000
1000
0000
0001
0000
0000
0000
,
0010
0000
1000
0001
1000
0000
0010
1000
0010
0000
0001
0010
0001
0000
0010
0100
,
0010
0001
1000
0000
0010
1000
0010
0001
,
0010
0000
0001
0010
0001
0000
1000
0000
0010
0000
1000
0000
0010
0000
1000
0000
,
0100
0000
0001
1000
0001
0000
1000
0000
0010
0000
0001
0000
0010
0000
1000
0000
,
0200
0000
0000
0000
0010
0000
0000
0000
0010
0000
0000
0310
0000
0000
0000
0000
,
0001
0000
0000
1000
0000
0000
0010
0000
0100
0000
0001
0100
1000
0000
0001
0000
,
0010
0000
0000
1000
0000
0000
0001
0000
0010
0000
0001
0000
1000
0000
0010
0000
,
1000
0000
0000
0000
0001
0000
0010
0001
0000
0000
1000
0010
0000
0100
0000
0001
,
0100
0000
0000
0010
1000
0000
0000
0001
0010
0000
1000
0000
0001
0000
0000
0000
,
0010
0000
0000
1000
0001
0000
0010
0000
1000
0100
0001
0000
0010
0000
1000
0000
,
0001
0000
0000
0100
0001
0000
1000
0000
0010
0001
1000
0000
0001
0000
1000
0000
,
0010
0000
0001
0010
0001
0000
1000
0000
0010
0000
1000
0010
1000
0000
0001
0000
,
0100
0000
1000
0000
0001
0000
0010
0000
1000
0000
0001
0100
1000
0000
0000
0000
,
0001
0000
1000
0000
0010
1000
0100
0001
,
0010
0000
1000
0000
0100
0001
1000
0010
,
0001
0000
1000
0000
0010
0100
0010
0001
,
2002
0000
0000
0000
0000
0000
3003
0001
,
1000
0010
1000
0001
0100
1000
0001
0010
,
1000
0010
1000
0001
0010
0100
0000
1000
,
0001
1000
0010
0100
1000
0001
0010
0220
,
0000
0000
0000
0000
0000
0000
0000
0000
0000
0000
0330
0000
0100
0000
1000
0100
,
1000
0000
0001
0000
0100
0000
0000
0000
1001
0000
0000
0000
0010
0000
0001
0100
,
0001
0000
1000
0000
0001
0000
1000
0000
0001
0000
0000
0000
0010
0000
1000
0100
,
1000
0000
0001
0000
0100
0000
0001
0000
1000
0000
0000
0000
0100
0000
0001
1000
,
0001
0000
0100
0001
0100
0000
1000
0100
1000
0000
0100
0010
0100
0000
1000
0000
,
0001
0000
0000
0000
0100
0000
0001
0000
0100
0000
1000
0000
0100
0000
1000
0100
,
1000
0000
0001
0000
0100
0000
0001
0000
0100
0000
0001
0000
0010
0000
1000
0001
,
1000
0001
0100
1000
0100
0001
0020
0000
,
0100
0000
0000
0000
0100
0000
0000
0130
0000
0000
0000
0000
1000
0000
0000
0001
,
0000
0000
0100
0000
0010
0000
1000
0010
0001
0000
1000
0000
0100
0000
0000
0001
,
0000
1000
0100
1000
0001
0100
0001
0000
,
1000
0000
0100
1000
0000
0000
0001
0100
0000
0010
0000
1000
0010
0000
0000
0100
,
0001
0000
0000
1000
0100
0000
0001
0000
1000
0000
0000
0000
0100
0000
0000
0001
,
1000
0000
0100
0000
0001
0010
1000
0000
0100
0000
0001
0000
1000
0000
0000
0010
,
1000
0000
0001
0000
0100
1000
0001
0000
1000
0000
0001
0000
0100
0000
1000
0100
,
1000
0000
0001
0000
0100
0000
0001
0100
0001
0000
1000
0000
0010
0000
0001
0000
,
1000
0000
0100
0000
0001
0000
1000
0010
0001
0000
0000
0000
0001
0000
1000
0000
,
0010
1000
0100
1000
0001
0010
1000
0001
,
1000
0010
1000
0001
0100
0000
0010
1000
,
0100
1000
0001
0010
0100
1000
0001
0010
,
1000
0001
1000
0010
0001
0000
0010
0001
,
0010
0000
1000
0100
1000
0000
0010
0100
,
0010
0000
1000
0010
1000
0000
0001
1000
,
0001
0100
1000
0001
0010
0100
0002
0000
,
1000
0000
1000
0000
1000
1003
0000
0000
;

//--------------- dance-single - XLΣv450X-ESP ----------------
#NOTES:
     dance-single:
     XLΣv450X:
     Hard:
     16:
     0,0,0,0,0:
0000
0000
0000
0000
,
0000
0000
0000
0000
,
0000
0000
0000
0000
,
0000
0000
0000
0000
,
0000
0000
0000
0000
,
0000
0000
0000
0000
,
0001
0000
1000
0000
0001
0000
0010
0000
0001
0010
0100
1000
0001
0000
0010
0000
,
0100
0000
1000
0000
0100
0000
0010
0000
1000
0100
0010
0001
1000
0000
0010
0000
,
1000
0000
0001
0000
0100
0000
1000
0000
0001
1000
0010
0100
0001
0010
1000
0100
,
0002
0000
0000
0000
2000
0000
0000
3003
,
0001
0000
1000
0000
0010
0000
0001
0010
0000
0001
0000
0010
1000
0000
0010
1000
,
0100
0000
1000
0000
0001
0000
1000
0100
0000
0010
0000
0001
0100
0000
1000
0100
,
0010
0000
1000
0000
0001
0000
1000
0001
0000
1000
0000
0010
1000
0000
0001
0010
,
0100
0000
1000
0000
0001
0000
0010
1000
0000
0100
0000
0001
1000
0000
0100
1000
,
0001
0100
0000
0010
1000
0000
0010
1000
0000
0001
0010
0000
0100
1000
0100
0010
,
0001
0000
0010
0000
1000
0000
0001
0100
0000
0001
0000
1000
0010
0000
1000
0010
,
0001
0000
0100
0000
1000
0000
0010
1000
0000
0010
0000
0100
0001
0000
1000
0100
,
0002
0000
0000
0000
2000
0000
0000
3003
,
0001
0000
0010
0001
0010
0000
1000
0000
0010
0000
1000
0010
1000
0000
0010
0000
,
0100
0000
0010
0100
0010
0000
0001
0000
0010
0000
1000
0001
1000
0000
0010
0000
,
0001
0000
1000
0010
1000
0000
0001
0000
0010
0000
0001
0010
0001
0000
1000
0000
,
0010
0000
0001
0010
0001
0000
1000
0100
1000
0000
0010
0100
0010
0000
1000
0001
,
1000
0000
0010
0100
1000
0000
0100
0000
0001
0000
0010
0001
0010
0000
0001
0000
,
1000
0000
0001
0010
0100
0000
0010
0000
1000
0000
0010
0001
1000
0000
0100
0000
,
0001
0000
0010
0100
1000
0000
0100
0000
0010
1000
0001
0010
1000
0100
0010
0100
,
1002
0000
0000
0000
0000
0000
0000
0000
1000
0000
0000
0000
0000
0000
0000
0003
0102
0000
0000
0000
0000
0000
0000
0000
0100
0000
0000
0000
0000
0000
0000
0003
0012
0000
0000
0000
0000
0000
0000
0000
0100
0000
0000
0000
2000
0003
0000
0000
0000
0000
0000
0000
0000
0000
0000
0000
0000
0000
0000
0000
3001
0000
0010
0000
,
0100
0000
1000
0000
0010
0000
1000
0000
0001
0000
0010
0001
0010
0100
1000
0100
,
0010
0000
0100
0000
1000
0000
0001
0000
0010
0000
1000
0000
0001
0010
0100
1000
,
0001
0000
1000
0000
0001
0000
0001
1000
0000
0001
0010
1000
0000
0001
0010
0100
,
0001
0000
0010
0001
0000
0010
0100
1000
0000
0100
0001
0010
0000
0010
0100
1000
,
0001
0010
1000
0001
0010
0001
1000
0010
,
0001
0000
0010
0001
0010
0000
1000
0000
0010
0000
1000
0000
0001
0000
1000
0000
,
0010
0100
1000
0000
0010
0000
1000
0100
0010
0001
0100
1000
0010
1000
0001
1000
,
0200
0000
0000
0000
0010
0000
0000
0000
0010
0000
0000
0020
0000
0000
0330
0000
,
0001
1000
0001
0010
0001
1000
0010
0100
,
1000
0001
0010
1000
0010
1000
0001
0000
,
1000
0001
0100
1000
0001
0010
1000
0001
,
0200
0000
0010
0000
0010
0000
0310
0001
,
1000
0000
0001
0000
0010
0000
0001
0010
0001
0000
1000
0000
0010
0000
1000
0000
,
0010
0000
1000
0000
0010
0000
1000
0010
1000
0000
0001
0000
0100
0000
1000
0000
,
0001
0000
0010
0000
0001
0000
1000
0001
1000
0000
0001
0000
0100
0000
0020
0000
,
0000
0000
0000
0000
0000
0000
0200
0000
0000
0000
0330
0000
1000
0000
0100
1000
,
0100
0000
0001
0000
0100
0000
0001
0100
0001
0000
0100
0000
0010
0000
0100
0010
,
0100
0000
1000
0000
0100
0000
0001
1000
0001
0000
0100
0000
1000
0000
0001
0100
,
0001
0000
1000
0000
0100
0000
1000
0100
1000
0000
0001
0000
0100
0000
1000
0100
,
1000
0000
0001
0010
0001
0000
0100
0010
0100
0000
0001
1000
0001
0000
0100
0010
,
0001
0000
0010
0000
1000
0000
0100
1000
0100
0000
1000
0000
0001
0000
1000
0100
,
0010
0000
0100
0000
0001
0000
0100
1000
0001
0000
0010
0000
1000
0000
0100
0010
,
0001
0000
0000
0000
0000
0000
0000
0000
0010
0000
0000
0000
0000
0000
0000
0000
0100
0000
0000
0000
0001
0000
0000
0000
1000
0000
0000
0000
0100
0000
0000
0000
0001
0000
0000
0000
0010
0000
0000
0000
0100
0000
0000
0000
0010
0000
0000
0000
2001
0000
0000
0000
0000
0000
0000
0000
0001
0000
0000
0000
0000
0000
0000
3000
,
2010
0000
0000
0000
0000
0000
0000
0000
0010
0000
0000
0000
0000
0000
0000
3000
2100
0000
0000
0000
0000
0000
0000
0000
0010
0000
0000
0000
0002
3000
0000
0000
0000
0000
0000
0000
0000
0000
0000
0000
0000
0000
0000
0000
1003
0000
0100
0000
0001
0000
0000
0000
0000
0000
0000
0000
0000
0000
0000
0000
1000
0000
0000
0000
,
0000
0000
0001
0000
0010
0000
0001
0010
0001
0000
1000
0000
0010
0000
0000
0100
,
0000
0000
1000
0000
0001
0000
0100
0010
0100
0000
1000
0000
0010
0000
1000
0000
,
0010
0000
1000
0010
0000
0000
0001
0010
0000
0000
1000
0001
1000
0010
0100
0001
,
1000
0000
0010
1000
0010
0000
0001
0000
0010
0000
0001
0000
0010
0000
0001
0010
,
0001
0000
1000
0010
1000
0000
0010
0100
0010
0000
1000
0010
1000
0000
0001
0010
,
0001
0000
0100
1000
0100
0000
0010
0001
0010
0000
1000
0100
1000
0000
0001
0000
,
0100
0000
1000
0000
0001
0000
0010
0000
0100
0000
1000
0000
0001
0010
0100
1000
,
0001
0010
0100
1000
0001
0010
0100
2000
0000
0000
3000
0000
0001
0000
1000
0000
,
0001
0010
1000
0010
0100
1000
0001
0010
,
1000
0001
0010
0001
1000
0010
1000
0001
,
0100
1000
0001
0010
0001
1000
0010
0001
,
1000
0000
0001
0000
0010
0000
0001
0000
0010
0000
0001
0000
1000
0000
0001
0010
,
0001
0000
1000
0010
1000
0000
0010
0100
0010
0000
1000
0001
1000
0000
0100
0001
,
0100
0000
0010
1000
0010
0000
0010
0001
0010
0000
1000
0100
0010
0000
1000
0010
,
1000
0000
0001
0010
0001
0000
0100
0010
0100
0000
0001
0100
1000
0100
0001
1000
,
0001
0100
0001
0010
1000
0001
0010
1000
0200
0000
0310
0000
0000
0000
0000
0000
;
