#TITLE:TECHNO Style Essentials;
#ARTIST:BEMANI Sound Team "SETUP from Berlin";
#ARTISTTRANSLIT:SETUP from Berlin;
#GENRE:TECHNO;
#BANNER:TECHNO Style Essentials.png;
#BACKGROUND:TECHNO Style Essentials-bg.png;
#CDTITLE:./CDTitles/bm IIDX 27 HEROIC VERSE.png;
#MUSIC:TECHNO Style Essentials.ogg;
#OFFSET:-1.200;
#SAMPLESTART:19.701;
#SAMPLELENGTH:15;
#BPMS:0=154;
#STOPS:43.5=1.169;
#BGSTAGE:17;

//--------------- dance-single - XLev450X-bSP ----------------
#NOTES:
     dance-single:
     XLev450X:
     Beginner:
     4:
     0,0,0,0,0:
0000
0000
0000
0000
,
0000
0000
0000
0000
,
0000
0000
0000
0000
,
0000
0000
0000
0000
,
0001
0001
0001
0000
,
1000
1000
1000
0000
,
0010
0100
0010
0000
,
0001
1000
0001
0000
,
0010
1000
0010
0000
,
0100
0001
0100
0000
,
0010
0010
0100
0000
,
0000
0001
1000
0001
,
0000
0010
1000
0010
,
0000
0100
1000
0100
,
0000
0001
0100
0001
,
0000
1000
0001
1000
,
0000
0010
1000
0010
,
0000
0100
0001
0100
,
0000
1001
0000
0000
,
0000
0001
0001
1000
,
0000
0010
0010
0100
,
0000
1000
0100
1000
,
0000
0010
0010
0100
,
0000
0001
0000
1000
,
0000
0001
0000
1000
,
0000
0010
1000
0010
,
0000
1001
0000
0000
,
0000
0001
1000
0001
,
0000
0010
1000
0010
,
0000
0100
1000
0100
,
0000
0001
0010
0001
,
0000
1000
0000
0001
,
0000
0010
0000
0100
,
0000
1000
1000
0010
,
0000
0100
0100
0001
,
0000
1001
0000
0000
,
0000
0000
0000
0000
,
0000
0000
0000
0000
,
0000
0000
0000
0000
,
0000
0001
0000
1000
,
0000
0001
0000
0000
,
0000
0010
0000
0010
,
0000
0010
0000
0000
,
0000
0100
0000
1000
,
0000
0001
0000
0000
,
0000
1000
0000
0010
,
0000
0100
0000
0000
,
0000
0001
0000
0010
,
0000
1000
0000
0000
,
0000
0100
0000
0010
,
0000
0100
0000
0000
,
0000
0001
0000
0001
,
0000
0001
0000
0000
,
0000
1000
0000
1000
,
0000
1000
0000
0000
,
0000
0100
0000
0010
,
0000
0100
0000
0000
,
0000
0001
0000
0010
,
0000
1000
0000
0000
,
0000
0001
0001
0010
,
0000
1000
1000
0100
,
0000
0010
0010
0100
,
0000
0001
1000
0001
,
0000
0010
0010
1000
,
0000
0100
0100
0001
,
0000
1000
0001
1000
,
0000
1001
0000
0000
;

//--------------- dance-single - XLev450X-BSP ----------------
#NOTES:
     dance-single:
     XLev450X:
     Easy:
     7:
     0,0,0,0,0:
0000
0000
0000
0000
,
0000
0000
0000
0000
,
0000
0000
0000
0000
,
0000
0000
0000
0000
,
0001
1000
0010
1000
,
0100
0001
0010
0100
,
1000
0001
1000
0001
,
1000
0001
0200
0310
,
0010
1000
0010
0000
,
0001
0100
0001
0000
,
1000
0000
0001
0000
1000
0000
0000
2002
,
3003
0001
1000
0001
,
0010
0100
1000
0010
,
0100
0001
0010
0100
,
1000
0001
1000
0001
,
0000
0000
1000
0000
0010
0000
0100
0010
,
0100
0001
0010
0100
,
1000
0000
0001
0000
1000
0000
0001
1000
,
0001
1000
0010
0100
,
0001
1000
0001
1000
,
0000
0000
0010
0000
1000
0000
0010
0100
,
0010
0001
0100
1000
,
0001
0010
0100
1000
,
0000
0000
0001
0010
0001
0000
0100
1000
,
0100
0000
0010
0100
0010
0000
0001
1000
,
0001
0010
1000
0100
,
0001
0002
2000
0000
,
0000
3003
0001
0000
1000
0000
0010
0000
,
0100
0001
1000
0001
,
0000
1000
0100
0010
,
0001
0100
1000
0001
,
0000
1000
0010
1000
,
0100
0001
0010
0100
,
1000
0001
1000
0010
,
0100
0010
0001
1000
,
0010
2002
0000
0000
,
0000
0000
0000
0000
,
0000
0000
0000
0000
,
0000
0000
0000
0000
,
0000
3003
0001
0000
1000
0000
0010
0000
,
0100
0001
1000
0001
,
0000
1000
0100
0010
,
0001
0000
0100
0000
1000
0000
0010
1000
,
0010
0001
1000
0001
,
0000
0100
1000
0100
,
0000
0010
0100
0010
,
0000
0001
1000
0100
,
0000
0001
1000
0010
,
1000
0100
0010
0001
,
1000
0010
0100
0010
,
0100
2002
0000
0000
,
0000
3003
0001
0000
1000
0000
0100
0000
,
0010
0001
1000
0010
,
0000
1000
0100
0010
,
0001
0100
1000
0001
,
0000
0010
1000
0100
,
0010
0100
1000
0001
,
0000
0001
1000
0001
,
1000
2002
0000
0000
,
3003
1000
0001
1000
,
0000
0000
0010
0000
1000
0000
0010
0100
,
0010
0001
0100
1000
,
0001
0010
0100
1000
,
0000
0000
0001
0010
0001
0000
0100
1000
,
0100
0000
0010
0100
0010
0000
0001
1000
,
0001
0010
1000
0100
,
0001
0100
2002
0000
,
0000
0000
0000
0000
,
0000
0000
0000
0000
,
0000
0000
0000
0000
,
3003
0000
0000
0000
;

//--------------- dance-single - XLev450X-DSP ----------------
#NOTES:
     dance-single:
     XLev450X:
     Medium:
     11:
     0,0,0,0,0:
0000
0000
0000
0000
,
0000
0000
0000
0000
,
0000
0000
0000
0000
,
0000
0000
0000
0000
,
0001
0000
1000
0000
0010
0100
0010
0000
,
0001
0000
1000
0000
0001
0100
0001
0000
,
1000
0000
0010
0000
1000
0010
0100
0000
,
0001
0000
1000
0000
0010
1000
0010
0100
,
0001
0000
1000
0000
0001
1000
0001
0000
,
0010
0000
1000
0000
0010
0100
0010
0000
,
0001
0000
0010
0000
1000
0001
1000
2002
,
0000
3003
0001
1000
0001
0000
0010
0000
,
1000
0000
0010
0100
0010
0000
0001
0000
,
0100
0000
1000
0001
1000
0000
0010
0000
,
0100
0000
1000
0010
1000
0000
0010
0000
,
0100
0000
0001
0100
1000
0000
0001
1000
,
0010
0000
0010
0100
0010
0000
0001
0010
,
0001
0000
0100
1000
0100
0000
0001
1000
,
0001
0000
0010
1000
0010
0000
0100
0000
,
0001
0000
1000
0001
1000
0000
0010
0000
,
0100
0000
1000
0001
1000
0000
0010
0000
,
0100
0000
0010
1000
0010
0000
0001
0000
,
0100
0000
1000
0001
1000
0000
0010
0000
,
1000
0000
0000
0000
0100
0000
0001
0000
1000
0000
0000
0001
0000
0000
1000
0000
,
0010
0000
0000
0100
0000
0000
0010
0000
0001
0000
0000
1000
0000
0000
0010
0000
,
1000
0000
0000
0001
0000
0000
1000
0000
0001
0000
1000
0000
0010
0000
1000
0000
,
0010
0000
0000
0100
0000
0000
0002
0000
2000
0000
0000
0000
0000
0000
0000
0000
,
0000
3003
0001
1000
0001
0000
0010
1000
,
0010
0000
0010
0100
0010
0000
0001
0010
,
0001
0000
1000
0001
1000
0000
0010
1000
,
0010
0000
0010
0100
0010
0000
0001
1000
,
0001
1000
0000
0010
0000
0100
0000
0001
,
0000
1000
0000
0010
0000
0100
0000
0001
,
0000
1000
0001
0000
0010
0000
1000
0100
,
0010
0000
0001
0000
1000
0000
0010
1000
,
0010
0100
0002
0000
0000
0000
2000
0000
,
0000
0003
0020
0000
0000
3000
0200
0000
,
0000
0030
0002
0000
0003
0000
2000
0000
,
0000
0300
0002
0000
3000
0000
2000
0000
,
0000
3003
0010
0000
1000
0000
0100
0000
,
0010
0001
0010
0100
,
0000
0001
1000
0010
,
0100
0000
1000
0000
0001
0000
1000
0001
,
1000
0010
0100
0010
,
0001
1000
0001
0100
,
1000
0001
1000
0010
,
0100
0001
0010
0100
,
1001
0000
0010
0000
1000
0000
0010
1000
,
0010
0000
0001
0000
0010
0000
0100
0001
,
0100
0000
1000
0000
0001
0000
1000
0010
,
1000
2002
0000
0000
,
0000
3003
0001
0000
1000
0000
0010
0000
,
1000
0000
0100
0010
0100
0000
0001
0010
,
0001
1000
0100
1000
,
0010
0000
1000
0100
0010
0000
0001
0010
,
0100
0000
1000
0000
0001
0000
0010
1000
,
0010
0000
0010
0000
0100
0000
0001
0100
,
0001
0000
1000
0010
1000
0000
0010
0100
,
0010
2002
0000
0000
,
3003
0000
1000
0001
1000
0000
0010
0000
,
0100
0000
1000
0001
1000
0000
0010
0000
,
0100
0000
0010
1000
0010
0000
0001
0000
,
0100
0000
1000
0001
1000
0000
0010
0000
,
1000
0000
0000
0000
0100
0000
0001
0000
1000
0000
0000
0001
0000
0000
1000
0000
,
0010
0000
0000
0100
0000
0000
0010
0000
0001
0000
0000
1000
0000
0000
0010
0000
,
1000
0000
0000
0001
0000
0000
1000
0000
0001
0000
1000
0000
0010
0000
1000
0000
,
0010
0000
0000
0100
0000
0000
0002
0000
2000
0000
0000
0000
0000
0000
0000
0000
,
0000
0000
0000
0000
,
0000
0000
0000
0000
,
0000
0000
0000
0000
,
3003
0000
0000
0000
;

//--------------- dance-single - XLev450X-ESP ----------------
#NOTES:
     dance-single:
     XLev450X:
     Hard:
     14:
     0,0,0,0,0:
0000
0000
0000
0000
,
0000
0000
0000
0000
,
0000
0000
0000
0000
,
0000
0000
0000
0000
,
0001
1000
0001
0000
0010
0000
1000
0000
0010
0000
1000
0001
0010
0000
0100
0000
,
0001
0010
0001
0000
1000
0000
0001
0000
0100
0000
1000
0100
0010
0000
0001
0000
,
0010
1000
0010
0000
0100
0000
0010
0000
0001
0000
0100
0010
1000
0000
0001
0000
,
1000
0010
1000
0000
0010
0000
0001
0000
0010
0000
0001
1000
0010
0000
0001
0000
,
1000
0001
1000
0000
0010
0000
1000
0000
0010
1000
0010
0000
0010
0000
0100
0000
,
0001
0010
0001
0000
0100
0000
0001
0000
1000
0001
1000
0000
0010
0000
1000
0000
,
0010
1000
0010
0000
0010
0000
0100
0000
0010
0100
0010
0000
0001
0000
2002
0000
,
3003
0000
0000
0000
0001
0010
0100
0000
1000
0000
0001
0000
0010
0000
1000
0001
,
0010
0000
0100
0000
0001
0010
0001
0000
1000
0000
0001
0000
1000
0000
0001
0010
,
0100
0000
1000
0000
0001
1000
0001
0000
0010
0000
1000
0000
0001
0000
0100
0010
,
1000
0000
0001
0000
1000
0001
0010
0000
1000
0000
0010
0000
0100
0000
0001
1000
,
0010
0000
0100
0000
0001
0100
1000
0000
0001
0000
1000
0000
0010
0000
1000
0001
,
0010
0000
1000
0000
0100
0001
1000
0000
0100
0000
0010
0000
0001
0000
0010
1000
,
0001
0000
0100
0000
1000
0100
0010
0000
1000
0000
0100
0000
0001
0000
0010
1000
,
0100
0000
1000
0000
0001
0010
0001
0000
2002
0000
3003
0000
0010
0000
1000
0000
,
0010
0000
0100
0000
0001
1000
0010
0000
0001
0000
0010
0000
0100
0000
0100
0010
,
1000
0000
0010
0000
0001
0100
1000
0000
0010
0000
1000
0000
0010
0000
0100
0001
,
1000
0000
0100
0000
0001
1000
0001
0000
1000
0000
0010
0000
1000
0000
0100
0001
,
0010
0000
1000
0000
0001
1000
0010
0000
0001
0000
0010
0000
0100
0000
1000
0001
,
0100
0000
0010
0000
1000
0100
0010
0000
1000
0000
0100
0010
0001
0000
0010
0000
,
0001
0000
0100
0001
1000
0000
0010
0000
1000
0000
0001
1000
0010
0000
0100
0000
,
0010
0000
0100
1000
0001
0000
1000
0000
0010
0000
1000
0000
0100
0000
0001
1000
,
0010
0000
1000
0100
0001
0000
0100
0000
2002
0000
0000
0000
0000
0000
0000
0000
,
0000
3003
0100
0001
1000
0001
0010
0100
,
1000
0000
0001
1000
0001
1000
0010
0100
,
0101
0000
0001
1000
0010
0001
1000
0100
,
0001
0100
0001
1000
0001
1000
0010
1000
,
0010
0000
0001
1000
0001
0100
0010
1000
,
0001
1000
0010
1000
0010
0001
0010
0100
,
0001
0100
0001
1000
0010
1000
0100
0001
,
1000
0010
1000
0000
1001
0000
1000
0001
,
1000
0100
0020
0000
0000
0000
0000
0000
,
0000
2000
0000
0000
,
0030
0002
0000
0000
,
3000
0200
0000
0000
,
0000
0303
0001
0000
1000
0000
0010
1000
,
0010
0100
0001
0000
0001
0000
1000
0001
,
1000
0000
0010
1000
0010
0000
0010
0100
,
0010
0000
0001
1000
0001
1000
0010
0100
,
1000
0000
0001
1000
0010
0000
0010
0100
,
1000
0000
0001
0010
0100
1000
0001
1000
,
0010
0000
0010
1000
0010
0000
0010
0100
,
0010
0000
0001
1000
0010
0100
0010
1000
,
0001
0000
0010
1000
0010
0000
0010
0001
,
0010
0000
0100
1000
0001
1000
0010
1000
,
0010
0000
0100
0010
0100
1000
0001
0010
,
1000
0001
2002
0000
0000
0000
0000
0000
,
0000
3003
0001
0000
1000
0000
0010
0100
,
1000
0001
0010
0000
0100
0000
1000
0010
,
1000
0100
0001
0000
0010
0000
0100
1000
,
0001
1000
0010
1000
0001
0010
0100
1000
,
0001
0000
0001
1000
0010
1000
0100
0001
,
1000
0010
1000
0100
0001
0010
0100
1000
,
0001
0000
0010
1000
0100
0000
0010
0100
,
0010
0000
0001
0010
0100
1000
0001
1000
,
0001
0000
1000
0000
0001
0010
0100
0000
1000
0000
0001
0000
0010
0000
1000
0001
,
0010
0000
0100
0000
0001
0010
0001
0000
1000
0000
0001
0000
1000
0000
0001
0010
,
0100
0000
1000
0000
0001
1000
0001
0000
0010
0000
1000
0000
0001
0000
0100
0010
,
1000
0000
0001
0000
1000
0001
0010
0000
1000
0000
0010
0000
0100
0000
0001
1000
,
0010
0000
0010
0000
1000
0100
0010
0000
1000
0000
0100
0010
0001
0000
0010
0000
,
0001
0000
0100
0001
1000
0000
0010
0000
1000
0000
0001
1000
0010
0000
0100
0000
,
0010
0000
0100
1000
0001
0000
1000
0000
0010
0000
1000
0000
0100
0000
0001
1000
,
0010
0000
1000
0100
0001
0000
0100
0000
2002
0000
0000
0000
0000
0000
0000
0000
,
0000
0000
0000
0000
,
0000
0000
0000
0000
,
0000
0000
0000
0000
,
3003
0000
0000
0000
;
