#TITLE:TEARS (RGR-Special);
#SUBTITLE:;
#ARTIST:NAOKI underground feat.EK;
#TITLETRANSLIT:;
#SUBTITLETRANSLIT:;
#ARTISTTRANSLIT:;
#GENRE:;
#CREDIT:;
#MUSIC:TEARS (RGR-Special).ogg;
#BANNER:TEARS (RGR-Special).png;
#BACKGROUND:TEARS (RGR-Special)-bg.png;
#CDTITLE:./CDTITLES/DANCE DANCE REVOLUTION EXTREME.PNG;
#SAMPLESTART:40.280;
#SAMPLELENGTH:15.000;
#SELECTABLE:YES;
#OFFSET:0.000;
#BPMS:0.000=143.001;
#STOPS:;
#BGSTAGE:3;
#DISPLAYBPM:143;
#BGCHANGES:;
#FGCHANGES:;

//--------------- dance-single - XLev450X-CSP ----------------
#NOTES:
     dance-single:
     XLev450X:
     Challenge:
     14:
     0,0,0,0,0:
0000
0000
0000
0000
,
0000
0000
0000
0000
,
0000
0000
0000
0000
,
0000
0000
0000
0000
,
0000
0000
0000
0000
,
0010
0100
0001
0100
0001
0100
0010
0000
,
1000
0010
0100
0001
0100
0001
0100
0000
,
0100
1000
0001
1000
0100
1000
0100
0000
,
1000
0000
0010
0000
0100
0000
0010
0000
1000
0000
0100
0000
0001
1000
0010
1000
,
0100
0000
0010
0000
0100
0010
0001
0000
,
1000
0000
0100
0000
0001
0100
0010
1000
,
0010
0000
0100
0000
0010
1000
0001
0000
,
0100
0000
0010
0000
0100
1000
0010
0100
,
0010
0001
0000
0100
,
1000
0001
0000
0001
,
0100
0001
0010
0100
,
0001
0000
0010
0000
0001
0000
0010
0000
0100
0000
0010
0000
0001
0100
0010
0100
,
0010
0000
1000
0000
0100
0000
0000
0001
0000
0000
0010
0000
0000
0100
0000
0000
,
0100
0000
1000
0000
0001
0000
0000
1000
0000
0000
0010
0000
0000
0001
0000
0000
,
0100
0000
0010
0000
0100
0000
0000
1000
0000
0000
0010
0000
0000
0100
0000
0000
,
0100
0000
0010
0000
0001
0000
0000
1000
0000
0000
0010
0000
0000
0001
0000
0000
,
0100
0010
0100
0000
1000
0001
1000
0000
,
0100
1000
0100
0000
0100
0010
0100
0000
,
0001
0000
1000
0000
0001
0000
1000
0000
0001
0000
0010
0000
0100
0010
0001
1000
,
0010
0000
0000
0001
0000
0000
0100
0000
0000
1000
0000
0000
0001
0000
0000
0000
,
0001
0010
0100
0000
1000
0100
0010
0000
,
0010
0100
0010
0100
0001
0000
1001
0000
,
0010
1000
0010
0000
0100
0001
0100
0000
,
0001
0010
0100
1000
0100
0000
0110
0000
,
0001
1000
0001
0000
1000
0100
1000
0000
,
0010
0100
0010
1000
0010
0000
0101
0000
,
0100
1000
0100
0000
0010
0100
1000
0000
,
0010
0000
1000
0000
0100
0000
0010
0000
0001
0000
0100
0000
0001
1000
0010
1000
,
0010
1000
0001
0010
,
0100
0010
0100
1000
,
0001
0010
0001
0010
,
1000
0000
0010
0000
1000
0000
0100
0000
1000
0000
0010
1000
0010
0000
0001
0000
,
0010
0100
0001
1000
0100
1000
0010
0000
,
0010
0001
0010
0001
0100
0010
1000
0000
,
0010
0100
0010
1000
0100
1000
0100
0000
,
1100
0000
0000
0000
0011
0000
0000
0000
0100
1000
0000
0010
0000
0000
0100
0000
,
0002
0000
0000
0000
,
0000
0003
0000
0000
0000
0000
0001
1000
0010
0000
0000
0100
0000
0000
0010
0000
,
0100
0000
1000
0000
0001
0000
0100
0000
0010
0000
0000
1000
0000
0000
0010
0000
,
0100
0000
0000
0001
0000
0000
1000
0000
0010
0000
0000
0001
0000
0000
1000
0000
,
0001
0000
0000
0100
0010
0000
0000
0000
1000
0000
0000
0100
0000
0000
0000
0000
,
0001
0000
0010
0000
0000
0100
0000
0000
0000
0000
0000
0000
1000
0000
0000
0000
,
0001
1000
0000
0010
,
0001
0000
1000
0000
0100
0000
0010
0000
0100
0000
0001
0000
0010
1000
0001
0000
,
0010
1000
0010
0000
0100
0010
1000
0000
,
0010
0100
0001
0100
0010
0000
1010
0000
,
0100
0010
0100
0000
0100
0010
1000
0000
,
0010
1000
0001
1000
0010
0000
0101
0000
,
0100
0010
0100
0000
1000
0100
1000
0000
,
0010
0100
0010
0001
0100
0000
1001
0000
,
0100
0010
0100
0010
0001
1000
0010
1000
,
0001
0010
0001
1000
0100
1000
0100
0010
0100
0010
0001
1000
0001
0100
0010
0100
,
0002
0000
0000
0000
,
0003
0000
0000
0000
;
