#TITLE:TEAR IT UP;
#ARTIST:KLUTE;
#GENRE:TECHNO;
#MUSIC:TEAR IT UP.ogg;
#BANNER:TEAR IT UP.png;
#BACKGROUND:TEAR IT UP-bg.png;
#CDTITLE:./CDTitles/bm 6thMIX.png;
#SAMPLESTART:42.801;
#SAMPLELENGTH:15;
#OFFSET:-0.441;
#BPMS:0=135.977;
#DISPLAYBPM:135;
#BGSTAGE:29;

//--------------- dance-single - XLev450X-bSP ----------------
#NOTES:
     dance-single:
     XLev450X:
     Beginner:
     2:
     0,0,0,0,0:
0000
0000
0000
0000
,
0000
0000
0000
0000
,
0000
0000
0000
0000
,
0000
0000
0000
0000
,
0001
0000
0001
0000
,
0001
0000
0000
0000
,
1000
0000
1000
0000
,
1000
0000
0000
0000
,
0010
0000
0000
0000
,
0010
0000
0000
0000
,
0010
0000
0000
0000
,
0000
0000
0000
0000
,
0100
0000
0000
0000
,
0100
0000
0000
0000
,
0100
0000
0000
0000
,
0000
0000
0000
0000
,
0001
0000
1000
0000
,
0001
0000
0000
0000
,
1000
0000
0001
0000
,
1000
0000
0000
0000
,
0100
0000
0010
0000
,
0100
0000
0000
0000
,
0010
0000
0100
0000
,
0010
0000
0000
0000
,
1001
0000
0000
0000
,
0000
0000
0000
0000
,
1001
0000
0000
0000
,
0000
0000
0000
0000
,
1001
0000
0000
0000
,
0000
0000
0000
0000
,
1001
0000
0000
0000
,
0000
0000
0000
0000
,
0001
0001
0000
0000
,
0010
0010
0000
0000
,
0100
0100
0000
0000
,
1000
1000
0000
0000
,
0010
0100
0000
0000
,
0100
0010
0000
0000
,
0001
1000
0000
0000
,
1000
0001
0000
0000
,
0001
0000
0001
0000
,
0001
0000
0000
0000
,
1000
0000
1000
0000
,
1000
0000
0000
0000
,
1001
0000
0000
0000
,
1001
0000
0000
0000
,
1001
0000
0000
0000
,
1001
0000
0000
0000
,
1001
0000
0000
0000
;

//--------------- dance-single - XLev450X-BSP ----------------
#NOTES:
     dance-single:
     XLev450X:
     Easy:
     5:
     0,0,0,0,0:
0000
0000
0000
0000
,
0000
0000
0000
0000
,
0000
0000
0000
0000
,
0000
0000
0000
0000
,
0001
0000
1000
0000
,
0001
0000
1000
0000
,
0001
0000
1000
0000
,
0001
0000
1000
0000
,
0010
0000
1000
0000
,
0010
1000
0010
0000
,
0100
0000
0001
0000
,
0100
0001
0100
0000
,
1000
0000
0001
0000
,
1000
0001
1000
0000
,
0010
0100
0010
0000
,
0010
0001
0010
0000
,
0001
1000
0001
0000
,
0100
0010
0100
0000
,
1000
0010
1000
0000
,
0100
0001
0100
0000
,
0010
0001
0010
0000
,
1000
0001
1000
0000
,
0010
1000
0010
0000
,
0100
0001
0100
0000
,
0101
0000
0001
0000
,
0101
0000
0100
0000
,
1010
0000
0010
0000
,
1010
0000
1000
0000
,
1001
0000
0001
0000
,
1001
0000
1000
0000
,
0110
0000
0010
0000
,
0110
0000
0100
0000
,
1000
0001
1000
0000
,
0010
0000
1000
0000
0100
0010
0100
0000
,
0001
0010
0100
1000
,
0001
1000
0001
0000
0010
1000
0010
0000
,
0100
0010
0001
0010
,
0001
0010
0001
0000
0100
0010
0100
0000
,
1000
0100
1000
0010
,
1000
0010
1000
0000
0010
0100
0010
0000
,
0001
1000
0001
0000
,
0010
0000
1000
0000
0100
0010
0100
0000
,
0001
0010
0001
0000
,
0100
1000
0001
0000
,
0010
0010
0100
1000
,
0001
1000
0100
0001
,
0010
0100
1000
0001
,
0010
1000
0010
0000
0010
0100
0010
0000
,
1001
0000
0000
0000
;

//--------------- dance-single - XLev450X-DSP ----------------
#NOTES:
     dance-single:
     XLev450X:
     Medium:
     9:
     0,0,0,0,0:
0000
0000
0000
0000
,
0000
0000
0000
0000
,
0000
0000
0000
0000
,
0000
0000
0000
0000
,
0001
0000
1000
0000
0010
1000
0010
0000
,
0001
0000
0010
0000
0100
0001
0100
0000
,
0010
1000
0010
0000
0010
0100
0010
0000
,
0001
0010
0001
0000
1000
0000
0001
0000
,
0001
0001
1000
0000
0010
0000
1000
0000
,
0100
0100
0010
0000
0001
0000
0010
0000
,
1000
0100
1000
0000
0001
0000
0010
0000
,
0001
1000
0001
0000
0010
0000
1000
0000
,
1001
0010
1010
0010
,
0110
0010
0011
0001
,
0001
1000
0001
0000
0010
1000
0010
0000
,
0010
0100
0010
0000
0001
0010
0001
0000
,
1000
0000
0001
0000
1000
0100
0001
0000
,
0010
0000
1000
0000
0010
1000
0010
0000
,
0100
0000
0010
0000
0001
0010
0001
0000
,
0001
0000
1000
0000
0001
1000
0001
0000
,
1000
0000
0100
0000
0010
0100
0010
0000
,
0001
0000
1000
0000
0010
0001
0010
0000
,
0001
1000
0001
0000
0010
1000
0010
0000
,
0010
0100
0010
0000
0001
1000
0001
0000
,
0001
0000
1000
0000
0001
1000
0010
0100
,
0010
0000
0001
0000
0010
0001
0010
0100
,
1000
0000
0001
0000
1000
0010
1000
0100
,
0010
0000
0001
0000
0010
0100
0001
1000
,
0001
0000
0000
0000
1000
0000
0000
0001
0000
0000
0100
0000
0010
0000
0000
1000
,
0000
0000
0001
0000
0010
0000
0000
0100
0000
0000
1000
0000
0001
0000
1000
0000
,
0010
0000
1000
0000
0010
0000
0000
0100
0000
0000
0010
0000
0001
0000
0000
0010
,
0000
0000
0100
0000
1000
0000
0000
0001
0000
0000
1000
0000
0010
0000
0100
0000
,
0001
1000
0001
0010
,
1000
0100
0010
0001
,
0010
0001
0010
0000
0010
0100
0010
0000
,
0010
1000
0010
0000
0010
0001
1000
0000
,
0001
1000
0100
0001
,
1000
0010
0100
0010
,
0001
0010
0001
0000
0100
1000
0100
0000
,
0010
1000
0010
0000
0010
0100
0010
0000
,
0001
1001
0010
1010
,
0010
0110
0001
0011
,
0001
0101
0001
1010
,
0010
0110
0010
1010
,
1001
0101
1001
0011
,
1001
0101
1001
0011
,
1001
0101
1001
0011
,
1001
0101
1001
0011
,
1001
0000
0000
0000
;

//--------------- dance-single - XLev450X-ESP ----------------
#NOTES:
     dance-single:
     XLev450X:
     Hard:
     13:
     0,0,0,0,0:
0000
0000
0000
0000
,
0000
0000
0000
0000
,
0000
0000
0000
0000
,
0000
0000
0000
0000
,
0001
1000
0001
0000
0010
1000
0010
0000
,
0010
0100
0010
0000
0001
0010
0001
0000
,
0010
1000
0010
0000
0001
0100
0001
0000
,
1000
0001
1000
0010
0100
0010
0100
0000
,
0001
0000
1000
0000
0001
0001
1000
0000
,
0010
0000
0100
0000
0010
0010
1000
0000
,
0010
0100
0010
0000
0001
1000
0001
0000
,
0100
1000
0100
0000
0010
0100
0010
0000
,
0001
0000
1000
0000
0010
1000
0100
0001
,
0010
0000
0100
0000
1000
0001
1000
0000
,
0010
1000
0100
0001
0010
0100
0010
0000
,
0010
0001
0010
0100
1000
0001
0010
0000
,
1000
0000
0001
0000
1000
0010
1000
0100
,
0010
0000
0001
0000
0100
1000
0001
0000
,
0100
1000
0001
1000
0010
1000
0100
0010
,
0001
0100
1000
0001
0010
1000
0010
0000
,
0010
0100
0010
0000
0001
0010
0001
0000
,
0100
1000
0100
0000
0001
1000
0001
0000
,
0010
1000
0010
0000
0001
0100
0010
0000
,
0001
0000
1000
0000
0010
0000
1000
0000
0001
0000
1000
0000
0100
0010
0001
1000
,
0010
0000
0100
0000
0001
0000
0000
1000
0000
0000
0001
0000
0100
0000
0000
0010
,
0000
0000
1000
0000
0001
0000
0000
0100
0000
0000
0010
0000
0010
0000
1000
0000
,
0001
0000
0100
0000
0010
0000
0000
1000
0000
0000
0001
0000
0100
0000
0000
0010
,
0000
0000
0001
0000
1000
0000
0000
0100
0000
0000
0001
0000
1000
0000
0010
0000
,
1000
0000
0001
0000
1000
0000
0000
0010
0000
0000
0100
0000
0001
0000
0000
1000
,
0000
0000
0001
0000
0100
0000
0000
0010
0000
0000
1000
0000
0001
0000
0100
0000
,
1000
0000
0010
0000
1000
0000
0000
0001
0000
0000
0100
0000
0010
0000
0000
1000
,
0000
0000
0001
0000
0100
0000
0000
0010
0000
0000
1000
0100
0001
0010
1000
0100
,
0001
1000
0010
0000
0001
0010
0100
1000
,
0001
1000
0001
0000
0010
1000
0100
0010
,
0001
0010
0100
0000
0001
1000
0001
1000
,
0010
1000
0010
0000
0010
0100
0010
0001
,
0010
0100
0001
0000
0001
0010
0100
0000
,
1000
0001
1000
0000
0010
1000
0100
0000
,
0010
0001
0010
0100
1000
0001
1000
0000
,
0010
1000
0100
0010
0001
0010
0100
0000
,
0001
0001
1000
0001
0100
1000
0001
0000
,
0010
0010
1000
0100
0010
0001
0010
0000
,
1000
1000
0001
0100
0010
1000
0001
0000
,
0100
0100
0001
1000
0010
1000
0010
0000
,
0001
1000
0010
0000
0001
0000
0100
0000
1000
0100
0001
0000
1000
0000
0010
0000
,
1000
0001
0100
0000
0010
0000
0001
0000
0010
1000
0100
0000
1000
0000
0001
0000
,
1000
0100
0001
0000
1000
0001
0010
0000
1000
0001
0010
0000
0100
1000
0001
0000
,
0010
1000
0100
0000
1000
0100
0001
0000
0010
0001
0100
1000
0010
0001
1000
0100
,
1001
0000
0000
0000
;
