#TITLE:T.R.O.L.L.;
#ARTIST:Yuta Imai;
#GENRE:RAWSTYLE;
#MUSIC:T.R.O.L.L..ogg;
#BANNER:T.R.O.L.L..png;
#BACKGROUND:T.R.O.L.L.-bg.png;
#CDTITLE:./CDTitles/bm IIDX 31 EPOLIS.png;
#SAMPLESTART:44.479;
#SAMPLELENGTH:15;
#OFFSET:-0.362;
#BPMS:0=160
,101=158
,102=156
,103=154
,104=152
,105=150
,106=148
,107=146
,108=144
,109=142
,110=140
,111=138
,112=136
,113=134
,114=132
,115=130
,149=128
,150=126
,151=124
,152=122
,153=120
,154=118
,155=116
,156=114
,157=112
,158=110
,159=108
,160=106
,161=104
,162=102
,163=100
,196.5=103
,197=105
,197.5=108
,198=110
,198.5=113
,199=115
,199.5=118
,200=120
,200.5=123
,201=125
,201.5=128
,202=130
,202.5=133
,203=135
,203.5=138
,204=140
,204.5=143
,205=145
,205.5=148
,206=150
,206.5=153
,207=155
,207.5=158
,208=160;
#BGSTAGE:29;

//--------------- dance-single - XLev450X-bSP ----------------
#NOTES:
     dance-single:
     XLev450X:
     Beginner:
     3:
     0,0,0,0,0:
0000
0000
0000
0000
,
0000
0000
0000
0000
,
0000
0000
0000
0000
,
0000
0000
0000
0000
,
0000
0000
0000
0000
,
0001
0000
0001
0000
,
0001
0000
0000
0000
,
1000
0000
1000
0000
,
2000
0000
0000
3000
,
0010
0010
0010
0000
,
0001
0001
0001
0000
,
1000
1000
1000
0000
,
0100
0100
0100
0000
,
0010
0100
0010
0000
,
1000
0010
1000
0000
,
0001
0010
0001
0000
,
0001
0000
0000
0000
,
1000
0000
0001
0000
,
0100
0000
1000
0000
,
0010
0000
0100
0000
,
0001
0000
0000
0000
,
1000
0000
0010
0000
,
0100
0000
1000
0000
,
0001
0000
0100
0000
,
0010
0000
0000
0000
,
1000
0000
0001
0000
,
0100
0000
0010
0000
,
1000
0000
0001
0000
,
2002
0000
0000
3003
,
0010
0000
0100
0000
,
0010
0000
0100
0000
,
1000
0000
0001
0000
,
1000
0000
0001
0000
,
1000
0000
0100
0000
,
1000
0000
0100
0000
,
0010
0000
0001
0000
,
0020
0000
0000
0031
,
0001
0000
1000
0000
,
0010
0000
0100
0000
,
0001
0000
1000
0000
,
0220
0000
0000
0330
,
0001
1000
0100
0010
,
0001
1000
0010
0000
,
1000
0001
1000
0000
,
0010
1000
0100
0000
,
0001
1000
0001
0000
,
0010
1000
0010
0000
,
1000
0001
1000
0000
,
0200
0000
0000
0300
,
0001
0000
0000
0000
,
1000
0000
0000
0000
,
0010
0000
0000
0000
,
0100
0000
0000
0000
,
2002
0000
0000
0000
,
0000
0000
0000
3003
,
0001
0000
1000
0000
,
0010
0000
0100
0000
,
0001
0000
1000
0000
,
0001
0000
0000
0000
,
1000
0000
0010
0000
,
0100
0000
0000
0000
,
1000
0000
0010
0000
,
1000
0000
0001
0000
,
0100
0000
1000
0000
,
0001
0000
0000
0000
,
1000
0000
0010
0000
,
0100
0000
0000
0000
,
0001
0000
1000
0000
,
0001
0000
0000
0000
,
0110
0000
0000
0000
;

//--------------- dance-single - XLev450X-BSP ----------------
#NOTES:
     dance-single:
     XLev450X:
     Easy:
     6:
     0,0,0,0,0:
0000
0000
0000
0000
,
0000
0000
0000
0000
,
0000
0000
0000
0000
,
0000
0000
0000
0000
,
0000
0000
0000
0000
,
0010
0000
1000
0000
,
0001
0000
0010
0000
,
1000
0001
0100
0010
,
2000
0000
0000
3000
,
0001
1000
0010
0000
,
1000
0100
0001
1000
,
0010
0100
1000
0000
,
0001
0010
1000
0000
,
0001
0100
0010
0000
,
0010
0000
1000
0000
0010
0000
1000
0010
,
1000
0001
0100
0000
,
0001
1000
0001
0000
,
1000
0001
0010
0100
,
1000
0001
0010
0000
,
1000
0010
1000
0001
,
0100
0000
0000
0000
,
0010
1000
0001
0010
,
0001
1000
0001
0000
,
0010
0000
1000
0000
0001
1000
0001
0000
,
1000
0000
0000
0000
,
0010
0100
0001
1000
,
0001
1000
0010
1000
,
0010
1000
0010
0000
0001
0010
0001
0000
,
2001
0001
0001
3001
,
0001
0000
1000
0000
0010
1000
0010
0000
,
0001
0000
0100
0000
1000
0001
1000
0000
,
0010
0000
1000
0000
0010
1000
0010
0100
,
0001
1000
0001
1000
,
0010
0000
0010
0000
1000
0010
1000
0000
,
0001
0000
0000
0000
0100
0000
0000
0000
1000
0000
0000
0001
0000
0000
0100
0000
,
0010
0000
0001
0000
1000
0010
1000
0000
,
2002
0000
0000
0000
0000
3003
0220
0330
,
0001
1000
0010
0100
,
0001
0000
1000
0000
0010
1000
0010
0000
,
0001
0000
0100
0000
0001
0010
0001
0000
,
0002
1000
1000
1003
,
0001
1000
0010
0100
,
0001
1000
0001
0000
,
1000
0001
0010
0100
,
1000
0001
1000
0000
,
0010
0100
0001
0000
,
1000
0001
1000
0000
,
0010
1000
0001
0100
,
2002
0000
0000
3003
,
0100
0010
1000
0001
,
0100
0010
1000
0001
,
1000
0001
0100
0010
,
0200
0000
0000
0300
,
0002
0000
0000
0000
,
1000
1000
1000
1003
,
0001
1000
0010
1000
,
0100
0000
0001
0000
0010
0001
0010
0000
,
1000
0100
1000
0100
,
0010
0100
0010
0000
1000
0000
0000
0000
,
0001
1000
0001
1000
,
0002
0000
0000
1003
,
1000
1000
0001
0010
,
0010
0100
0010
0000
1000
0010
1000
0000
,
0001
1000
0001
0100
,
0001
0000
1000
0000
,
0010
1000
0010
0000
,
0010
0100
0001
0000
,
1000
0000
0001
0000
1000
0001
1000
0000
,
2002
0000
0000
3003
,
0110
0000
0000
0000
;

//--------------- dance-single - XLev450X-DSP ----------------
#NOTES:
     dance-single:
     XLev450X:
     Medium:
     11:
     0,0,0,0,0:
0000
0000
0000
0000
,
0000
0000
0000
0000
,
0000
0000
0000
0000
,
0000
0000
0000
0000
,
0000
0000
0000
0000
,
0001
1000
0001
0010
,
0100
0010
1000
0010
,
1000
0010
1000
0000
0001
0010
0001
0000
,
2002
0000
0000
3003
,
0001
1000
0010
0100
,
1000
0000
0001
0000
0010
0000
0100
0010
,
0100
1000
0010
1000
,
0001
0000
0001
0010
1000
0000
0000
0000
,
0001
1000
0100
1000
,
0010
0000
0100
0000
0010
0000
0001
0010
,
0001
1000
0010
0100
,
0020
0000
0000
0000
0000
0000
0130
0100
,
1000
0001
1000
0010
,
1000
0000
0010
0000
0100
0000
0001
0010
,
0001
1000
0100
1000
,
0010
0000
1000
0010
1000
0000
0000
0000
,
0001
0100
1000
0001
,
1000
0000
0001
1000
0001
0000
0010
0000
,
1000
0000
0100
0000
0010
1000
0010
0000
,
0220
0000
0000
0330
,
0200
0301
0002
1003
,
0200
0000
1300
0000
0020
0000
0130
0000
,
0001
0000
1000
0000
0001
0000
1000
0000
0010
0001
1000
0001
0010
1000
0100
0010
,
0002
1000
1000
1003
,
0001
0000
1000
0000
0010
1000
0010
0000
,
0100
0000
0001
0000
1000
0001
1000
0000
,
0001
0000
0000
0100
0000
0000
1000
0000
0010
0000
0000
0100
0000
0000
0001
0000
,
0000
1000
0000
0000
0001
0000
0000
0100
0000
0000
0010
0000
1000
0000
0010
0000
,
1000
0000
0001
0000
0010
0001
0010
0000
,
1000
0000
0001
0000
0010
0000
0100
0000
0101
0000
0000
1010
0000
0000
0110
0000
,
1000
0000
0000
0001
0000
0000
0100
0000
0010
0000
0000
1000
0000
0000
0001
0000
,
0200
0010
0010
0310
,
0002
0013
2000
3100
,
0002
0000
1003
0000
0020
0000
0130
0000
,
0001
0000
0100
0000
1000
0000
0100
0000
0001
0100
1000
0100
0001
0010
1000
0010
,
2000
0000
0001
0000
0001
0000
3001
0000
,
0001
0000
0000
1000
0000
0000
0010
0000
0100
0000
0000
0001
0000
0000
1000
0000
,
0001
0000
0000
0100
0000
0000
0010
0000
0001
0010
0100
1000
0002
0000
0003
0000
,
0001
0000
0000
1000
0000
0000
0010
0000
0100
0000
0000
0001
0000
0000
1000
0000
,
0001
0000
0000
0000
0000
0000
0000
0000
0000
1000
0000
0000
0000
0000
0000
0000
0000
0000
0010
0000
0000
0000
0000
0000
1000
0000
0000
0000
0001
0000
0000
0000
0100
0000
0000
0000
0020
0000
0000
0000
0000
0000
0130
0000
0000
0000
0000
0000
,
0001
0000
0000
1000
0000
0000
0010
0000
1000
0000
0000
1000
0000
0000
0100
0000
,
0001
0000
0000
1000
0000
0000
0010
0000
0100
0000
0000
0001
0000
0000
1000
0000
,
0001
0000
0000
0100
0000
0000
1000
0000
0010
0000
0000
0100
0000
0000
0001
0000
,
0020
0000
0000
1030
,
0002
0013
0200
1300
2000
3100
0002
0013
,
0200
0310
0020
0031
2000
3100
0002
0013
,
1000
0000
0100
0000
0001
0000
0010
0000
1000
0100
0001
0010
1000
0001
0100
0010
,
2002
0000
0000
3003
,
0001
1000
0001
1000
,
0010
0100
1000
1001
,
0001
1000
0001
0000
0010
0000
0010
0000
,
1000
0001
1000
0000
0010
0000
1000
0000
,
0001
0010
0001
0000
0100
1000
0100
0000
,
0001
1000
0001
0000
,
1000
0000
0010
0000
1000
0010
1000
0010
,
0100
0001
1000
0001
,
0100
1000
0001
1000
0010
1000
0010
0000
,
0001
0010
0001
0000
1000
0010
1000
0000
,
0010
0000
0100
0000
1000
0001
1000
0000
,
0001
0100
1000
0000
,
0001
0000
0000
0000
1000
0000
0000
0010
0000
0000
1000
0000
0010
0000
0000
0000
,
0001
0000
0000
0000
1000
0000
0000
0001
0000
0000
1000
0000
0001
0000
0000
0000
,
1000
0000
0001
0000
1000
0001
1000
0000
,
2001
0001
0001
3001
,
0110
0000
0000
0000
;

//--------------- dance-single - XLev450X-ESP ----------------
#NOTES:
     dance-single:
     XLev450X:
     Hard:
     14:
     0,0,0,0,0:
0000
0000
0000
0000
,
0000
0000
0000
0000
,
0000
0000
0000
0000
,
0000
0000
0000
0000
,
0000
0000
0000
0000
,
0001
0000
1000
0001
0000
0000
0010
0000
1000
0000
0000
0010
1000
0000
0010
0000
,
0001
0000
0000
0010
0001
0000
0010
0000
1000
0000
0000
0001
1000
0000
0001
0000
,
1000
0001
1000
0000
0010
1000
0010
0000
1000
0001
0010
0000
0001
0010
0001
0010
,
2002
0000
0000
3003
,
0001
0000
1000
0000
0010
1000
0010
0000
,
0001
0000
0000
0000
0010
0000
0000
0000
0001
0000
0010
0000
0001
0000
0010
0001
,
0010
0000
1000
0000
0001
1000
0001
0000
,
0010
1000
0010
0100
1000
0000
0000
0000
,
0001
0000
0000
0000
1000
0000
0000
0000
0001
0000
0100
0000
1000
0000
0010
1000
,
0010
0010
0001
1000
0010
0100
1000
0000
,
0001
0010
1000
0001
1000
0000
0001
0000
,
1000
0010
1000
0010
0100
0010
0001
0000
,
1000
0001
1000
0010
,
0100
1000
0001
1000
,
0001
1000
0001
0000
0010
0000
1000
0000
,
0010
1000
0010
1000
0001
0000
0000
0000
,
0100
0000
1000
0000
0001
0010
0001
0000
,
1000
0100
1000
0001
1000
0000
0001
0000
,
0010
0010
0001
1000
0010
1000
0001
0000
,
0010
0001
0010
0100
1000
0010
1000
0100
0020
0000
0000
0000
0001
0000
0031
0000
,
0001
0000
1000
0000
0001
1000
0001
0000
,
0010
0000
1000
0000
0010
1000
0010
0000
,
0001
0010
0001
1000
0001
0100
0010
1000
,
2001
0000
0000
0000
0000
0000
0000
0000
0000
0000
0000
0000
0000
0000
0000
0000
0001
0000
0000
0000
0000
0000
0000
0000
0000
0000
0000
0000
0000
0000
0000
0000
0001
0000
0000
0000
0000
0000
0000
0000
0000
0000
0000
0000
0000
0000
0000
0000
0001
3000
0000
0000
0000
0000
0000
0000
0000
0000
0000
0000
0000
0000
0000
0000
,
0001
1000
0010
1000
0010
0100
1000
0000
,
0001
0010
1000
0001
0100
1000
0010
1000
,
0010
0000
0000
0001
0000
0000
1000
0000
0100
0000
0000
1000
0000
0000
0001
0000
,
0000
0100
0000
0000
0010
0000
0000
1000
0000
0000
0010
0000
1000
0000
0001
0000
,
1000
0000
0001
0010
0001
0000
1000
0000
0001
0000
1000
0010
1000
0000
0010
0000
,
1000
0000
0001
0010
0001
0000
1000
0000
0101
0000
0000
1010
0000
0000
0110
0000
,
1000
0000
0001
0000
1000
0000
0001
1000
0001
0000
1000
0000
0010
0000
1000
0000
,
0001
0100
1000
0010
1000
0001
0100
0000
,
0001
0000
1000
0000
0001
0000
0100
0000
1000
0000
0010
0000
0100
0000
0010
1000
,
0010
0000
0100
0000
0001
0000
1000
0000
0010
0000
0100
0000
1000
0000
0001
0010
,
0001
0000
1000
0000
0001
0000
0100
0000
0001
1000
0001
1000
0001
1000
0001
1000
,
0002
0000
1000
0000
1000
0000
1000
0003
,
0001
0000
0000
1000
0000
0000
0001
0000
0100
0000
0000
0010
0000
0000
1000
0000
,
0010
0000
0000
0000
1000
0000
0000
0000
0100
0000
0000
0000
1000
0000
0000
0000
0001
0000
0000
0000
0010
0000
0000
0000
0001
0000
0000
0000
1000
0001
1000
0001
,
1000
0000
0001
0000
0100
0000
1000
0000
0001
0000
1000
0000
0001
1000
0001
0000
,
1000
0000
0000
0000
0000
0000
0010
0000
0000
0000
0000
0000
1000
0000
0000
0000
0000
0000
0010
0000
0000
0000
0000
0000
0100
0000
0000
0000
0001
0000
0000
0000
1000
0000
0000
0000
0010
0000
0000
0000
0000
0000
0001
0000
0000
1000
0000
0000
,
0001
0000
0000
0000
0001
0000
1000
0000
0010
0000
1000
0000
0010
0000
0001
0010
,
0001
0000
1000
0000
0100
0000
1000
0000
0001
1000
0001
0000
0010
1000
0010
0000
,
0100
1000
0001
0010
0100
1000
0001
1000
,
0010
1000
0010
0000
0010
0100
0010
0000
0001
0000
1000
0000
0001
0000
0000
0000
,
1000
0001
0100
1000
0010
0100
1000
0000
,
0001
1000
0100
1000
0001
0010
1000
0010
,
0010
1000
0010
0000
0001
0010
0001
0000
0010
0001
1000
0100
1000
0001
0100
0010
,
2002
0000
0000
0000
0000
0000
0000
0000
0000
0000
0000
0000
0000
3003
0000
0000
,
0001
1000
0001
1000
,
0010
1000
0100
1000
0001
0010
1001
0000
,
0001
1000
0100
1000
0001
0010
0001
0100
,
1000
0000
0001
0000
0100
0000
1000
0100
0001
0000
1000
0000
0010
0000
0000
0000
,
1000
0100
1000
0010
1000
0010
0100
1000
,
0001
0010
0001
0100
1000
0001
0100
0000
,
0001
1000
0001
1000
0010
1000
0100
0001
,
1000
0000
0000
0000
0001
0000
0000
0000
0100
0000
0000
0000
1000
0000
0001
1000
,
0010
0010
1000
0100
1000
0001
0100
1000
,
0001
0100
1000
0001
1000
0010
0100
0000
,
1000
0010
1000
0000
0010
0001
0010
0000
,
0100
1000
0001
0100
1000
0001
0100
0000
,
0001
0000
1000
0000
0001
0000
0000
0100
0000
0000
1000
0000
0001
0000
0100
0001
,
1000
0000
0010
0000
1000
0000
0000
0010
0000
0000
0100
0000
1000
0000
0000
0000
,
0001
1000
0010
0000
0001
0010
0100
0000
1000
0100
0001
1000
0100
0010
0001
0100
,
2000
0000
3001
0001
1000
0001
1000
0001
,
1001
0000
0000
0000
;

//--------------- dance-single - XLev450X†-CSP ----------------
#NOTES:
     dance-single:
     XLev450X†:
     Challenge:
     16:
     0,0,0,0,0:
0000
0000
0000
0000
,
0000
0000
0000
0000
,
0000
0000
0000
0000
,
0000
0000
0000
0000
,
0000
0000
0000
0000
,
0010
0000
1000
0010
1000
0000
0001
0000
0010
0000
0001
0010
0001
0000
1000
0000
,
0010
0000
1000
0010
1000
0000
0010
0000
0001
0000
0010
0001
0010
0000
1000
0000
,
0001
0000
1000
0000
0100
0000
0001
0000
1000
0010
0001
0100
1000
0010
0100
1000
,
0001
0000
0000
0000
0000
0000
0001
0100
1000
0000
0010
0000
0100
0000
1000
0000
,
0001
0000
0000
0000
0001
0000
1000
0000
0010
0000
1000
0010
1000
0000
0010
0000
,
0001
0000
0010
0001
0010
0000
1000
0000
0100
0000
1000
0000
0001
0000
1000
0001
,
1000
0010
1000
0010
1000
0001
0100
1000
,
0001
0000
0010
0000
0001
0000
0010
0000
0001
0010
0001
0010
0001
0000
0000
0000
,
1000
0001
1000
0100
1000
0001
1000
0010
,
1000
0000
0010
0000
1000
0000
0010
0000
1000
0001
1000
0000
1000
0010
1000
0000
,
0001
1000
0001
1000
0001
0100
1000
0100
,
0001
1000
0010
1000
0001
0010
0100
0010
1000
0001
0010
1000
0001
0000
0000
0000
,
0001
1000
0010
1000
0010
0100
1000
0001
,
0010
0000
1000
0000
0100
0000
1000
0000
0001
0000
0010
0000
0001
0000
0010
0001
,
0010
1000
0010
0100
1000
0001
1000
0010
,
1000
0010
1000
0000
0010
0000
0100
0000
1000
0000
0000
0000
0000
0000
0001
1000
,
0001
1000
0010
0100
1000
0001
0100
0010
,
1000
0010
1000
0000
0010
0000
0100
0000
1000
0000
0001
0000
0010
0000
0001
1000
,
0100
0010
1000
0001
0100
1000
0001
0000
,
1000
0001
1000
0001
1000
0010
1000
0010
1000
0000
0001
0000
1000
0000
0000
0000
,
0100
0000
0000
0010
0000
0000
0001
0000
0000
1000
0000
0000
0100
0000
0000
1000
0000
0000
0100
0000
0000
1000
0000
0000
0001
0000
0000
0010
0000
0000
0100
0000
0000
1000
0000
0000
0001
0000
0000
0100
0000
0000
0001
0000
0000
0100
0000
0000
,
0001
0000
0000
0010
0000
0000
0100
0000
0000
1000
0000
0000
0010
0000
0000
1000
0000
0000
0010
0000
0000
0100
0000
0000
0001
0000
0000
0100
0000
0000
0001
0000
0000
1000
0000
0000
0001
0000
0000
0010
0000
0000
0100
0000
0000
1000
0000
0000
,
0001
0000
0000
0010
0000
0000
0100
0000
0000
1000
0000
0000
0001
0000
0000
1000
0000
0000
0100
0000
0000
0010
0000
0000
0100
0000
0000
1000
0000
0000
0100
0000
0000
1000
0000
0000
0001
0000
0000
1000
0000
0000
0100
0000
0000
0010
0000
0000
,
0002
0000
1000
0000
1000
0000
1003
0000
,
0001
0000
1000
0000
0010
0000
0001
0010
0001
0000
1000
0010
0001
1000
0010
0001
,
1000
0000
0001
1000
0001
0000
1000
0001
1000
0000
0010
0000
1000
0000
0010
0000
,
0001
0010
1000
0001
1000
0000
0001
1000
0010
0000
1000
0010
0000
0100
0001
0000
,
1000
0010
0000
0100
0010
0000
1000
0001
0000
1000
0001
0000
1000
0000
0001
1000
,
0001
0000
0100
0000
1000
0000
0001
1000
0001
0000
1000
0000
0010
0000
1000
0010
,
1000
0000
0010
0000
0001
0000
0010
0000
1000
0000
0001
0100
0000
1000
0001
0000
,
0010
0000
1000
0000
0010
0000
1000
0001
1000
0000
0001
0000
1000
0000
0001
0000
,
1000
0001
0010
1000
0100
0010
1000
0001
0010
1000
0001
0100
1000
0000
0000
0000
,
0001
0000
0100
0000
1000
0000
0100
1000
0001
0000
0010
0000
1000
0000
0001
0100
,
1000
0000
0100
0000
0001
0000
0010
1000
0001
0000
1000
0000
0100
0000
0010
0100
,
0001
0000
0000
0000
0000
0000
1000
0000
0000
0000
0000
0000
0001
0000
0000
0000
0000
0000
1000
0000
0000
0000
0000
0000
0001
0000
0000
0010
0000
0000
0001
0000
0000
0100
0000
0000
0001
0000
0000
0010
0000
0000
0100
0000
0000
0010
0000
0000
,
0200
0000
0000
0000
0000
0000
0000
0000
0000
0000
0000
0000
0000
0000
0000
0000
0000
0000
0000
0000
0000
0000
0000
0000
0001
0000
0000
0000
0000
0000
0000
0000
0000
0000
0000
0000
0000
0000
0000
0000
0000
0000
0000
0000
0000
0000
0000
0000
0001
0000
0000
0000
0000
0000
0000
0000
0000
0000
0000
0000
0000
0000
0000
0000
0000
0000
0000
0000
0000
0000
0000
0000
0001
0000
0000
0000
0000
0000
0000
0300
0000
0000
0000
0000
0000
0000
0000
0000
0000
0000
0000
0000
0000
0000
0000
0000
,
0001
0010
0100
1000
0001
1000
0010
1000
0010
0100
0001
0010
0000
1000
0010
0000
,
0001
0000
1000
0000
0001
0000
1000
0000
0010
0000
0100
0000
1000
0000
0001
0000
0000
0000
0100
0000
1000
0000
0000
0000
0001
0000
0100
0000
0010
0000
1000
0001
,
1000
0100
0001
0100
1000
0010
0100
0010
1000
0001
1000
0010
0001
0100
1000
0001
,
0100
0000
0000
0000
0000
0000
0010
0000
0000
0000
0000
0000
1000
0000
0000
0000
0000
0000
0001
0000
0000
0000
0000
0000
1000
0000
0000
0000
0000
0000
0010
0000
0000
0000
0000
0000
1000
0000
0000
0000
0000
0000
0100
0000
0000
0000
0000
0000
0001
0000
0000
0000
0100
0000
0000
0000
0001
0000
0000
0000
1000
0000
0000
0000
0001
0000
0000
0000
0100
0000
0000
0000
0010
0000
0000
0000
0000
0000
0100
0000
0000
0000
0000
0000
1000
0000
0000
0001
0000
0000
1000
0000
0000
0001
0000
0000
,
1000
0100
0001
0100
0000
0100
1000
0001
1000
0010
1000
0010
0100
1000
0001
0010
,
0000
0000
1000
0000
0001
0000
0100
0000
1000
0000
0000
0000
0001
0000
1000
0000
0000
0000
0010
0000
1000
0000
0000
0000
0010
0000
1000
0000
0100
0000
0010
1000
,
0001
1000
0001
0100
1000
0001
0010
1000
0001
1000
0010
1000
0001
1000
0010
1000
,
0001
0000
1000
0100
0001
0000
1000
0000
0001
0000
1000
0000
0001
0000
1000
0000
0001
0010
1000
0100
0001
0010
1000
0100
0001
0000
0000
0000
1000
0000
0100
0000
,
0001
0000
1000
0000
0001
0000
1000
0000
0001
0000
1000
0000
0001
0000
1000
0100
,
0001
1000
0001
1000
0001
1000
0001
1000
,
0001
1000
0001
1000
0001
1000
0001
1000
0001
1000
0001
1000
0001
1000
0001
1000
,
0000
0000
0000
0001
1000
0010
0100
1000
,
0001
1000
0010
1000
,
0010
1000
0100
1000
0001
0010
1001
0000
,
0001
0100
1000
0000
0001
0000
1000
0000
0100
0000
1000
0000
0001
0000
1000
0000
,
0010
0000
1000
0000
0100
0000
1000
0100
0001
0000
0010
0000
0100
0001
0010
0100
,
1000
0001
1000
0010
1000
0100
1000
0001
,
0100
0000
1000
0000
0001
0000
0100
0000
0001
0000
0100
0000
0001
0100
0001
0100
,
1000
0000
0010
0000
1000
0000
0010
0000
0100
0000
1000
0000
0001
0000
0010
1000
,
0001
0000
0100
0000
1000
0100
0001
0000
1000
0000
0001
0000
1000
0000
0100
0010
,
0001
0100
1000
0001
0010
0000
1000
0000
0100
0000
1000
0000
0001
0000
0100
0000
,
1000
0001
0100
1000
0001
0010
1000
0001
,
0010
1000
0100
0001
1000
0100
0001
0000
0100
0000
1000
0000
0001
0000
0100
0000
,
1000
0100
0001
1000
0100
0001
0010
0000
1000
0001
0000
0100
0010
0000
0100
1000
,
0001
0000
1000
0000
0001
0000
0000
0010
0000
0000
1000
0000
0001
0000
1000
0001
,
0010
0000
0100
0000
1000
0000
0000
0001
0000
0000
0100
0000
1000
0000
0001
0000
,
1000
0001
0010
1000
0100
0010
1000
0100
0001
0010
1000
0100
0001
0100
1000
0010
,
0002
0000
1003
0001
1000
0010
0100
0010
,
1001
0000
0000
0000
;
