#TITLE:Synchronized Love (J-Rap Jam);
#ARTIST:Joe Rinoie;
#MUSIC:Synchronized Love (J-Rap Jam).ogg;
#BANNER:Synchronized Love (J-Rap Jam).png;
#BACKGROUND:Synchronized Love (J-Rap Jam)-bg.png;
#SAMPLESTART:65.32;
#SAMPLELENGTH:15;
#OFFSET:-0.092;
#BPMS:0=124.126;
#DISPLAYBPM:124;
#BGSTAGE:17;

//--------------- dance-single - XLev450X-bSP ----------------
#NOTES:
     dance-single:
     XLev450X:
     Beginner:
     3:
     0,0,0,0,0:
0000
0000
0000
0000
,
0000
0000
0000
0000
,
0000
0000
0000
0000
,
0000
0000
0000
0000
,
0000
0000
0000
0000
,
0000
0000
0000
0100
,
0000
0100
0000
0100
,
0000
0000
0000
0010
,
0000
0010
0000
0010
,
0000
0000
0000
0001
,
0000
0001
0000
0001
,
0000
0000
0000
1000
,
0000
1000
0000
1000
,
0000
0000
0000
0010
,
0100
0000
0000
0010
,
0001
0000
0000
1000
,
0100
0000
0000
0001
,
1000
0000
0000
0010
,
0000
0100
0000
0010
,
0000
0000
0000
1000
,
0000
0001
0000
1000
,
0000
0000
0000
0100
,
0000
1000
0000
0100
,
0000
0000
0000
0010
,
0000
0001
0000
0010
,
0000
0000
0000
0001
,
0000
0001
0000
1000
,
0000
1000
0000
0010
,
0000
0010
0000
0100
,
0000
0100
0000
1000
,
0000
0100
0000
1000
,
0000
0001
0000
0010
,
0000
0001
0000
1001
,
0000
0000
0000
0010
,
0010
0010
0000
0100
,
0100
0100
0000
1001
,
0000
1001
0000
0010
,
0000
0100
0000
1000
,
1000
1000
0000
0001
,
0001
0001
0000
0110
,
0000
0110
0000
1000
,
0000
0001
0000
0100
,
0100
0000
0000
0010
,
0010
0000
0000
0100
,
0100
0000
0000
0010
,
0010
0010
0000
0001
,
1000
0001
0000
0010
,
0100
0010
0000
1000
,
0100
1000
0000
0001
,
0010
0001
0000
0000
;

//--------------- dance-single - XLev450X-BSP ----------------
#NOTES:
     dance-single:
     XLev450X:
     Easy:
     6:
     0,0,0,0,0:
0000
0000
0000
0000
,
0000
0000
0000
0000
,
0000
0000
0000
0000
,
0000
0000
0000
0000
,
0000
0000
0000
0000
,
0000
0000
0000
0001
,
1000
0001
0010
1000
,
0100
0001
0000
1000
,
0100
0001
1000
0001
,
0100
0010
0000
1000
,
0100
1000
0000
0010
,
0100
0010
0000
0001
,
0010
0001
0000
1000
,
0001
1000
0000
0010
,
0100
1000
0000
0002
,
0103
2000
3100
0020
,
0200
0000
0000
0330
,
0000
0000
0000
0001
,
1000
0010
0100
1000
,
0001
0000
0010
0001
0010
0000
1000
0000
,
0100
0000
1000
0000
0001
0000
0010
0100
,
0010
0000
1000
0010
1000
0000
0001
0000
,
1000
0001
0000
0100
,
0001
1000
0010
0200
,
0000
0020
0000
0000
0000
0000
0000
0000
,
0000
0000
0330
0001
,
1000
0000
0001
1000
0001
0000
0010
0000
,
0100
0000
0010
0100
0010
0000
1000
0000
,
0010
0000
1000
0010
1000
0000
0001
0000
,
0010
0000
0001
0010
0001
0000
0002
0000
,
0000
0003
0020
0000
0000
0030
0200
0000
,
0000
0300
2000
0000
0000
3000
0200
0000
,
0000
0300
0020
0000
0000
0030
2002
0000
,
0000
0000
3003
0010
,
0100
1001
0000
0100
,
0010
1001
0000
0010
,
0001
1000
0100
0010
,
0001
0000
1001
0010
,
0100
1001
0000
0100
,
0010
1001
0000
0010
,
0100
1000
0010
0100
,
0001
0000
1001
0100
,
0100
0100
0010
0100
,
0100
0010
0010
0100
,
0100
0100
0010
0100
,
0100
0010
0010
0001
,
1000
0010
0100
1000
,
0001
0000
0010
0100
0010
0000
1000
0000
,
0100
0000
0001
0000
1000
0000
0001
0010
,
0001
0000
0000
0000
0000
0000
0000
0000
1000
0000
0000
0000
0000
0000
0000
0000
2002
0000
0000
0000
0000
0000
0000
3003
0000
0000
0000
0000
0000
0000
0000
0000
;

//--------------- dance-single - XLev450X-DSP ----------------
#NOTES:
     dance-single:
     XLev450X:
     Medium:
     9:
     0,0,0,0,0:
0000
0000
0000
0000
,
0000
0000
0000
0000
,
0000
0000
0000
0000
,
0000
0000
0000
0000
,
0000
0000
0000
0000
,
0000
0000
0000
1000
,
0001
0000
0100
0001
0100
0000
1000
0000
,
0010
0000
0001
1000
0001
0000
0100
0001
,
0100
0000
1000
0100
1000
0000
0010
1000
,
0001
0000
0100
0000
0010
0000
1000
0000
0020
0000
0000
0030
0001
0000
1000
0000
,
0001
0000
1000
0000
0010
0000
0000
0100
0000
0000
0001
0000
0000
0000
1000
0000
,
0001
0000
0010
1000
0100
0001
1000
0001
,
0010
0000
1000
0000
0001
0000
0000
0100
0000
0000
1000
0000
0000
0000
0001
0000
,
1000
0000
0010
0001
1000
0000
0001
0000
,
0100
0000
1000
0001
0010
0000
0002
0000
,
0203
2300
3200
0320
,
0200
0000
0000
0000
0000
0330
1000
0000
,
0100
0001
0000
0001
,
1000
0001
0010
1000
,
0010
0000
1000
0010
1000
0000
0001
0000
,
0100
0000
1000
0000
0001
0000
1000
0001
,
1000
0000
0010
1000
0010
0000
0100
0000
,
1000
0001
0000
1000
,
0010
1000
0100
1000
,
0010
2002
0000
0000
0000
0000
0000
0000
,
0000
0000
3003
0001
,
1000
0010
0100
0001
,
1000
0010
0000
1000
,
0100
0000
0001
0000
1000
0000
0010
1000
,
0010
0000
0001
0010
0001
0000
0100
0000
,
1000
0001
0000
0010
,
1000
0100
0000
0001
,
1000
0000
0010
0000
0100
0000
2000
3100
,
0002
0000
0013
0000
0200
0000
1300
0000
1002
0000
0000
0003
0100
0000
0000
0000
,
0010
0001
0100
0000
0000
0000
0010
1000
,
0001
0001
0000
0100
,
1000
0000
0100
0000
0010
0000
0001
1000
,
0100
0000
1001
0100
,
0010
1000
0100
0000
0000
0000
0010
0001
,
1000
0000
0100
0000
0000
0000
0010
0001
,
0100
0000
0010
1000
0010
1000
0001
0000
,
0001
0000
1001
0100
,
0000
0010
0000
1000
,
0100
0000
0010
0001
1000
0000
0100
0000
,
0000
0010
0000
0001
,
0001
0000
1000
0100
1000
0100
0001
0000
,
1000
0000
0010
1000
0010
0000
0001
0000
,
0100
0000
1000
0001
1000
0000
0010
1000
,
0010
0000
0001
0010
0001
0000
0100
0001
,
1000
0000
0000
0000
0010
0000
0000
0000
0100
0000
0000
0000
0001
0000
0000
0000
0200
0000
0000
0000
0000
0000
0000
0300
0000
0000
0000
0000
0000
0000
0000
0000
;

//--------------- dance-single - XLev450X-ESP ----------------
#NOTES:
     dance-single:
     XLev450X:
     Hard:
     13:
     0,0,0,0,0:
0000
0000
0000
0000
,
0000
0000
0000
0000
,
0000
0000
0000
0000
,
0000
0000
0000
0000
,
0000
0000
0000
0000
,
0000
0000
0000
0000
0000
0000
1000
0001
,
0100
0000
1000
0100
0000
0001
0100
0000
0010
1000
0010
0000
0001
0000
1000
0000
,
0100
0000
0001
1000
0000
0001
0100
0000
0001
0100
0001
1000
0010
0000
0001
0000
,
1000
0000
0100
1000
0000
0001
0100
0000
0010
0000
0001
0000
1000
0000
0100
1000
,
0010
0001
0100
0000
0001
1000
0010
0100
0002
0000
0003
0000
0001
0000
1000
0000
,
0010
0000
0100
0000
0001
0000
0000
0100
0000
0000
0010
0000
0000
0000
1000
0000
,
0001
0000
0010
0000
0001
0000
0010
0001
0010
0000
1000
0000
0100
0000
0001
0000
,
1000
0000
0010
0000
1000
0000
0000
0100
0000
0000
0010
0000
0000
0000
0010
0000
,
1000
0000
0010
0000
0001
0010
0001
0000
1000
0000
0001
0000
0100
0000
1000
0000
,
0001
0000
0010
0000
1000
0001
1000
0000
0010
0000
1000
0000
0002
0000
0103
0000
,
2000
0000
3010
0000
2000
0000
3001
0000
0200
0000
0310
0000
0002
0000
0013
0100
,
1000
0000
0100
0000
0001
0000
1000
0000
0010
0000
0001
0000
0010
0000
0001
0010
,
0001
0000
1000
0010
1000
0000
0001
0000
0200
0000
0310
0000
0001
0000
1000
0000
,
0001
0000
1000
0000
0001
0000
0000
0101
0000
0000
0220
0000
0330
0000
0001
0000
,
1000
0000
0010
0000
1000
0000
0001
0010
0001
0000
1000
0000
0100
0000
1000
0000
,
0001
0000
0010
0000
1000
0000
0000
0010
0000
0000
0200
0000
0300
0000
1000
0000
,
0100
0000
0001
0000
0020
0000
0130
0000
1000
0000
0000
0200
0000
0000
0000
0000
,
0310
0000
0000
0000
0001
0000
1000
0000
0001
0000
0000
0000
0010
0000
0000
1000
,
0000
0000
0001
0000
1000
0000
0000
0010
0000
0000
1000
0000
0020
0000
0030
0000
,
0200
0020
0000
0000
0000
0000
0000
0000
,
0000
0000
0000
0000
0000
0000
0000
0000
0000
0330
0000
0000
0001
0000
0000
0000
,
1000
0000
0010
0000
0100
0000
0001
0010
,
0001
0000
1000
0000
0010
0000
1000
0010
1000
0000
0001
0000
0100
0000
1000
0000
,
0001
0000
0010
0000
1000
0000
0001
0000
0100
0000
0001
0000
1000
0001
1000
0000
,
0010
0000
1000
0000
0010
0100
0010
0000
0001
0000
1000
0000
0010
0000
0000
0000
,
0001
0000
0010
0000
1000
0000
0001
1000
0001
0000
1000
0000
0010
0000
1000
0000
,
0010
0000
1000
0000
0010
1000
0010
0000
0001
0000
0010
0000
0001
0010
0001
0000
,
1000
0000
0010
0000
1000
0010
1000
0000
0001
0000
0100
0000
0001
1000
0010
1000
,
0100
0001
0100
0010
1000
0100
0001
1000
0020
0000
0030
0000
0100
0000
0010
0000
,
0001
1000
0010
0100
0001
1000
0100
0001
,
0100
1000
0010
0100
0001
1000
0100
0010
,
0001
1000
0010
0100
0001
1000
0100
0010
,
0002
0000
0000
0003
2200
3300
0001
0100
,
0010
1000
0001
0010
0100
1000
0010
0001
,
0010
1000
0001
0010
0100
1000
0001
0100
,
0010
1000
0001
0010
0100
1000
0002
0100
,
0203
0000
0000
0300
2200
3300
0020
0001
,
0031
0000
2000
0010
0010
3010
0000
0100
,
0001
1000
0100
0010
0001
1000
0020
0100
,
0130
0000
0002
1000
1000
1003
0000
0100
,
0010
0001
0100
0010
1000
0100
0001
1000
,
0010
0000
0001
0010
0000
1000
0010
0000
0100
0001
0100
0000
1000
0000
0001
0000
,
0010
0000
1000
0001
0000
1000
0010
0000
1000
0010
1000
0001
0100
0000
1000
0000
,
0001
0000
0010
0001
0000
1000
0010
0000
0100
0000
1000
0000
0001
0000
0010
0001
,
0100
0000
1000
0000
0010
0000
0000
0000
1000
0000
0001
0000
0100
0000
0010
0000
2000
0000
0000
0000
0000
0000
0000
3000
0000
0000
0000
0000
0000
0000
0000
0000
;
