#TITLE:素直になれたら (RGR-Special);
#TITLETRANSLIT:Sunao ni naretara (RGR-Special);
#MUSIC:Sunao ni naretara (RGR-Special).ogg;
#BANNER:Sunao ni naretara (RGR-Special).png;
#BACKGROUND:Sunao ni naretara (RGR-Special)-bg.png;
#CDTITLE:./CDTITLES/jubeat ripples.png;
#SAMPLESTART:21.735;
#SAMPLELENGTH:15;
#BPMS:0=98;
#BGSTAGE:4;

//--------------- dance-single - XLev450X -愛- ----------------
#NOTES:
     dance-single:
     XLev450X -愛-:
     Challenge:
     13:
     0,0,0,0,0:
0000
0000
0000
0000
,
0000
0000
0000
0000
,
0000
0000
0000
0000
,
0000
0000
0000
0000
,
0000
0000
0000
0000
,
0000
0000
0000
0000
,
0000
0000
0000
0000
,
0000
0000
0000
0000
,
0000
0000
0000
0000
,
0001
0000
1000
0000
0010
0000
1000
0000
0001
0000
0010
0001
0010
0000
1000
0000
,
0010
0000
0000
0000
0100
0000
0000
0000
0001
0000
1000
0000
0000
0000
0010
0000
0100
0000
0000
0010
0000
0000
0100
0000
0001
0000
0000
0000
0010
0000
0000
0000
,
0001
0000
0010
0001
1000
0010
0001
0000
1000
0000
0001
0010
0001
0000
1000
0000
,
0001
0000
0000
0000
0000
0000
1000
0000
0010
0000
0000
0000
0100
0000
0000
0000
0001
0000
0000
0000
1000
0000
0000
0000
0202
0303
0000
0000
0100
0000
0001
0000
,
1000
0000
0010
0000
1000
0000
0010
0001
0010
0000
1000
0000
0001
0000
1000
0000
,
0010
0000
0100
0000
0001
0000
0010
0000
1000
0000
0001
0010
0001
0000
1000
0000
,
0010
0000
0000
0000
1000
0000
0000
0000
0010
0000
0000
0000
0100
0000
0000
0000
0000
0000
0000
0000
0001
0000
0000
0000
1000
0000
0000
0010
0000
0000
0100
0000
,
0001
1000
0010
0000
0000
0000
0001
0100
1000
0000
0000
0000
0001
0010
0001
0000
0000
0000
1000
0100
1000
0000
0000
0000
0010
0100
0010
0000
0001
0000
0100
0000
,
1000
0000
0010
1000
0000
0010
0000
0100
0000
0001
0000
0010
0000
1000
0000
0010
,
0000
0001
0000
1000
0000
0010
0000
1000
0001
0100
0010
0000
2002
3003
0100
0001
,
0010
0000
1000
0000
0010
0000
0100
0001
0010
0000
1000
0001
0000
0100
0000
1000
,
0000
0010
1000
0000
0010
0000
0100
0000
0001
0000
1000
0000
0101
0000
0010
0000
,
1000
0000
0010
1000
0010
0000
0001
0100
1000
0001
0000
1000
0000
0010
0000
0101
,
0000
1010
0000
0110
0000
1001
0000
0011
0000
0000
2200
0000
0000
0000
3300
0000
,
0001
0000
1000
0010
1000
0000
0100
0000
1000
0000
0001
0100
0001
0000
1000
0000
,
0010
1000
0100
0001
0100
0000
0010
0000
1000
0000
0000
0001
0000
0000
0100
1000
,
0010
0000
0000
1000
0000
0000
0001
0000
0100
0000
0000
0010
0000
0000
1000
0000
,
0001
0000
0000
0000
0000
0000
0100
0000
0000
0000
0000
0000
0010
0000
0000
0000
1000
0000
0000
0000
0001
0000
0000
0000
0010
0000
1000
0100
0010
0000
0001
0000
,
1000
0000
0000
0001
0000
0000
1000
0000
0010
0000
0000
0100
0000
0000
0001
0100
,
1000
0000
0000
0001
0000
0000
0100
0000
0020
0000
0000
0000
0031
0000
1000
0001
,
0010
0000
0000
1000
0000
0000
0001
0000
0100
0000
0010
0001
0000
0000
1000
0000
,
0001
0000
0100
0010
0000
1000
0000
0001
0000
0000
0000
0000
0100
0000
1000
0000
,
0010
0000
0000
1000
0000
0000
0001
0000
0100
0000
0000
0010
0000
0000
1000
0100
,
0001
0000
0020
0000
0200
0000
0000
0000
0000
0000
0000
0000
0330
0000
1000
0001
,
0100
0000
0001
1000
0000
0010
0000
0100
0000
0000
0001
0000
0010
0000
1000
0000
,
0001
0000
0000
0000
0000
0000
0100
0000
0010
0000
0000
0000
0000
0000
1000
0000
0010
0000
0000
0100
0000
0000
0001
0000
1000
0000
0000
0000
0001
0000
1000
0000
,
0010
0001
0100
1000
0001
1000
0000
0010
0000
0000
0100
0000
0001
0000
1000
0001
,
0010
0000
0000
1000
0000
0000
0001
0000
0200
0000
0300
0000
1001
0000
0010
1000
,
0001
0000
1000
0000
0001
0000
2000
0000
0000
0000
3010
0000
0200
0000
0000
0300
,
0002
0000
1003
0010
0200
0000
1300
0001
,
0100
0000
0000
0000
0010
0000
0000
0000
1000
0000
0000
0000
0002
0000
0000
0000
0000
0000
0000
0000
0103
0000
0000
0000
0010
0000
0000
1000
0000
0000
0001
0000
,
0100
1000
0100
0000
0000
0000
0010
0001
0010
0000
0000
0000
0010
0100
0010
0000
0000
0000
0010
0001
0010
0000
0000
0000
1000
0100
2000
0000
0000
3000
0000
0000
;
