#TITLE:砂の惑星;
#ARTIST:ハチ feat. 初音ミク;
#TITLETRANSLIT:Suna no Wakusei;
#ARTISTTRANSLIT:Hachi feat. Hatsune Miku;
#MUSIC:Suna no Wakusei.ogg;
#BANNER:Suna no Wakusei.png;
#BACKGROUND:Suna no Wakusei-bg.png;
#SAMPLESTART:53.043;
#SAMPLELENGTH:15;
#OFFSET:-0.207;
#BPMS:0=190;
#BGSTAGE:31;

//--------------- dance-single - XLev450X-bSP ----------------
#NOTES:
     dance-single:
     XLev450X:
     Beginner:
     2:
     0,0,0,0,0:
0000
0000
0000
0000
,
0000
0000
0000
0000
,
0000
0000
0000
0000
,
0000
0000
0000
0000
,
0000
0000
0000
0000
,
0000
0000
0000
0000
,
0000
0000
0000
0000
,
0000
0000
0000
0000
,
0000
0000
0000
0000
,
0000
0000
0000
0000
0000
0000
0000
0001
,
0000
0000
0000
1000
0000
0000
0000
0001
,
0000
0000
0000
0000
0000
0000
0000
0010
,
0000
0000
0000
0100
0000
0000
0000
0010
,
0000
0000
0000
0000
0000
0000
0000
1000
,
0000
0000
0000
0010
0000
0000
0000
1000
,
0000
0000
0000
0000
0000
0000
0000
0001
,
0000
0000
0000
1000
0000
0000
0000
0001
,
0000
0000
0000
0000
0000
0000
0000
0001
,
0000
0000
0000
0001
0000
0000
0000
0000
,
0000
0000
0000
0000
0000
0000
0000
1000
,
0000
0000
0000
1000
0000
0000
0000
0000
,
0000
0000
0000
0000
0000
0000
0000
0010
,
0000
0000
0000
0010
0000
0000
0000
0000
,
0000
0000
0000
0000
0000
0000
0000
0100
,
0000
0000
0000
0100
0000
0000
0000
0000
,
0000
0000
0000
0000
0000
0000
0000
1000
,
0000
0000
0000
0100
0000
0000
0000
0000
,
0000
0000
0000
0000
0000
0000
0000
0001
,
0000
0000
0000
0010
0000
0000
0000
0000
,
0000
0000
0000
0000
0000
0000
0000
1000
,
0000
0000
0000
0001
0000
0000
0000
0000
,
0000
0000
0000
0000
0000
0000
0000
0010
,
0000
0000
0000
0100
0000
0000
0000
0000
,
0000
0000
0000
0000
0000
0000
0000
0010
,
0000
0000
0000
0000
0000
0000
0000
0001
,
0000
0000
0000
0000
0000
0000
0000
1000
,
0000
0000
0000
0000
0000
0000
0000
0100
,
0000
0000
0000
0000
0000
0000
0000
0010
,
0000
0000
0000
0000
0000
0000
0000
0001
,
0000
0000
0000
0000
0000
0000
0000
1000
,
0000
0000
0000
0000
0000
0000
0000
0100
,
0000
0000
0000
0000
0000
0000
0000
0001
,
0000
0000
0000
0001
0000
0000
0000
0000
,
0000
0000
0000
0000
0000
0000
0000
0010
,
0000
0000
0000
0010
0000
0000
0000
0000
,
0000
0000
0000
0000
0000
0000
0000
0100
,
0000
0000
0000
0100
0000
0000
0000
0000
,
0000
0000
0000
0000
0000
0000
0000
1000
,
0000
0000
0000
1000
0000
0000
0000
0000
,
0000
0000
0000
0000
0000
0000
0000
0001
,
0000
0000
0000
0000
0000
0000
0000
0001
,
0000
0000
0000
0000
0000
0000
0000
0001
,
0000
0000
0000
0000
,
0000
0000
0000
0000
0000
0000
0000
1000
,
0000
0000
0000
0000
0000
0000
0000
1000
,
0000
0000
0000
0000
0000
0000
0000
1000
,
0000
0000
0000
0000
,
0000
0000
0000
0000
0000
0000
0000
0010
,
0000
0000
0000
0000
0000
0000
0000
0100
,
0000
0000
0000
0000
0000
0000
0000
0010
,
0000
0000
0000
0000
,
0000
0000
0000
0000
0000
0000
0000
0001
,
0000
0000
0000
0000
,
0000
0000
0000
0000
0000
0000
0000
1000
,
0000
0000
0000
0000
,
0000
0000
0000
0000
0000
0000
0000
0100
,
0000
0000
0000
0000
,
0000
0000
0000
0000
0000
0000
0000
0010
;

//--------------- dance-single - XLev450X-BSP ----------------
#NOTES:
     dance-single:
     XLev450X:
     Easy:
     4:
     0,0,0,0,0:
0000
0000
0000
0000
,
0000
0000
0000
0000
,
0000
0000
0000
0000
,
0000
0000
0000
0000
,
0000
0000
0000
0000
,
0000
0000
0000
0000
,
0000
0000
0000
0000
,
0000
0000
0000
0000
,
0000
0000
0000
0000
,
0000
0000
0000
0000
0000
0000
0000
0001
,
0000
0000
0000
1000
0000
0000
0000
0001
,
0000
0000
0000
0010
0000
0000
0000
0100
,
0000
0000
0000
0010
0000
0000
0000
1010
,
0000
0000
0000
0000
0000
0000
0000
0001
,
0000
0000
0000
1000
0000
0000
0000
0001
,
0000
0000
0000
0100
0000
0000
0000
0010
,
0000
0000
0000
0100
0000
0000
0000
0011
,
0000
0000
0000
0000
0000
0000
0000
0001
,
0000
0000
0000
0001
0000
0000
0000
1000
,
0000
0000
0000
1000
0000
0000
0000
0010
,
0000
0000
0000
0100
0000
0000
0000
0010
,
0000
0000
0000
0000
0000
0000
0000
1000
,
0000
0000
0000
0100
0000
0000
0000
0010
,
0000
0000
0000
0001
0000
0000
0000
1000
,
0000
0000
0000
0001
0000
0000
0000
1000
,
0000
0000
0000
0000
0000
0000
0000
0010
,
0000
0000
0000
1000
0000
0000
0000
0100
,
0000
0000
0000
0010
0000
0000
0000
0100
,
0000
0000
0000
0001
0000
0000
0000
1000
,
0000
0000
0000
0000
0000
0000
0000
0010
,
0000
0000
0000
1000
0000
0000
0000
0010
,
0000
0000
0000
0100
0000
0000
0000
0001
,
0000
0000
0000
1000
0000
0000
0000
0001
,
0000
0000
0000
0000
0000
0000
0000
0101
,
0000
0000
0000
0000
0000
0000
0000
1010
,
0000
0000
0000
0000
0000
0000
0000
0110
,
0000
0000
0000
0000
0000
0000
0000
0011
,
0000
0000
0000
0000
0000
0000
0000
1001
,
0000
0000
0000
0000
0000
0000
0000
1010
,
0000
0000
0000
0000
0000
0000
0000
0101
,
0000
0000
0000
0000
0000
0000
0000
1001
,
0000
0000
0000
0000
0000
0000
0000
0001
,
0000
0000
0000
1000
0000
0000
0000
0001
,
0000
0000
0000
0010
0000
0000
0000
1000
,
0000
0000
0000
0100
0000
0000
0000
0001
,
0000
0000
0000
0000
0000
0000
0000
0100
,
0000
0000
0000
0010
0000
0000
0000
1000
,
0000
0000
0000
0010
0000
0000
0000
0100
,
0000
0000
0000
0001
0000
0000
0000
1000
,
0000
0000
0000
0000
0000
0000
0000
0001
,
0000
0000
0000
1000
0000
0000
0000
0010
,
0000
0000
0000
1000
0000
0000
0000
0100
,
0000
0000
0000
0001
0000
0000
0000
1000
,
0000
0000
0000
0000
0000
0000
0000
0010
,
0000
0000
0000
0100
0000
0000
0000
0010
,
0000
0000
0000
1000
0000
0000
0000
0010
,
0000
0000
0000
0001
0000
0000
0000
1000
,
0000
0000
0000
0000
0000
0000
0000
0001
,
0000
0000
0000
0100
0000
0000
0000
1000
,
0000
0000
0000
0001
0000
0000
0000
0100
,
0000
0000
0000
0010
0000
0000
0000
1000
,
0000
0000
0000
0110
0000
0000
0000
0002
,
0000
0000
0000
0010
0000
0000
0000
0010
,
0000
0000
0000
0020
0000
0033
0000
0020
,
0000
0000
0000
0100
0000
0000
0000
0100
,
0000
0000
0000
0200
0000
0330
0000
0200
,
0000
0000
0000
1000
0000
0000
0000
1000
,
0000
0000
0000
2000
0000
3300
0000
2000
,
0000
0000
0000
0001
0000
0000
0000
0001
,
0000
0000
0000
0002
0000
0000
3003
0000
;

//--------------- dance-single - XLev450X-DSP ----------------
#NOTES:
     dance-single:
     XLev450X:
     Medium:
     8:
     0,0,0,0,0:
0000
0000
0000
0000
,
0000
0000
0000
0000
,
0000
0000
0000
0000
,
0000
0000
0000
0000
,
0000
0000
0000
0000
,
0000
0000
0000
0000
,
0000
0000
0000
0000
,
0000
0000
0000
0000
,
0000
0000
0000
0000
,
0000
0000
0000
0000
0000
0000
0000
0001
,
0000
0000
0000
1000
0000
0010
0000
1000
,
0000
0000
0000
0010
0000
0100
0000
0001
,
0000
1000
0000
0001
0000
0010
0000
1000
,
0000
0000
0000
0001
0000
0010
0001
0010
,
0000
1000
0000
0100
0000
1000
0000
0001
,
0000
0000
0000
1000
0000
0100
0000
0010
,
0000
1000
0000
0001
0000
1000
0010
1000
,
0000
0010
0000
1000
0000
0001
0000
1000
,
0000
0000
0000
0001
0000
0000
0000
1000
,
0000
0010
0000
0100
0000
0001
0000
0001
,
0000
0000
0000
1000
0000
0000
0000
0010
,
0000
0100
0000
1000
0010
0000
0000
1000
,
0000
0000
0000
0001
0000
0000
0100
0001
,
0000
1000
0000
0010
0000
0000
1000
0010
,
0000
0100
0001
0000
1000
0000
0010
0000
,
0000
2000
0000
0001
0001
3001
0000
0100
,
0000
1000
0001
0000
0100
0010
1000
0001
,
1000
0010
0000
1000
0100
0000
0000
0001
,
0000
1000
0001
0000
0010
0100
1000
0001
,
1000
0010
0001
0100
1000
0000
0000
0010
,
0000
0001
0010
0000
1000
0000
0010
1000
,
0000
0001
0000
0100
0000
0000
0001
1000
,
0000
0010
0100
0000
0001
0000
2000
0000
,
0000
0000
3000
0000
0001
1000
0001
0000
,
0010
1000
0010
0000
0010
0100
0010
0000
,
0001
0010
0001
0000
1000
0010
1000
0000
,
0010
0100
0010
0000
0001
0010
0001
0100
,
0000
2000
0000
3001
0010
1000
0010
0000
,
0001
0010
0001
0000
1000
0010
1000
0000
,
0010
0100
0010
0000
1000
0001
1000
0000
,
0001
1000
0010
0000
1000
0010
1000
2002
,
3003
0022
0033
2002
3003
0202
0303
0001
,
0000
1000
0000
0010
0000
0100
1000
0001
,
0000
0100
0000
0000
0010
0000
0000
0000
1000
0000
0001
0000
1000
0000
0000
0000
,
0010
1000
0010
0000
0100
1000
0001
0100
,
0000
1000
0000
0000
0020
0000
0000
0000
0130
0000
0000
0000
0001
0000
2000
0000
,
0000
3000
0010
0000
1000
0100
1000
0001
,
0000
1000
0000
0000
0010
0000
0000
0000
1000
0000
0001
0000
1000
0000
0000
0000
,
0001
1000
0010
0000
0100
1000
0001
1000
,
0000
0010
0000
0000
0002
0000
0000
0000
1003
0000
1000
0000
0000
0000
1000
0000
,
0000
0001
0000
0100
0000
0010
0001
1000
,
0000
0010
0000
0000
0100
0000
0000
0000
0001
0000
1000
0000
0001
0000
0000
0000
,
0100
0001
0100
0000
0010
0001
1000
0010
,
0000
0001
0000
0000
0200
0000
0000
0000
0000
0000
0000
0000
0000
0000
0310
0000
,
0000
0001
0000
1000
0010
1000
0010
0000
,
0100
0000
1000
0000
0001
0010
0001
0000
,
1000
0100
1000
0000
0001
0000
1000
0000
,
0001
1000
0010
1000
0000
0010
0000
0001
,
0000
1000
0000
0100
0000
1000
0001
0000
,
1000
0000
0010
0000
1000
0010
1000
0001
,
0000
0010
0001
0000
1000
0000
0001
0000
,
0100
1000
0100
0002
0000
0103
0000
0001
,
0000
1000
0000
0001
0000
0010
1000
0010
,
0000
0001
0000
0010
0000
0100
0000
1000
,
0000
0001
1000
0001
0000
0010
1000
0010
,
0000
0001
0000
2002
0000
3003
0000
0100
,
0000
1000
0000
0010
0000
1000
0010
1000
,
0000
0001
0000
0200
0000
0300
0000
0001
,
0000
1000
0000
0010
0000
0100
0010
0100
,
0000
0010
0000
0001
0000
1001
0000
0000
;

//--------------- dance-single - XLev450X-ESP ----------------
#NOTES:
     dance-single:
     XLev450X:
     Hard:
     12:
     0,0,0,0,0:
0000
0000
0000
0000
,
0000
0000
0000
0000
,
0000
0000
0000
0000
,
0000
0000
0000
0000
,
0000
0000
0000
0000
,
0000
0000
0000
0000
,
0000
0000
0000
0000
,
0000
0000
0000
0000
,
0000
0000
0000
0000
,
0000
0000
0000
0000
0000
0000
0000
0001
,
0000
1000
0010
0000
1000
0000
0100
0000
,
1000
0000
0000
0000
0001
1000
0001
0000
0010
0000
2002
0000
3003
0000
0001
0000
,
0000
1000
0010
0000
0100
0000
1000
0000
,
0001
0000
0000
0000
0001
0010
0001
0000
0100
0000
2020
0000
3030
0000
0010
0000
,
0000
1000
0100
0000
1000
0000
0001
0000
,
1000
0000
0000
0000
0010
1000
0010
0000
0010
0000
0202
0000
0303
0000
0100
0000
,
0000
1000
0001
0000
0100
0000
1000
0000
,
0010
0000
0000
0000
0100
0010
0100
0000
0001
0000
2020
0000
3030
0000
0001
0000
,
0000
1000
0010
0000
1000
0010
0100
0001
,
1000
0010
1000
0001
0200
0310
0010
1000
,
0000
0010
1000
0000
0001
0010
0001
1000
,
0010
0100
1000
0001
0020
0130
0100
1000
,
0000
0001
1000
0000
0010
0000
1000
0100
,
0000
0001
1000
0001
2000
3010
0010
1000
,
0000
0001
0100
0000
0202
0303
2020
0000
,
0000
0000
3030
0001
1001
0001
1001
0001
,
0000
1000
0010
0000
0100
1000
0100
0001
,
1000
0000
0010
0000
1000
0000
0001
0000
0200
0000
0310
0000
1000
0100
0001
0000
,
0010
0010
0002
0013
1000
0010
1000
0100
,
1000
0000
0001
0000
1000
0000
0010
0000
0200
0000
0301
0000
1000
0100
0002
0000
,
0013
0100
1000
0100
0010
0001
0100
2000
,
3000
0000
0001
0000
1000
0000
0010
0000
2000
0000
3000
0000
0001
0100
1000
0000
,
0001
0010
0100
0000
2020
3030
0202
0000
,
0303
0000
0000
1000
0001
1000
0010
0000
,
0100
1000
0100
0000
0001
0010
0001
0000
,
1000
0001
0100
0000
0001
1000
0020
0030
,
1000
0010
0100
1000
0001
0010
0200
0000
,
0000
0000
0300
0001
1000
0010
1000
0000
,
0100
1000
0100
0000
0001
0010
0001
0000
,
1000
0010
0100
0000
1000
0001
1000
0000
,
0010
0100
1000
0000
0001
0010
0001
2002
,
3003
2002
3003
2002
3003
2002
3003
0002
,
0000
0000
2000
3003
0001
0100
1000
0001
,
0000
0100
0000
0000
0010
0000
0000
0000
1000
0000
0001
0000
1000
0000
0000
0000
,
0010
1000
0010
0000
0100
1000
0001
0100
,
0000
1000
0000
0000
0020
0000
0000
0000
0000
0000
0030
0000
0001
0000
2000
0000
,
0000
3000
0010
0000
1000
0100
1000
0001
,
0000
1000
0000
0000
0010
0000
0000
0000
1000
0000
0001
0000
1000
0000
0100
0000
,
0001
1000
0020
0030
0100
1000
0001
1000
,
0000
0010
0000
0000
0002
0000
0000
0000
1003
0000
1000
0000
0000
0000
2000
0000
,
0000
0000
0002
3003
1000
0010
0001
1000
,
0000
0010
0000
0000
0100
0000
0000
0000
0001
0000
1000
0000
0001
0000
0000
0000
,
0100
0001
0100
0000
0010
0001
1000
0010
,
0000
0001
0000
0000
0200
0000
0000
0000
0000
0000
0000
0000
0300
0000
2002
0000
,
3003
0010
0000
1000
0010
1000
0001
0000
,
0100
1000
0001
0100
1000
0001
0100
0001
,
0000
0010
1000
0000
0001
0000
2000
0000
,
0000
0000
0000
3001
0010
1000
0020
0130
,
0000
0010
0000
0100
1000
0001
1000
0000
,
0010
0001
0100
0000
1000
0001
1000
0010
,
0000
1000
0100
0000
0001
0000
2000
0000
,
3100
0010
0001
0020
0000
0130
0000
0002
,
0000
1000
0000
1000
0000
1000
0000
1000
,
0000
1000
0000
1000
0000
2000
3003
0020
,
0000
0100
0000
0100
0000
0100
0000
0100
,
0000
0100
0000
0100
0000
0200
0330
2000
,
0000
0001
0000
0001
0000
0001
0000
0001
,
0000
0001
0000
0001
0000
0002
3003
0020
,
0000
0001
0000
0001
0000
0001
0000
0001
,
0000
0001
0000
0001
0000
0002
0033
0000
;
