#TITLE:Suit & Tie;
#ARTIST:Justin Timberlake;
#GENRE:POP;
#MUSIC:Suit & Tie.ogg;
#BANNER:Suit & Tie.png;
#BACKGROUND:Suit & Tie-bg.png;
#SAMPLESTART:39.345;
#SAMPLELENGTH:15;
#OFFSET:-0.080;
#BPMS:0=102;
#BGSTAGE:17;

//--------------- dance-single - XLev450X-bSP ----------------
#NOTES:
     dance-single:
     XLev450X:
     Beginner:
     3:
     0,0,0,0,0:
0000
0000
0000
0000
,
0000
0000
0000
0000
,
0000
0000
0000
0000
,
0000
0000
0000
0000
,
0000
0000
0000
0001
,
0001
1000
0000
0010
,
1000
0010
0000
0001
,
0001
0100
0000
1000
,
1000
0001
0000
0010
,
1000
0010
0100
0001
,
1000
0001
0000
0001
,
0010
1000
0100
0010
,
0001
1000
0000
0001
,
0001
0000
0000
0100
,
0100
0000
0000
1000
,
0010
1000
0000
1001
,
0000
0000
0000
0001
,
0001
0100
0000
1000
,
1000
0010
0000
0100
,
0001
0010
0000
1000
,
0001
1000
0000
0010
,
1000
0100
0000
0010
,
1000
0010
0000
0001
,
0010
0001
0000
1000
,
1000
0100
0000
0010
,
0010
0001
0000
0100
,
1000
0001
0000
0010
,
1000
0010
0000
0100
,
0100
0010
0000
0001
,
0010
0001
0000
1000
,
0001
0100
0000
0010
,
1000
0010
0000
1001
,
0000
0000
0000
1000
,
0001
1000
0000
0010
,
1000
0010
0000
0100
,
0100
0000
0000
0010
,
0010
0000
0000
1000
,
1000
1000
0000
0001
,
0001
0001
0000
0010
,
0010
0010
0000
0001
,
0001
0000
0000
0010
,
0010
0000
0000
1000
,
1000
0000
0000
0100
,
0100
0000
0000
0010
,
0001
0000
0000
1000
,
0010
0000
0000
0100
,
1000
0000
0000
0001
,
1000
0000
0000
1001
;

//--------------- dance-single - XLev450X-BSP ----------------
#NOTES:
     dance-single:
     XLev450X:
     Easy:
     6:
     0,0,0,0,0:
0000
0000
0000
0000
,
0000
0000
0000
0000
,
0000
0000
0000
0000
,
0000
0000
0000
0000
,
0000
0000
0000
0001
,
1000
0001
0100
0010
,
1000
0010
0000
1000
,
0100
0001
0100
1000
,
0010
0100
0000
1000
,
0001
0010
1000
0100
,
0001
0010
0000
0100
,
1000
0000
0001
0000
1000
0001
1000
0000
,
0010
0000
0100
0000
1000
0000
0010
0001
,
0010
0000
0100
1000
0100
0000
0001
0000
,
1000
0010
0000
0100
,
1000
0000
0001
1000
0001
0000
1001
0000
,
0000
0000
0000
1000
,
0100
0001
0010
0100
,
1000
0000
0010
0010
0100
0000
0001
0000
,
1000
0001
0000
1000
,
0010
0100
0000
1000
,
0010
0000
0100
0001
1000
0000
0001
0000
,
1000
0000
1000
0100
0001
0000
0001
0000
,
1000
0000
0010
0100
0010
0000
1000
0000
,
0100
0101
0000
1000
,
0001
1000
0010
0100
,
0001
0000
1000
0001
1000
0000
0010
0000
,
1000
0000
0100
0000
1000
0000
0001
0001
,
1000
1000
0010
0100
0010
0000
1000
0000
,
0001
1000
0000
1000
,
0100
0001
0000
0010
,
1000
0000
0010
0001
0010
0000
1001
0000
,
0000
0000
0000
1000
,
0001
0000
0100
1000
0100
0000
0010
0000
,
1000
0000
0001
0010
1000
0100
0001
0000
,
0010
0000
1000
0100
1000
0000
0010
0000
,
0100
0000
1000
0001
0100
0010
1000
0000
,
0010
0000
1000
0000
0001
0000
1000
0100
,
1000
0000
0001
0010
0001
0000
0100
0000
,
1000
0000
0010
0100
0010
0000
0001
0000
,
0010
0000
0101
0000
1010
0000
0010
1000
,
0010
0000
0100
0000
0100
0000
0001
0010
,
0001
0000
1000
0000
1000
0000
0010
0100
,
1000
0000
0001
0010
0100
0000
1000
0000
,
0001
0100
0000
0010
,
0010
1000
0000
0001
,
1000
0000
0100
0000
0000
0000
0001
0010
,
0001
0000
1000
0100
1000
0000
2002
0000
,
0000
3003
0000
0000
;

//--------------- dance-single - XLev450X-DSP ----------------
#NOTES:
     dance-single:
     XLev450X:
     Medium:
     10:
     0,0,0,0,0:
0000
0000
0000
0000
,
0000
0000
0000
0000
,
0000
0000
0000
0000
,
0000
0000
0000
0000
,
0000
0000
0000
0001
,
1000
0000
0010
0100
0010
0000
0001
0000
,
1000
0000
0001
0100
0001
0000
0000
0000
,
0001
0000
1000
0010
1000
0000
0010
0000
,
0100
0000
0001
0001
1000
0000
0001
0001
,
1000
0000
0010
0000
0100
0000
0100
0100
,
0010
0000
1000
0001
0010
0000
1000
0000
,
0100
0000
0001
0010
1000
0000
1000
0100
,
0001
0010
0100
0000
1000
0000
0010
0000
,
1000
0001
0100
0000
0010
1000
0010
0000
,
0001
1000
0001
0010
0100
0000
1000
0001
,
0010
0000
1000
0000
0001
0000
1000
0000
0010
0000
0000
0000
0001
1000
0000
0001
,
0000
0100
0000
0010
0100
0000
0000
0000
0000
0000
0000
0000
0001
0000
1000
0000
,
0001
0000
0010
1000
0010
0100
0001
0010
,
0001
0000
0001
0001
1000
0000
1000
1000
,
0100
0001
0100
0001
1000
0000
0001
0000
,
1000
0010
1000
0000
0010
0100
0010
0001
,
0010
0000
0100
0000
1000
0000
0001
1000
,
0001
0000
0010
0000
0100
0000
1000
1000
,
1000
0000
0100
0000
0001
0010
0100
0000
,
0001
0000
1000
0001
0010
0000
0101
0000
,
1010
0000
0010
0100
0010
0000
1100
0000
,
0011
0000
1000
0001
1000
0000
0010
0100
,
0010
0000
0000
0000
1000
0000
1000
0000
0100
0000
0000
0000
0001
1000
0000
0001
,
0000
0100
0000
0010
0000
1000
0000
0010
0000
0000
0000
0000
0110
0000
0000
0000
,
0110
0011
0101
1100
,
1010
0000
0010
0100
0010
0000
1000
0001
,
0100
0000
1000
0000
0001
0000
0010
0000
0100
0000
0000
0000
1000
0001
0000
0100
,
0000
0010
0000
1000
0001
0000
0000
0000
0000
0000
0000
0000
1000
0000
0000
0000
,
0001
0100
0001
0000
0001
0000
1000
0000
,
0010
1000
0010
0100
0001
0000
0001
0000
,
1000
0001
1000
0000
0100
0000
1000
0000
,
0010
1000
0010
0100
0001
0000
0001
0000
,
1000
0000
0010
0100
0010
0000
1000
0000
,
1000
0000
0001
0010
0100
1000
0001
0000
,
0010
0000
1000
0100
0010
0000
0001
0000
,
0010
0000
1010
0000
0101
0000
1000
0001
,
1000
0000
0010
0000
0100
0000
1000
0010
,
1000
0000
0100
0000
0001
0000
0100
0001
,
0100
0000
1000
0000
0010
0000
0100
1000
,
0100
0000
0001
0000
0001
0000
1000
0001
,
1000
0010
0100
0010
0001
0000
1000
0010
,
0100
1000
0001
0010
0100
0000
1000
0001
,
1000
0000
0010
0000
0100
0000
1000
0000
0001
0000
0010
0000
1000
0001
0000
0100
,
0000
0010
0000
0100
1001
0000
0000
0000
0000
0000
0000
0000
0000
0000
0000
0000
;

//--------------- dance-single - XLev450X-ESP ----------------
#NOTES:
     dance-single:
     XLev450X:
     Hard:
     14:
     0,0,0,0,0:
0000
0000
0000
0000
,
0000
0000
0000
0000
,
0000
0000
0000
0000
,
0000
0000
0000
0000
,
0000
0000
0000
0000
0000
0000
0001
1000
,
0010
0000
1000
0000
0001
0010
0001
0000
1000
0000
0001
0000
0100
0000
0001
1000
,
0001
0000
0010
0000
1000
0000
0010
1000
0010
0000
0001
0000
0010
0000
0001
0010
,
0001
0000
0100
0000
0001
0000
1000
0001
1000
0000
0001
0000
0100
0000
0010
1000
,
0010
0000
0001
0010
0001
0000
1000
0010
1000
0000
0010
0100
0010
0000
0001
0000
,
0010
0000
1000
0000
0001
0100
0000
0001
0000
1000
0000
0010
0100
0000
1000
0000
,
0001
0000
0010
0000
0001
0000
0010
0000
0101
0000
0000
0000
0001
0000
1000
0010
,
1000
0000
0010
0000
0001
0000
0010
1000
0000
0001
0000
0000
0100
0010
0000
0000
,
1000
0000
0000
0000
0001
0000
0010
0000
0000
1000
0000
0000
0001
0000
0100
0000
,
0010
0000
1000
0001
1000
0000
0001
0010
0000
1000
0000
0000
0001
0000
0100
0000
,
0001
0000
0000
0000
1000
0000
0010
0000
1000
0000
0000
0000
0001
0000
0000
0100
,
0000
0000
0001
0000
1000
0000
0000
0010
0000
0000
1000
0000
0001
1000
0000
0001
,
0000
0100
0000
0010
1000
0000
0001
0000
0000
1000
0000
0000
0010
0000
1000
0000
,
0000
0001
0100
0000
0010
0000
1000
0001
0000
0000
0000
0000
0001
0010
0001
1000
,
0001
0000
0100
1000
0001
0000
0010
1000
0000
0000
0000
0000
0010
0100
0010
0000
,
0001
0000
0010
0000
1000
0000
0001
0100
0000
0000
1000
0001
1000
0000
0001
0000
,
0100
0010
1000
0001
0010
1000
0001
0010
,
1000
0000
0100
0000
0001
0000
1000
0001
0000
0000
0100
0000
0010
0001
1000
0000
,
0010
0000
0001
0000
1000
0000
0001
0100
0000
0000
0001
0000
1000
0000
0010
0000
,
1000
0010
1000
0001
0100
0000
0001
1000
0000
0000
0001
0000
1000
0000
0010
0000
,
0100
1000
0001
0010
0101
0000
0001
1000
,
0010
0000
1000
0000
0010
0000
0000
0100
0000
0000
0001
1000
0001
0000
1000
0000
,
0010
0000
1000
0000
0010
0000
0000
0100
0000
0000
0001
1000
0001
0000
1000
0000
,
0010
0000
1000
0000
0001
0000
0010
0001
0010
0000
1000
0000
0001
0100
0000
0001
,
0000
1000
0000
0010
0000
0100
0000
0001
0000
0000
1000
0000
0010
1000
0010
0000
,
0100
0000
1000
0000
0001
0000
0000
0100
0000
0000
0010
0000
1000
0010
1000
0000
,
0010
0000
0001
0000
0100
0000
0000
0001
0000
0000
1000
0000
0001
0000
0010
0000
,
1000
0000
0000
0000
0001
0000
0010
0000
1000
0000
0001
0000
0100
0001
0000
1000
,
0000
0000
0000
0000
0010
0000
0000
0000
0000
0000
0000
0000
0100
0000
0000
0000
0010
0000
0000
0000
0000
0000
0000
0000
0000
2002
0000
0000
0000
0000
0000
0000
0000
0000
0000
0000
0000
0000
0000
0000
0000
0000
0000
3003
0000
0000
0000
0000
0001
0000
0000
0000
0010
0000
0000
0000
0000
0000
0000
0000
1000
0000
0000
0000
,
0010
0000
0000
0000
0000
0000
0000
0000
0000
0000
0000
0000
0100
0000
0000
0000
0001
0000
0000
0000
1000
0000
0000
0000
0010
0000
0000
0000
0000
0000
0000
0000
0001
0000
0000
0000
0000
0010
0000
0000
0000
0100
0000
0000
1000
0000
0000
0000
0100
0000
0000
0000
0010
0000
0000
0000
0000
0000
0000
0000
0001
0000
0000
0000
,
0010
0000
0000
0100
0000
1000
0001
0000
0010
1000
0010
1000
0001
1000
0000
0010
,
0001
0000
0000
1000
0000
0100
0010
1000
0001
1000
0001
0010
1000
0001
0000
1000
,
0010
0000
0000
0010
0001
1000
0001
0000
0010
1000
0001
1000
0010
0001
0000
0100
,
1000
0000
0000
0001
0000
0010
1000
0000
0001
0100
0010
1000
0001
1000
0000
1000
,
0001
0000
0000
0100
0000
1000
0001
0100
1000
0010
0000
0010
0100
0001
0000
0010
,
1000
0000
0000
0001
0000
1000
0010
0000
0001
0010
0100
1000
0001
0100
0000
0001
,
1000
0000
0100
0010
1000
0100
0001
0010
1000
0010
2000
0000
3100
0000
0001
0000
,
1000
0000
0010
0000
1000
0000
0100
0001
0010
0000
1000
0000
0001
0000
1000
0010
,
1000
0000
0010
0001
0010
0000
0100
0010
0100
0000
0010
0000
0001
0000
1000
0000
,
0001
0000
0010
0000
1000
0010
0100
0010
1000
0000
0001
0000
0001
0000
1000
0001
,
1000
0000
0010
0000
1000
0010
1000
0010
1000
0000
0001
0000
0010
0000
0100
0001
,
1000
0000
0010
0000
1000
0000
0010
1000
0010
0000
0001
0000
0010
0000
0100
0001
,
0100
0000
0001
0000
1000
0000
0001
1000
0001
0000
0010
0000
0001
0010
0001
0000
,
1000
0010
1000
0000
0010
0000
0100
0000
1000
0001
0010
0000
1000
0001
0000
0100
,
0000
0010
0000
0100
1001
0000
0000
0000
0000
0000
0000
0000
0000
0000
0000
0000
;
