#TITLE:Storm Taker;
#SUBTITLE:;
#ARTIST:StormTaker21;
#TITLETRANSLIT:;
#SUBTITLETRANSLIT:;
#ARTISTTRANSLIT:;
#GENRE:;
#CREDIT:;
#MUSIC:Storm Taker.ogg;
#BANNER:Storm Taker.png;
#BACKGROUND:Storm Taker-bg.png;
#CDTITLE:;
#SAMPLESTART:17.505;
#SAMPLELENGTH:15.000;
#SELECTABLE:YES;
#OFFSET:-0.323;
#BPMS:0.000=110.000;
#STOPS:;
#BGSTAGE:27;
#BGCHANGES:;
#FGCHANGES:;

//--------------- dance-single - XLev450X-bSP ----------------
#NOTES:
     dance-single:
     XLev450X:
     Beginner:
     3:
     0,0,0,0,0:
0000
0000
0000
0000
,
0000
0000
0000
0000
,
0000
0000
0000
0000
,
0000
0000
0000
0000
0000
0000
0000
0100
,
0000
0000
0000
0000
0000
0000
0000
0001
,
0000
0000
0000
0000
0000
0000
0000
1000
,
0000
0000
0000
0000
0000
0000
0000
0010
,
0000
0000
0000
0000
0000
0000
0000
1000
,
0000
1000
0000
1000
0000
0000
0000
0001
,
0000
0001
0000
0001
0000
0000
0000
0100
,
0000
0100
0000
0100
0000
0000
0000
0010
,
0000
0010
0000
0010
0000
0000
0000
0100
,
0000
0000
0000
0010
0000
0100
0000
0010
,
0000
0000
0000
1000
0000
0001
0000
1000
,
0000
0000
0000
0010
0000
0001
0000
0010
,
0000
0000
0000
0000
0000
0000
0000
1000
,
0000
0000
0000
0010
0000
0100
0000
1001
,
0000
0000
0000
0000
0000
0000
0000
0011
,
0000
0100
0000
0001
0000
0000
0000
0000
,
0000
0000
0000
0000
,
0000
0000
0000
0000
,
0000
0000
0000
0000
,
0000
0000
0000
1000
0000
1000
0000
1000
,
0000
0000
0000
0000
0000
0000
0000
0010
,
0000
0000
0000
0100
0000
0100
0000
0010
,
0000
0000
0000
0001
0000
1000
0000
0001
,
0000
0000
0000
0010
0000
0010
0000
0001
,
0000
0000
0000
0100
0000
0100
0000
1000
,
0000
0000
0000
0010
0000
0010
0000
0100
,
0000
0000
0000
1000
0000
0001
0000
1000
,
0000
0000
0000
0010
0000
0001
0000
0100
,
0000
0000
0000
0010
0000
1000
0000
0100
,
0000
0010
0000
0100
0000
0000
0000
0100
,
0000
1000
0000
0010
0000
1001
0000
0000
;

//--------------- dance-single - XLev450X-BSP ----------------
#NOTES:
     dance-single:
     XLev450X:
     Easy:
     6:
     0,0,0,0,0:
0000
0000
0000
0000
,
0000
0000
0000
0000
,
0000
0000
0000
0000
,
0000
0000
0000
0000
0000
0000
0000
1000
,
0100
1000
0000
0010
0001
0010
0000
0100
,
1000
0100
0000
0010
0001
0010
0000
0000
,
0000
0110
0000
0000
0000
1001
0000
0010
,
0000
0100
0000
0001
0000
1000
0000
0010
,
0000
0000
0000
0000
0000
0000
0000
0100
,
0000
0010
0000
1000
0000
0010
0000
0100
,
0000
0000
0000
0000
0000
0000
0000
0010
,
0000
0001
0000
0010
0001
0010
0000
0100
,
0000
0000
0000
0000
0000
0000
0000
1000
,
0000
0010
0000
0100
0010
1000
0010
0100
,
0000
0000
0000
0010
0000
0100
0000
0010
,
1000
0001
0100
0010
0001
1001
0000
0110
,
0001
1000
0010
0100
0001
0010
0000
0000
,
0000
0000
0000
0000
0000
0000
0000
1000
,
0000
0010
0000
0100
0000
0001
0000
1000
,
0000
1000
0000
1000
0000
1000
0000
0010
,
0000
0100
0000
0100
0000
0010
2002
0000
,
0000
0000
0000
0000
,
0000
0000
3003
0010
0000
0100
0000
0001
,
1000
0010
0100
0001
1000
0010
0000
0100
,
0000
1000
0000
0100
1000
0100
0000
0000
,
0000
0010
0000
0001
0010
0001
0000
0100
,
0000
0010
0000
1000
0010
0100
0000
0000
,
0001
1000
0000
0010
0100
0001
0000
0100
,
0000
0010
0000
0010
0000
0010
0000
0100
,
0000
1000
0000
0010
0000
0100
0000
0010
,
0000
0001
0000
0010
0000
0100
0000
1000
,
0000
0010
0000
0100
0000
0010
0000
0100
,
0000
1000
0000
0100
1000
0100
0000
0010
,
0000
0001
0000
0100
0010
2002
0000
3003
;

//--------------- dance-single - XLev450X-DSP ----------------
#NOTES:
     dance-single:
     XLev450X:
     Medium:
     11:
     0,0,0,0,0:
0000
0000
0000
0000
,
0000
0000
0000
0000
,
0000
0000
0000
0000
,
0000
0000
0000
0000
0000
0000
0000
0100
,
0010
0000
1000
0000
0010
0100
0000
0010
1000
0000
0010
0000
0100
0000
0001
0000
,
1000
0010
0000
0100
0000
0010
0000
0100
,
0010
0000
1000
0000
0000
0000
0010
0000
0100
0000
0001
0000
0000
0000
1000
0001
,
0100
0010
0001
1000
0001
0100
0010
1000
0001
0010
0100
1000
0001
0000
1000
0000
,
0010
0000
0100
0000
0000
0000
0001
0000
1000
0000
0010
0000
0100
0010
0000
0000
,
1000
0000
0001
0000
0100
0000
0010
0000
1000
0000
0001
0010
0100
0001
0000
0000
,
0010
0000
1000
0000
0001
0000
0100
0000
0010
0000
1000
0000
0000
0010
0000
0000
,
0100
0000
0001
0000
0000
0000
1000
0010
0100
0010
1000
0001
0100
0010
0001
0000
,
0000
0010
0000
0000
0100
0000
0001
0000
1000
0000
0010
0000
0100
0001
0000
0000
,
0100
0000
0010
0000
1000
0000
0010
0000
0100
0000
0001
0000
0010
0001
0000
0000
,
0100
0000
0001
0000
1000
0000
0010
0000
0100
0000
0001
0100
0010
0000
0001
0100
,
1000
0010
0100
0001
1000
0010
0100
0001
1000
0020
0000
0030
0000
0000
0100
0000
,
0001
1000
0000
0010
0100
0001
0000
0010
,
0000
0000
0100
0000
0000
0000
0010
0000
0000
0010
0000
0000
0010
0000
1000
0001
,
0000
0100
0000
0001
0010
0000
1000
0000
0001
0000
0100
0000
1000
0000
0010
0000
,
0000
0100
0000
0010
0000
1000
0000
0001
,
1000
0000
0001
0000
1000
0001
0000
1000
0001
0000
0010
0000
0100
0001
1000
0010
,
0100
0000
0000
0001
0000
0000
1000
0000
0000
0010
0000
0000
0100
0000
0000
0001
0000
0000
1000
0000
0000
0010
0000
0000
0100
0000
0000
0001
0000
0000
0100
0000
2002
0000
0000
0000
0000
0000
0000
0000
0000
0000
0000
0000
0000
0000
0000
0000
,
0000
0000
0000
0000
0000
0000
0000
0000
3003
0000
0000
0000
0000
0000
0000
0000
0000
0000
0010
0000
0000
0000
0000
0000
0100
0000
0000
0000
0000
0000
1000
0000
0000
0000
0000
0000
0001
0000
0000
0000
0000
0000
0100
0000
0000
0010
0000
0000
,
1000
0001
0100
0000
0010
1000
0001
0100
0010
0000
1000
0001
0100
0000
0010
0000
,
1000
0000
0010
0000
0000
0000
0100
0000
0010
0000
1000
0000
0010
0100
0000
0000
,
1000
0001
0100
0010
1000
0000
0100
0000
,
0010
0000
1000
0000
0001
0000
0100
0000
0010
0000
1000
0000
0001
0010
0000
0000
,
0100
0000
0001
0000
1000
0000
0010
0100
0001
1000
0010
0100
0001
1000
0010
0000
,
0000
0100
0000
0010
1000
0001
0000
0100
,
0000
0000
0010
0000
0000
0000
1000
0000
0100
0000
0010
0001
0010
0001
0010
0000
,
0000
0100
0000
1000
0010
0100
0000
1000
,
0000
0001
0000
0100
0010
1000
0000
0001
,
0000
0100
0000
0010
1000
0001
0000
0100
,
0000
0010
0000
1000
0001
2002
0000
3003
;

//--------------- dance-single - XLev450X-ESP ----------------
#NOTES:
     dance-single:
     XLev450X:
     Hard:
     15:
     0.514261,0.796767,0.040297,0.080593,0.402966,268,265,3,6,0,0,0.514261,0.796767,0.040297,0.080593,0.402966,268,265,3,6,0,0:
0000
0000
0000
0000
,
0000
0000
0000
0000
,
0000
0000
0000
0000
,
0000
0000
0000
0000
0000
0000
0000
0100
,
0001
0000
0010
0000
0001
0100
0000
1000
0001
0000
0100
0000
1000
0000
0010
0000
,
1000
0000
0100
0000
0001
0010
0000
1000
0010
0000
0100
0000
0001
0000
0010
0000
,
0000
0000
0010
0000
0000
0000
0010
0000
0000
0000
1000
0000
0000
0000
0100
1000
,
0010
1000
0001
0100
0001
0100
0010
1000
0001
0010
2002
0000
3003
0000
0100
0000
,
0010
0000
1000
0000
0001
0100
0000
1000
0001
0000
0100
0000
0010
0100
0000
0000
,
0001
0000
0010
0000
0100
0010
0000
1000
0001
0000
0010
1000
0001
0100
0000
0000
,
0010
0000
1000
0000
0010
0100
0000
1000
0100
0000
0010
0000
0001
0000
0100
0000
,
0001
0000
1000
0000
0010
0000
0010
0100
0010
0001
0100
0010
1000
0010
0100
0000
,
0001
0000
0010
0000
0001
0100
0000
1000
0010
0000
0100
0000
0001
0100
0000
0000
,
0100
0000
0010
0000
0001
0010
0000
1000
0010
0000
1000
0100
0001
1000
0000
0000
,
0100
0000
1000
0000
0001
0010
0000
1000
0010
0000
0100
0000
0001
0000
0010
1000
,
0001
0000
0000
0000
0000
0000
0000
0000
0000
0000
0000
0000
0010
0000
0000
0000
0000
0000
0000
0000
0000
0000
0000
0000
0001
0000
0000
0000
0000
0000
0000
0000
0000
0000
0000
0000
1000
0000
0000
0000
0000
0000
0000
0000
0000
0000
0000
0000
0100
0000
0000
0000
0000
0000
0000
0000
0000
0000
0000
0000
1000
0000
0000
0000
0000
0000
0000
0000
0000
0000
0000
0000
0010
0000
0000
0000
0000
0000
0000
0000
0000
0000
0000
0000
0100
0000
0000
0000
0000
0000
0000
0000
0000
0000
0000
0000
0001
0000
0000
0000
0000
0000
0000
0000
0000
0000
0000
0000
0010
0000
0000
0000
0000
0000
0000
0000
0000
0000
0000
0000
2000
0000
0000
0000
0000
0000
0000
0000
0000
0000
0000
0000
0000
0000
0000
0000
0000
0000
0000
3000
0000
0000
0000
0000
0000
0000
0000
0000
0000
0000
0000
0000
0000
0000
0000
0000
0000
0000
0000
0000
0000
0000
0000
0000
0000
0000
0000
0000
1000
0000
0000
0000
0000
0000
0000
0000
0000
0000
0000
0000
0000
0000
0000
0000
0000
0000
0000
0000
0000
0000
0000
0000
,
0100
0000
0010
0000
0100
1000
0000
0010
0001
0000
1000
0000
0220
0000
0000
0000
,
0000
0000
0000
0000
0000
0330
0000
0010
,
0001
0000
1000
0000
0010
1000
0000
0001
0100
0000
1000
0000
0001
0000
0010
0000
,
0000
0100
0000
0001
0000
0110
0000
1000
,
0100
0000
1000
0000
0010
0000
1000
0000
0100
0000
0010
0000
0001
0100
0010
0100
,
0010
0000
0000
0100
0000
0000
0001
0000
0000
0010
0000
0000
0100
0000
0000
1000
0000
0000
0100
0000
0000
0010
0000
0000
0001
0000
0000
1000
0000
0000
0001
0000
0000
0100
0000
1000
0000
0100
0000
0010
0000
0001
0000
0010
0000
0001
0000
1000
,
0000
0010
0000
0100
0000
0010
0000
1000
0000
0100
0000
0010
0000
0100
0000
1000
0000
0000
0100
0000
0000
0000
0000
0000
0001
0000
0000
0000
0000
0000
1000
0000
0000
0000
0000
0000
0010
0000
0000
0000
0000
0000
1000
0000
0000
0100
0000
0000
,
1000
0010
0100
0010
1000
0001
1000
0001
1000
0100
0010
0001
0010
0100
1000
0000
,
0001
0000
0000
0000
1000
0000
0000
0000
0100
0000
1000
0000
0000
0000
0010
0000
0001
0000
0000
0000
0100
0000
0000
0000
0010
0000
0100
0000
0010
0000
1000
0010
,
0001
0000
0010
0000
0001
0100
0000
0001
0100
0000
1000
0100
0010
0002
0000
0003
,
0100
0000
0010
0000
0001
0010
0000
1000
0010
0000
0100
0000
0010
0000
0100
0000
,
0001
0000
0100
0000
1000
0000
0100
0001
0100
0010
0100
0010
0001
0100
1000
0000
,
0100
0000
1000
0000
0100
0010
0000
1000
0001
0000
0010
0000
0001
0010
0000
0000
,
0001
0000
1000
0000
0100
0001
0000
1000
0010
0000
0100
0010
0001
1000
0010
0000
,
0100
0000
1000
0000
0100
0001
0000
1000
0001
0000
0010
0000
0100
1000
0000
0000
,
0001
1000
0001
0100
0001
1000
0010
0100
,
0001
0000
0000
0000
0000
0000
0000
0000
0000
0000
0000
0000
0000
0000
0000
0000
0000
0000
0000
0000
0000
0000
0000
0000
0100
0000
0000
0000
0000
0000
0000
0000
0000
0000
0000
0000
0000
0000
0000
0000
0000
0000
0000
0000
0000
0000
0000
0000
0010
0000
0000
0000
0000
0000
0000
0000
0000
0000
0000
0000
0001
0000
0000
0000
0000
0000
0000
0000
0000
0000
0000
0000
0000
0000
0000
0000
0000
0000
0000
0000
0000
0000
0000
0000
1000
0000
0000
0000
0000
0000
0000
0000
0000
0000
0000
0000
0020
0000
0000
0000
0000
0000
0000
0000
0000
0000
0000
0000
0000
0000
0000
0000
0000
0000
0000
0000
0000
0000
0000
0000
0000
0000
0000
0000
0000
0000
0000
0000
0000
0000
0000
0000
0000
0000
0000
0000
0000
0000
0000
0000
0000
0000
0000
0000
0000
0000
0000
0000
0000
0000
0000
0000
0000
0000
0000
0030
0000
0000
0000
0000
0000
0000
0000
0000
0000
0000
0000
0000
0001
0000
0000
0000
0000
0000
0000
0000
0000
0000
0000
0000
0000
0000
0000
0000
0000
0000
0000
0000
0000
0000
0000
0000
,
0100
0000
0000
0000
0000
0000
0010
0000
0000
0000
0000
0000
0001
0000
0000
0100
0000
0000
0000
0000
0000
1000
0000
0000
0001
0000
0000
0000
0000
0000
2020
0000
0000
0000
0000
0000
0000
0000
0000
0000
0000
0000
0000
0000
3030
0000
0000
0000
;

//--------------- dance-single - XLev450X-CSP ----------------
#NOTES:
     dance-single:
     XLev450X:
     Challenge:
     17:
     0,0,0,0,0:
0000
0000
0000
0000
,
0000
0000
0000
0000
,
0000
0000
0000
0000
,
0000
0000
0000
0000
0000
0000
0000
0010
,
1000
0000
0001
0000
0100
0010
0000
1000
0001
0000
0100
0000
0010
0000
1000
0000
,
0001
0000
0010
0000
0100
0001
0000
1000
0010
0100
0001
0010
0100
1000
0001
0000
,
1000
0000
0010
0000
0000
0000
0100
0000
0001
0000
1000
0000
0010
0000
0100
0001
,
1000
0010
0100
0001
1000
0010
0100
0001
1000
0010
0100
0001
1000
0010
0100
0000
,
0001
0000
1000
0000
0010
0100
0000
0001
1000
0000
0010
0000
0100
0001
0000
0010
,
0001
0100
1000
0000
0010
0100
0000
0001
1000
0000
0010
0100
0001
1000
0001
0000
,
0010
0000
0100
0000
1000
0001
0000
0100
0010
0000
1000
0000
0001
0100
0000
0010
,
1000
0001
0100
0000
0010
0000
1000
0001
0100
0010
1000
0001
0100
0010
1000
0000
,
0001
0000
0100
0000
1000
0001
0100
0000
0010
0000
1000
0000
0001
0100
1000
0000
,
0010
0000
1000
0000
0001
0100
0000
0010
1000
0000
0001
0100
0010
1000
0001
0000
,
0100
0000
0010
0000
1000
0001
0000
0100
0010
0000
1000
0000
0001
0000
0100
0010
,
1000
0001
0100
0010
1000
0001
0100
0010
1000
0001
0010
0000
0000
0000
1000
0000
,
0001
0000
0100
0000
0010
1000
0001
0100
1000
0000
0010
0000
0001
0010
1000
0000
,
0010
0000
0001
0000
0100
0001
0000
0100
0010
0000
0100
0000
0001
0000
0010
0000
,
0100
0000
0001
0000
1000
0010
0000
0100
0001
0000
1000
0010
0001
0000
0100
0000
,
0010
1000
0001
0010
0100
0001
0010
1000
,
0001
0000
0100
0000
0010
0000
1000
0000
0001
0000
0100
0000
0001
1000
0010
0100
,
0001
0000
0000
1000
0000
0000
0010
0000
0000
0100
0000
0000
0001
0000
0000
1000
0000
0000
0010
0000
0000
0100
0000
0000
0001
0000
0000
1000
0000
0000
0010
0000
0100
0000
0001
0000
0100
0000
0001
0000
0100
0000
0010
0000
1000
0000
0010
0000
,
0100
0000
0010
0000
1000
0000
0100
0000
1000
0000
0100
0000
0001
0000
0100
0000
0000
0000
0001
0000
0000
0000
0000
0000
1000
0000
0000
0000
0000
0000
0010
0000
0000
0000
0000
0000
0100
0000
0000
0000
0000
0000
0001
0000
0000
1000
0000
0000
,
0010
0100
0001
1000
0010
0000
0100
0001
1000
0010
0100
0000
1000
0001
0010
0000
,
0100
0000
0001
0000
1000
0010
0000
0100
0001
0000
1000
0000
0010
0100
0001
0000
,
1000
0000
0010
0100
0001
0000
1000
0000
0010
0000
0001
1000
0010
0100
0001
0000
,
1000
0000
0010
0000
0100
1000
0000
0010
0001
0000
0100
0000
0010
0000
1000
0001
,
0100
0010
1000
0000
0001
0000
0010
0100
0001
1000
0010
0100
0001
0000
1000
0000
,
0010
0000
0100
0000
0001
0000
1000
0000
0010
0000
0100
0000
0001
1000
0000
0000
,
0010
0000
0100
0000
0001
0000
1000
0010
0001
0100
0010
1000
0001
0100
0010
0000
,
1000
0000
0001
0000
0100
0010
0000
1000
0001
0000
0100
0000
0010
0000
1000
0001
,
0100
0010
1000
0000
0001
0000
0100
0010
1000
0001
0100
0000
0010
0000
1000
0000
,
0001
0000
0100
0000
0010
0000
0001
0000
1000
0010
0100
0000
0000
0001
1000
0000
,
0010
0000
0000
0000
0000
0000
0100
0000
0000
0000
0000
0000
0001
0000
0000
0000
0000
0000
1000
0000
0000
0010
0000
0000
0100
0000
0000
0001
0000
0000
1000
0000
0000
0000
0100
0000
0000
0000
0010
0000
0000
0000
0000
0000
0000
0000
0000
0000
;
