#TITLE:Stepper;
#ARTIST:PSYQUI;
#GENRE:DANCE MUSIC;
#MUSIC:Stepper.ogg;
#BANNER:Stepper.png;
#BACKGROUND:Stepper-bg.png;
#CDTITLE:./CDTitles/DANCERUSH STARDOM.png;
#SAMPLESTART:61.934;
#SAMPLELENGTH:15;
#SELECTABLE:YES;
#OFFSET:-0.059;
#BPMS:0.000=128;
#BGSTAGE:3;
#BGCHANGES:4.000=Stepper.mp4=1.000=0=0=1,
99999.000=-nosongbg-=1.000=0=0=0=StretchNoLoop====
;

//--------------- dance-single - XLev450X-bSP ----------------
#NOTES:
     dance-single:
     XLev450X:
     Beginner:
     2:
     0.157449,0.235066,0.110214,0,0,120,108,12,0,0,0,0.157449,0.235066,0.110214,0,0,120,108,12,0,0,0:
0000
0000
0000
0000
,
0000
0000
0000
0000
,
0000
0000
0000
0000
,
0000
0000
0000
0000
,
0000
0000
0000
0000
,
0010
0000
0010
0000
,
0010
0000
0000
0000
,
0100
0000
0100
0000
,
0100
0000
0000
0000
,
0001
0000
0000
0000
,
1000
0000
0000
0000
,
0100
0000
0000
0000
,
0010
0000
0000
0000
,
0001
0000
1000
0000
,
0010
0000
0000
0000
,
0100
0000
0001
0000
,
1000
0000
0000
0000
,
0001
0001
0001
0000
,
1000
1000
1000
0000
,
0010
0010
0010
0010
,
0100
0000
0100
0100
,
0001
0000
1000
1000
,
0010
0000
0100
0010
,
0100
0000
0010
0001
,
1000
0000
0010
0100
,
1001
0000
0000
0000
,
0000
0000
0000
0000
,
0110
0000
0000
0000
,
0000
0000
0000
0000
,
1001
0000
1100
0000
,
0011
0000
0110
0000
,
0001
1000
0001
0000
,
0110
0000
0000
0000
,
1001
0000
0100
0010
,
0100
0000
0010
0001
,
1000
0000
0100
0010
,
0100
0000
0010
0001
,
1000
0000
0001
0000
,
1000
0000
0010
0000
,
0100
0000
0010
0000
,
1001
0000
0000
0000
,
0010
0010
0010
0000
,
0100
0100
0100
0000
,
0001
0000
1000
0000
,
0001
1000
0001
0000
,
0100
0010
0100
0000
,
0010
0001
1000
0000
,
0100
0010
1000
0001
,
0110
0000
0000
0000
,
1001
0000
0000
0000
,
0010
0000
0000
0000
,
0100
0000
0000
0000
,
1000
0000
0000
0000
,
0001
0001
0001
0000
,
1000
1000
1000
0000
,
0010
0010
0010
0010
,
0100
0000
0000
0000
0000
0000
0000
1001
;

//--------------- dance-single - XLev450X-BSP ----------------
#NOTES:
     dance-single:
     XLev450X:
     Easy:
     5:
     0.266351,0.33954,0.211244,0.358196,0.022961,203,180,23,39,0,0,0.266351,0.33954,0.211244,0.358196,0.022961,203,180,23,39,0,0:
0000
0000
0000
0000
,
0000
0000
0000
0000
,
0000
0000
0000
0000
,
0000
0000
0000
0000
,
0000
0000
0000
0000
,
1000
0001
0010
0001
,
0010
1000
0100
1000
,
1000
0001
1000
0001
,
2002
0000
0000
0000
0000
0000
0000
0000
0000
0000
0000
0000
0000
0000
0000
0000
0000
0000
0000
3003
0000
0000
0000
0000
,
0001
1000
0010
0100
,
1001
0000
0000
0000
0110
0000
0000
0000
2002
0000
0000
0000
0000
3003
0000
0000
,
0001
0010
1000
1000
,
0002
0003
2000
3000
0002
0003
2000
3000
,
0002
1003
2000
3001
,
2002
0000
0000
0000
0000
0000
0000
3003
,
0001
1000
0001
1000
,
0002
2003
3001
0000
,
1001
0001
1001
0010
,
0100
0010
0001
0010
,
0001
1000
1000
0001
,
1000
0000
0000
0001
0000
0000
2000
0000
3000
0001
0000
0000
,
1001
1000
0001
1000
,
0001
0001
1000
1000
,
0002
2003
3002
2003
,
3001
1000
0110
0000
,
2002
0000
0000
0000
,
0000
0000
0000
0000
0000
3003
0000
0000
,
0001
0000
1000
0000
,
1000
0001
1000
0001
,
1000
0100
0010
0001
,
0001
0010
0100
1000
,
1000
0100
0001
0010
,
2002
0000
0000
3003
0110
0000
0000
0000
,
0002
0000
0010
0000
0010
0000
0010
0003
,
0001
1000
0001
0100
,
2000
0000
0100
0000
0100
0000
0100
3000
,
1000
0000
0010
0000
0220
0330
0110
0000
,
0010
1000
0100
0001
,
0010
1000
0010
0001
,
0002
0013
2000
3100
,
0002
0000
0003
0010
0000
0000
2000
0000
3000
0100
0000
0000
,
1000
1001
0110
1001
,
0110
0001
0010
1000
,
0002
0010
0100
1003
,
2000
0100
0010
3001
,
0110
0200
0320
0130
,
1000
1000
0001
0001
,
2000
0000
0100
0000
0100
0000
0100
3000
,
0002
0000
0010
0000
0010
0000
0010
0003
,
0110
0100
0000
1000
,
0110
0001
0000
0001
,
1000
0100
1000
0100
,
0010
0001
0010
0001
,
0100
0000
0010
0000
,
0100
0000
0010
0000
,
1000
0010
0001
0010
,
2002
0000
0000
0000
0000
0000
3003
0110
;

//--------------- dance-single - XLev450X-DSP ----------------
#NOTES:
     dance-single:
     XLev450X:
     Medium:
     8:
     0.351635,0.417895,0.192875,0.156137,0.009185,268,247,21,17,0,0,0.351635,0.417895,0.192875,0.156137,0.009185,268,247,21,17,0,0:
0000
0000
0000
0000
,
0000
0000
0000
0000
,
0000
0000
0000
0000
,
0000
0000
0000
0000
,
0000
0000
0000
0000
,
1000
0001
0100
0000
0010
1000
0001
0000
,
0100
0010
1000
0000
0001
0100
0010
0000
,
1000
0001
0100
0010
1000
0001
0100
0010
,
2002
0000
0000
0000
0000
0000
0000
3003
,
0010
0100
0001
0000
1000
0010
0100
0001
,
1000
0010
0100
0001
,
0010
0100
0001
0000
1000
0010
0100
0000
,
0001
1000
0010
0100
0001
0000
0011
0000
,
1000
0010
0100
0001
,
1000
0010
0100
0001
,
0010
0100
1000
0000
0001
0100
0010
0000
,
0001
0000
0100
0000
0010
1000
0001
0000
,
2010
0000
0000
0000
3000
0000
0001
0000
0000
1000
0000
0000
0010
0000
0000
0000
0000
0000
0100
0000
0000
0001
0000
0000
,
1000
0010
0100
0001
1000
0000
0010
0000
,
0100
0000
0001
0000
1000
0010
0100
0000
,
1100
0011
1001
0110
,
0001
0000
0100
0000
0010
1000
0001
0000
,
0010
0100
0001
0000
1000
0000
0010
0000
,
0100
0100
0001
1000
,
0010
0000
0100
0000
0001
1000
0010
0000
,
2002
0000
0000
0000
,
0000
0000
0000
0000
0000
0000
0000
3003
,
0010
0000
0100
0000
,
0001
1000
0001
0000
,
0010
0010
0010
0001
,
0100
0100
1000
1000
,
0010
0100
0001
1000
0010
0100
0001
1000
,
0202
0000
0000
0000
0000
0000
0000
0000
0000
0000
0303
0000
0010
0000
0000
1000
0000
0000
0001
0000
0000
0100
0000
0000
,
1001
0000
0010
0100
0001
1000
0010
0000
,
0100
0001
1000
0010
,
0001
0010
0001
0010
0001
0010
0100
0000
,
1010
0000
0101
0000
0100
0001
1000
0000
,
0020
0030
0100
0001
1000
0010
0100
0000
,
0001
1000
0010
0100
0001
0000
1000
0000
,
0010
0000
0100
0001
1000
0000
0010
0000
,
0022
0000
0000
0033
1000
0000
0010
0000
,
2200
3300
0010
0100
0001
0000
1000
0001
,
0100
0010
1000
0001
,
0100
0010
0001
1000
0010
0100
0001
0000
,
1010
0000
0011
0000
0100
0001
1000
0000
,
0020
0030
0100
1000
0001
0000
0010
0100
,
0001
1000
0010
0100
0001
0000
0010
0000
,
0100
0000
0001
1000
0010
0000
0100
0000
,
1001
0000
0110
0000
0001
1000
0010
0100
,
2002
0000
0000
0000
,
0000
0000
0000
0000
0000
0000
0000
3003
,
0001
0000
1000
0000
,
0001
0000
0100
0000
,
0010
0001
0100
0000
0010
1000
0100
0000
,
0100
0001
1000
0000
0010
0100
1000
0000
,
0001
0100
0010
1000
0001
0100
0010
1000
,
0022
0000
0000
0033
0010
0100
0010
1001
;

//--------------- dance-single - XLev450X-ESP ----------------
#NOTES:
     dance-single:
     XLev450X:
     Hard:
     14:
     0.509084,0.67908,0.18369,0.247982,0.234205,388,368,20,27,0,0,0.509084,0.67908,0.18369,0.247982,0.234205,388,368,20,27,0,0:
0000
0000
0000
0000
,
0000
0000
0000
0000
,
0000
0000
0000
0000
,
0000
0000
0000
0000
,
0000
0000
0000
0000
,
1000
0001
0100
0010
1000
0001
0100
0010
,
1000
0001
0100
0010
1000
0001
0100
0010
,
1000
0000
0100
0001
0010
0000
0100
0000
1000
0010
0100
0000
1000
0000
0100
0001
1000
0000
0010
0000
0100
0001
0010
0000
,
2002
0000
0000
0000
0000
0000
0000
0000
0000
0000
0000
0000
0000
0000
0000
0000
3003
0000
0000
0000
0000
0000
0000
0000
0010
0000
0000
0000
0000
0000
0100
0000
0000
0000
0000
0000
0001
0000
0000
0100
0000
0000
1000
0000
0000
0000
0000
0000
,
0001
0100
0001
1000
0000
0010
0100
0001
,
0000
1000
0010
0100
0001
1000
0010
0000
,
0011
1100
1001
0110
,
0010
0100
0001
1000
0010
0100
0001
0000
,
0202
0303
1000
0001
0100
0000
0010
1000
,
0001
0100
0010
1000
0001
0100
0010
0000
,
1100
0011
0110
1001
,
0010
0100
0001
1000
0010
1000
0001
0000
,
0022
0033
0100
0001
1000
0000
0010
0100
,
0001
1000
0010
0100
0001
1000
0010
1000
,
0011
0000
1100
0000
0010
0100
0001
0100
,
1000
0000
0010
0000
0100
1000
0001
0100
,
0010
0000
0100
0001
1000
0000
0100
0010
,
1000
0001
0100
0001
0010
1000
0100
0000
,
0101
0000
1000
0000
0010
0100
0001
0000
,
0100
0000
0001
0000
1000
0000
0010
0000
0100
0010
0001
0000
1000
0010
0100
0000
,
1002
0000
0010
0000
0100
0000
0010
0003
,
2000
0000
0010
0000
0001
0000
0010
3000
,
0001
0001
1000
1000
,
0010
0000
0100
0000
0010
0100
0010
0000
,
0001
1000
0010
0001
0100
0001
1000
0100
,
0010
0100
0001
0010
1000
0010
0100
0010
,
0001
0000
0010
1000
0100
0000
0010
0000
0001
0100
0010
0000
0001
0000
0100
1000
0001
0000
0010
0000
1000
0100
0010
0000
,
0002
0000
0000
0000
0000
0000
0000
0000
0000
0000
0000
0000
0000
0000
0000
0000
0000
0000
0000
0000
0003
0000
0000
0000
0010
0000
0000
0000
0000
0000
1000
0000
0000
0000
0000
0000
0010
0000
0000
0100
0000
0000
0010
0000
0000
0000
0000
0000
,
0220
0000
0000
0330
0001
0000
1000
0000
0010
0000
0100
0000
0001
0000
0100
0000
,
1000
0000
0001
0000
0100
0000
0010
0000
1000
0000
0010
0000
0001
0100
0010
1000
,
0010
0001
0100
0000
0010
0000
0001
0000
0010
0000
0001
0000
1000
0000
0000
0000
,
0010
0000
0100
0000
0001
0000
1000
0000
0010
0000
0100
0000
0001
0100
1000
0000
,
0020
0030
0001
1000
0010
0100
0010
0000
,
0001
0000
0010
0000
1000
0000
0001
0000
0100
0000
0001
0000
0010
0001
0100
0010
,
1000
0100
0001
0000
0100
0000
0010
0000
1000
0000
0001
0000
0100
0000
0000
0000
,
0020
0000
0030
0000
0200
0000
0300
0000
1000
0000
0001
0000
0100
0001
1000
0000
,
0020
0030
1000
0010
0100
0001
1000
0100
,
0001
0000
0000
0000
0010
0000
0000
0000
0100
0000
1000
0000
0010
0001
0100
0010
,
1000
0001
0100
0000
0010
0000
0100
0000
0001
0000
1000
0000
0010
0000
0000
0000
,
0010
0000
0100
0000
0001
0000
1000
0000
0010
0000
1000
0000
0100
0010
0100
0000
,
2002
3003
0010
0100
0001
1000
0010
0000
,
0100
0000
0001
0000
1000
0000
0010
0000
1000
0000
0100
0000
0001
0100
0010
1000
,
0001
0010
1000
0000
0010
0000
0100
0000
0001
0000
0100
0000
1000
0000
0000
0000
,
0010
0000
0000
0000
0100
0000
0000
0000
0001
0000
1000
0000
0010
0001
0100
0000
,
2002
0000
0000
3003
2000
0000
0000
3000
,
0200
0000
0000
0000
0000
0000
0000
0300
0020
0000
0000
0000
0000
0000
0000
0000
,
0000
0000
0000
0030
0000
0000
0000
0000
0002
0000
0000
0000
0023
0000
0000
0000
,
0230
0000
0000
0000
0000
0000
0000
0300
,
1000
0001
0100
0010
1000
0001
0100
0010
,
1000
0001
0100
0001
0010
1000
0001
0100
,
0001
0000
0010
1000
0100
0000
0010
0000
0001
0100
1000
0000
0001
0000
0010
1000
0100
0000
0010
0000
0001
0100
0010
0000
,
2002
0000
0000
0000
0000
3003
0000
0000
0100
0000
0010
0100
0010
0000
1001
0000
;

//--------------- dance-single - XLev450X-CSP ----------------
#NOTES:
     dance-single:
     XLev450X:
     Challenge:
     10:
     0,0,0,0,0:
0000
0000
0000
0000
,
0000
0000
0000
0000
,
0000
0000
0000
0000
,
0000
0000
0000
0000
,
0000
0000
0000
0000
,
2000
0100
0010
3001
,
0002
0010
0100
1003
,
1000
0001
1000
0001
,
0110
1001
0110
1001
,
0010
0200
0320
0230
,
0310
0100
0010
0100
,
0002
0023
0032
0023
0032
0023
0031
0100
,
0010
1001
0110
1001
,
0020
0030
0200
0300
1001
0000
1001
0000
,
0011
0000
1001
0000
0100
0010
1001
0000
,
0010
0010
0100
0100
,
0002
0003
2000
3000
0002
0003
2000
3000
,
MMMM
0110
0001
1000
,
0002
0023
0032
0023
0032
0003
0010
0000
,
2000
0000
3002
0000
2003
0000
3002
0003
,
2000
0001
3002
1000
2003
0001
3002
1003
,
1001
0000
0100
0000
1001
0000
0002
0010
,
0013
0100
1000
0100
0010
0100
2000
0000
,
3001
0001
1000
1000
,
0010
0000
1000
0000
0220
2332
0000
3003
,
MMMM
1000
MMMM
0100
,
2000
0000
3200
0000
0302
0000
0023
0030
,
MMMM
0001
MMMM
0010
,
0002
0000
2003
0000
3020
0000
0230
0300
,
0002
0010
0100
1003
,
2000
0100
0010
3001
,
0010
1000
0001
0100
0010
0001
0010
0000
,
0110
1001
0110
1001
,
0100
0020
0230
0320
,
0130
0010
0100
0010
,
2000
3200
2300
3200
2300
3200
0301
0010
,
1001
0110
1001
0110
,
0200
0300
0020
0030
1001
0000
1001
0000
,
1100
0000
1001
0000
0010
0100
1001
0000
,
0100
0100
0010
0010
,
0002
0003
2000
3000
0002
0003
2000
3000
,
1001
0110
0001
1000
,
0002
0203
0302
0203
0302
0003
0100
0000
,
2000
0000
3002
0000
2003
0000
3002
0003
,
2000
0001
3002
1000
2003
0001
3002
1003
,
1001
0000
0010
0000
1001
0000
2000
0010
,
3010
0100
0001
0100
0010
0100
2000
0000
,
3000
0001
1000
1000
,
0100
0000
1000
0000
2002
3223
2332
3003
,
2MMM
0010
0001
0010
,
0001
0010
0001
0010
,
3002
0100
1000
0100
,
1000
0100
1000
0100
,
1003
0100
0001
0010
,
1000
0100
0001
0010
,
0010
0100
1000
0100
0010
0001
0010
0000
,
2002
0000
0000
3003
MMMM
0000
0000
1001
;
