#TITLE:Spica;
#ARTIST:D.JW;
#GENRE:HOUSE;
#MUSIC:Spica.ogg;
#BANNER:Spica.png;
#BACKGROUND:Spica-bg.png;
#CDTITLE:./CDTitles/bm IIDX 7th style.png;
#SAMPLESTART:91.194;
#SAMPLELENGTH:15;
#OFFSET:-0.274;
#BPMS:0=128.024;
#DISPLAYBPM:128;
#BGSTAGE:16;

//--------------- dance-single - XLev450X-bSP ----------------
#NOTES:
     dance-single:
     XLev450X:
     Beginner:
     2:
     0,0,0,0,0:
0000
0000
0000
0000
,
0000
0000
0000
0000
,
0000
0000
0000
0000
,
0000
0000
0000
0000
,
0000
0000
1000
0000
,
0000
0000
0001
0000
,
0000
0000
0010
0000
,
0100
0000
1000
0010
,
0100
0001
1001
0000
,
0000
0000
0000
0000
,
0000
0000
0100
0000
,
0000
0000
0000
0000
,
0000
0000
0001
0000
,
0000
0000
0000
0000
,
0000
0000
1000
0000
,
0000
0000
0100
0000
,
0010
0010
0001
0000
,
0000
0000
0100
0000
,
0100
0100
0001
0000
,
0000
0000
1000
0000
,
0010
0100
0001
0000
,
0000
0000
1000
0000
,
1000
0000
1000
0000
,
0000
0000
0001
0000
,
0001
0000
1001
0000
,
0000
0000
0000
0000
,
0000
0000
0000
0000
,
0000
0000
0000
0000
,
0000
0000
0100
0000
,
0000
0000
0010
0000
,
0000
0000
0001
0000
,
0000
0000
1000
0000
,
0000
0000
0100
0000
,
0000
0000
0010
0000
,
0000
0000
0001
0000
,
0000
0000
1000
0000
,
0010
0100
0001
0000
,
0000
0000
0010
0000
,
0100
0000
0001
0000
,
0000
0000
1000
0000
,
0010
0000
1000
0000
,
0000
0000
0100
0000
,
0010
0000
0001
0000
,
0000
0000
0010
0000
,
1000
0000
0100
0000
,
0000
0000
0010
0000
,
0100
0000
0001
0000
,
0000
0000
1000
0000
,
0010
0000
0001
0000
,
0000
0000
0100
0000
,
0010
0000
0100
0000
,
0000
0000
0001
0000
,
1000
0000
0001
0000
,
0000
0000
0010
0000
,
0000
0000
0000
0000
,
0000
0000
0010
0000
,
0010
0000
0010
0000
;

//--------------- dance-single - XLev450X-BSP ----------------
#NOTES:
     dance-single:
     XLev450X:
     Easy:
     6:
     0,0,0,0,0:
0000
0000
0000
0000
,
0000
0000
0000
0000
,
0000
0000
0000
0000
,
0000
0000
0000
0000
,
0000
0000
1000
0010
,
0100
0000
0001
0100
,
0010
0000
1000
0001
,
0100
0000
0010
0010
,
0100
0001
1001
0000
,
0000
0000
0100
0010
,
1000
0010
0100
0000
,
0000
0000
0001
0000
,
0100
0010
1000
0000
,
0000
0000
0010
0000
,
0100
1000
0100
0000
,
0010
0000
0001
0000
,
0100
0010
1001
0000
,
0010
0000
0100
0000
,
0010
1000
0100
0010
,
0100
0000
0001
0000
,
1000
0010
0001
0000
,
0100
0010
1000
0010
,
0100
0010
0001
0000
,
1000
0000
0010
0100
,
0001
0000
1000
0000
0220
0000
0330
2002
,
0000
0000
3003
0000
0022
0000
0033
2200
,
0000
0000
3300
0000
2002
0000
3003
0220
,
0000
0000
0330
0000
2200
0000
3300
0022
,
0000
0033
1000
0010
,
0000
0000
0100
0001
,
1000
0010
0100
0000
,
0001
0000
1000
0000
,
0000
0000
0001
0100
,
0010
0000
0100
0000
,
0001
1000
0011
0010
,
0100
1000
1100
0011
,
1100
0011
0110
0000
,
0001
0000
1000
0010
,
0100
0001
0100
0000
,
0001
0000
1000
0010
,
0100
0001
1000
0000
,
0000
0000
0010
0001
,
1000
0010
0100
0000
0001
0000
0000
0000
,
0000
0000
1000
0010
,
0100
0001
1000
0010
0100
0000
0000
0000
,
0001
0100
0010
0000
,
1000
0010
0001
0000
,
1000
0010
0100
0001
,
1000
0000
0000
0000
0010
0100
0001
1000
,
0010
0100
0001
1000
0010
0000
0100
0000
,
0001
1000
0010
0000
0100
0000
0001
0000
,
1000
0010
0100
0001
,
1000
0000
0010
0000
0010
0100
0001
1000
,
0010
0100
0001
1000
0010
0000
0100
0000
,
0001
1000
0010
0000
0100
0000
0001
0000
,
1000
0010
1100
0010
,
0011
0000
1100
0000
2002
0000
0000
3003
;

//--------------- dance-single - XLev450X-DSP ----------------
#NOTES:
     dance-single:
     XLev450X:
     Medium:
     8:
     0,0,0,0,0:
0000
0000
0000
0000
,
0000
0000
0000
0000
,
0000
0000
0000
0000
,
0000
0000
0000
0000
,
0000
0000
2001
0000
,
3000
0000
0000
1000
0100
0010
0002
0000
,
0003
0000
0000
0100
2000
3000
0000
0010
,
0002
0003
0000
1000
0002
0003
0000
0001
,
0200
0300
1001
0000
0110
0000
0000
0000
,
0000
0000
0000
1000
0010
0000
0100
0000
,
0001
0000
1000
0000
0220
0000
0000
0330
,
0000
0000
0000
0010
0001
0000
0100
0000
,
1000
0001
1000
0000
,
0010
0100
0001
1000
0010
0000
0100
0000
,
0001
0010
1000
0000
,
0001
0010
1000
0100
0010
0000
0100
0000
,
1000
0010
0100
0001
1000
0000
0010
0000
,
0100
0000
0000
0001
1000
0000
0010
0000
,
0100
0000
0000
1000
0010
0000
0001
0000
,
0010
0001
1000
0100
0001
0000
0000
0010
,
1000
0000
0100
0000
0001
1000
0010
0001
,
0100
0000
0001
0010
1000
0010
0100
0000
,
0001
0000
1000
0010
0100
0000
0010
1000
,
0001
0100
0010
0000
0001
1000
0010
0100
,
0001
1000
0010
0100
2002
0000
3003
0022
,
0000
0000
0033
0000
2200
0000
3300
0022
,
0000
0000
0033
0000
2002
0000
3003
0220
,
0000
0000
0330
0000
2200
0000
3300
0220
,
0000
0000
0330
0000
0022
0000
0033
2200
,
0000
3300
0010
0000
0202
0000
0303
2200
,
0000
3300
0010
0100
2002
0000
3003
0220
,
0000
0330
0010
0100
0022
0000
0033
2200
,
0000
3300
0011
0000
0001
0000
1000
0000
,
0010
0100
0010
1000
,
0010
1000
0001
0000
,
0010
0100
0001
1000
,
0010
0100
0001
1000
0010
0000
0000
0000
,
0001
1000
0010
0100
,
0001
0000
1000
0000
0010
0000
0000
0100
,
0010
0000
0000
0001
1000
0000
0000
0100
,
0010
1000
0001
0000
,
0000
0000
0000
1000
0010
0000
0100
0000
,
0001
1000
0011
0000
,
0000
0000
0000
1000
0010
0000
0100
0000
,
1000
0010
1100
0000
,
0010
0100
0001
1000
0010
0000
0100
0000
,
0001
1000
0011
0000
,
1000
0100
0010
1000
0001
0000
0100
0000
,
0001
0000
1000
0000
0010
0100
0001
1000
,
0010
0100
0001
1000
0010
0100
0001
1000
,
0010
0100
0001
1000
0010
0100
0001
1000
,
0010
0100
0001
1000
0100
0000
0010
0000
,
0100
0000
0001
0000
1000
0010
0100
0001
,
1000
0010
0100
0001
1000
0010
0100
0001
,
1000
0010
0100
0001
1000
0000
0010
0000
,
0100
0001
1000
0010
0100
0000
0001
0000
,
1000
0000
0010
0000
2002
0000
0000
3003
;

//--------------- dance-single - XLev450X-ESP ----------------
#NOTES:
     dance-single:
     XLev450X:
     Hard:
     10:
     0,0,0,0,0:
0000
0000
0000
0000
,
0000
0000
0000
0000
,
0000
0000
0000
0000
,
0000
0000
0000
0000
0000
0000
0000
0000
0000
0000
0000
0000
0001
0010
0100
1000
,
0001
0010
0100
1000
0010
0100
0010
0100
2002
0000
0000
0000
0000
0000
0000
0000
,
3003
0000
0000
0000
0000
0000
0001
0010
0001
0000
1000
0100
2000
0000
0000
0000
,
0000
0000
0000
0000
0000
0000
0000
0000
3000
0000
0000
0000
0001
0000
0010
0000
0200
0000
0000
0000
0000
0000
0300
0000
0000
0000
0000
0000
1000
0100
0010
0002
,
0000
0000
0000
0000
0000
0003
0000
0000
0000
0000
0000
0000
0100
0000
0001
0000
0020
0000
0000
0000
0000
0000
0030
0000
0000
0000
0000
0000
1000
0000
0100
0000
,
0010
1001
0110
0011
,
0000
0000
0000
0000
0000
0000
1000
0100
0010
0000
0000
0000
0100
0000
0000
0000
,
0001
0000
1000
0000
0220
0000
0000
0330
,
0000
0000
0000
0000
0000
0000
0010
0100
0001
0000
0000
0000
0100
0000
0000
0000
,
1000
0001
1000
0000
,
0010
0000
0100
0000
0001
0000
1000
0100
0010
0000
0000
0000
0100
0000
0000
0000
,
0001
0010
1000
0000
,
0001
0000
0010
0000
1000
0000
0100
0001
0010
0000
0000
0000
0100
0000
0000
0000
,
1000
0100
0000
0010
0000
0000
0001
0000
1000
0000
0000
0000
0010
0000
0000
0000
,
0100
0000
1000
0010
,
0100
0000
0000
1000
0010
0000
0001
0000
,
0010
0001
1000
0100
0001
0000
0000
0010
,
1000
0001
0100
0010
0001
0000
0010
0001
,
0100
0000
0000
0010
1000
0010
0100
1000
,
0001
0000
0100
0000
1000
0000
0010
0000
0100
0000
0000
0000
0000
0000
1000
0100
,
0001
0000
0010
0100
0001
1000
0010
0100
,
0001
1000
0010
0100
2002
0000
3003
0022
,
0000
0000
0033
0000
2200
0000
3300
0022
,
0000
0000
0033
0000
2002
0000
3003
0220
,
0000
0000
0330
0000
2200
0000
3300
0220
,
0000
0000
0330
0000
0022
0000
0033
2200
,
0000
3300
0010
1000
0202
0000
0303
2200
,
0000
3300
0010
0100
2002
0000
3003
0220
,
0000
0330
0010
0100
0022
0000
0033
2200
,
0000
0000
3300
0000
0011
0000
0000
0000
0001
0000
0000
0010
0000
0000
0100
0000
,
0010
0000
0000
0000
0100
0000
0000
0000
0010
0000
0000
0100
0000
0000
1000
0000
,
0010
1000
0001
0000
,
0010
0100
0001
1000
,
0010
0100
0001
1000
0010
0000
0000
0000
,
0001
1000
0010
0100
,
0001
0000
0000
0000
1000
0000
0000
0000
0010
0000
0000
0000
0000
0000
1000
0010
,
0200
0000
0000
0000
0000
0000
0300
0000
0000
0000
0000
0000
1000
0100
0010
0002
0000
0000
0000
0000
0000
0003
0000
0000
0000
0000
0000
0000
0100
0000
0001
0000
,
0020
0000
0000
0030
0000
0000
0010
0100
0010
0000
0000
0000
0000
0000
0000
0000
,
0000
0000
0000
0000
0000
0000
1000
0100
0010
0000
0000
0000
0100
0000
0000
0000
,
0001
0000
1000
0000
0220
0000
0000
0330
,
0000
0000
0000
0000
0000
0000
0010
0100
0001
0000
0000
0000
0100
0000
0000
0000
,
1000
0001
1000
0000
,
0010
0000
0100
0000
0001
0000
1000
0100
0010
0000
0000
0000
0100
0000
0000
0000
,
0001
0010
1000
0000
,
0001
0000
0010
0000
1000
0000
0100
0001
0010
0000
0000
0000
0100
0000
0000
0000
,
1000
0100
0000
0010
0000
0000
0001
0000
0010
0000
0100
0000
0001
0000
1000
0000
,
0010
0100
0001
1000
0010
0100
0001
1000
,
0010
0100
0001
1000
0010
0100
0001
1000
,
0010
0100
0001
1000
0100
0000
0000
0010
,
0100
0001
0010
0100
1000
0000
0100
0001
,
1000
0010
0100
0001
1000
0000
0100
0001
,
1000
0010
0100
0001
1000
0000
0000
0001
,
0100
0001
1000
0010
0100
0000
0000
0100
,
1000
0000
0001
0000
0010
0000
0010
0100
2002
0000
0000
0000
0000
0000
3003
0000
;

//--------------- dance-single - XLev450X†-CSP ----------------
#NOTES:
     dance-single:
     XLev450X†:
     Challenge:
     13:
     0,0,0,0,0:
0000
0000
0000
0000
,
0000
0000
0000
0000
,
0000
0000
0000
0000
,
0000
0000
0000
0000
0000
0000
0000
0000
0000
0000
0000
0000
0001
1000
0010
0001
,
0100
1000
0001
0010
1000
0001
1000
0010
2002
0000
0000
0000
0000
0000
0000
0000
,
3003
0000
0000
0000
0000
0000
1000
0010
1000
0000
0001
0010
0001
0000
0000
0000
,
1000
0000
0000
0000
0001
0000
0010
0000
0100
0000
0000
0000
1000
0000
0001
1000
,
0001
0000
1000
0010
1000
0010
0100
0001
,
1000
0000
0000
0001
0000
0000
0100
0000
1000
0000
0001
0000
0010
0000
0001
0010
,
0001
1000
0010
0100
0001
0000
1000
0000
,
0010
0100
0001
0010
1000
0000
0010
0000
,
1000
0100
1000
0010
1000
0000
0001
0000
,
0100
1000
0001
0010
1000
0000
0001
0000
,
0010
0000
1000
0000
0001
0000
1000
0010
1000
0000
0010
0000
0100
0000
0001
0000
,
0010
1000
0001
0010
0101
0000
1010
0000
,
0010
0100
1000
0010
1000
0001
0010
1000
,
0001
0100
0000
0010
0000
0000
1000
0000
0001
0000
1000
0000
0010
0000
0100
0000
,
1000
0000
0010
0000
1000
0000
0001
0000
0010
0000
0001
0010
0001
0000
1000
0010
,
1000
0000
0010
0100
0010
0000
1000
0000
0001
0000
0010
0000
0100
0000
1000
0000
,
0001
0000
0010
0000
1000
0000
0001
0000
0010
0000
1000
0010
1000
0000
0010
0001
,
0010
0100
1000
0001
0010
0000
0001
1000
,
0100
1000
0001
0000
0001
0010
1000
0100
,
1000
0001
0010
1000
1001
0000
0010
1000
,
1010
0000
0010
0100
0010
0001
0010
1000
,
0001
1000
0001
1000
0010
1000
0010
1000
0010
0000
0000
0000
0000
0000
1001
0000
,
0000
0000
1000
0000
0010
0000
0000
0110
,
0000
0000
0001
0000
1000
0000
0000
0101
,
0000
0000
1000
0000
0010
0000
0000
1010
,
0000
0001
1000
0001
,
0100
0010
1000
0001
0010
0001
0010
0001
,
0010
0000
0100
0000
0001
0000
0000
0000
0001
0000
1000
0000
0010
0000
1000
0010
,
1000
0000
0010
0000
0100
0000
0001
0000
1000
0000
0000
0001
0000
0000
0100
0000
,
0000
0010
0000
0000
1000
0000
0001
0000
1000
0000
0000
0000
0001
0000
0000
0000
,
0010
0001
1000
0010
0100
0000
1000
0000
,
0010
0100
1000
0001
0010
0100
1000
0001
,
0010
0000
0001
0010
0001
0000
1000
0000
0100
0000
1000
0000
0001
0000
0010
0000
,
1000
0001
0100
1000
0010
0000
0001
0000
,
1000
0010
0100
1000
0010
0000
0101
0000
,
0010
0000
1000
0000
0010
0000
1000
0000
0001
0000
0000
0000
0010
0000
1000
0010
,
1000
0000
0010
0000
0100
0000
0001
0010
0001
0000
1000
0000
0001
0000
0100
0000
,
1000
0001
1000
0010
1000
0010
0100
1000
0001
0000
1000
0000
0100
0000
1000
0100
,
1000
0001
0100
0010
1000
0000
0001
0000
,
0100
0010
1000
0100
0001
0000
0100
0000
,
0001
0010
0001
0100
0001
0000
1000
0000
,
0010
0001
1000
0100
0001
0000
1000
0000
,
0100
0000
0001
0000
1000
0000
0001
0100
0001
0000
0100
0000
0010
0000
1000
0000
,
0100
0001
1000
0100
1010
0000
0101
0000
,
0100
0010
0001
0100
0001
1000
0100
0001
,
1000
0010
0000
0100
0000
0000
0001
0000
1000
0000
0001
0000
0100
0000
1000
0000
,
0010
0100
1000
0010
0001
0100
1000
0001
,
0010
0000
1000
0000
0001
0000
1000
0001
1000
0000
0010
0000
0100
0000
1000
0000
,
0001
0010
0100
1000
0001
0000
0100
0000
,
1000
0010
1000
0010
0001
0000
0010
0000
,
1000
0010
0100
1000
0001
0000
0101
0000
,
0010
1000
0010
0100
1000
0000
1010
0000
,
0010
0100
1000
0001
0010
1000
0001
1000
,
0010
1000
0010
1000
0001
0010
0100
1000
0002
0000
0000
0000
0000
0000
0000
0000
,
0000
0000
0000
0000
,
0000
0000
0003
0000
;
