#TITLE:Spica -H mix-;
#ARTIST:D.JW;
#GENRE:HOUSE;
#MUSIC:Spica -H mix-.ogg;
#BANNER:Spica -H mix-.png;
#BACKGROUND:Spica -H mix--bg.png;
#CDTITLE:./CDTitles/bm IIDX 7th style.png;
#SAMPLESTART:60.292;
#SAMPLELENGTH:15;
#OFFSET:-0.303;
#BPMS:0=128.024;
#DISPLAYBPM:128;
#BGSTAGE:16;

//--------------- dance-single - XLev450X† ----------------
#NOTES:
     dance-single:
     XLev450X†:
     Challenge:
     14:
     0,0,0,0,0:
0000
0000
0000
0000
,
0000
0000
0000
0000
,
0000
0000
0000
0000
,
0000
0000
0000
0000
0001
0010
0100
1000
0001
0010
0100
1000
0010
0100
0010
0100
,
2002
0000
0000
0000
0000
0000
0000
0000
0000
0000
0000
0000
3003
0000
0001
0010
,
0001
0000
1000
0100
2000
0000
0000
0000
0000
0000
0000
0000
3000
0000
0001
0010
,
0200
0000
0000
0000
0000
0000
0300
0000
0000
0000
0000
0000
1000
0100
0010
0002
0000
0000
0000
0000
0000
0003
0000
0000
0000
0000
0000
0000
0100
0000
0001
0000
,
0020
0000
0000
0030
0000
0000
1000
0100
0010
0000
0000
0000
1001
0000
0000
0000
,
0110
0000
0000
0000
0000
0000
0000
0000
0001
0010
0100
0000
1000
0000
0100
0000
0010
0000
0000
0000
0001
0000
0100
0000
1000
0000
0000
0000
0010
0000
0000
0000
,
0100
0000
1000
0100
0001
0000
0010
0000
0001
0000
0010
0001
0010
0100
1000
0010
,
1000
0000
0001
1000
0100
1000
0001
0010
,
0001
0010
0001
0000
1000
0010
1000
0000
0010
0000
0100
0000
1000
0000
0001
0000
,
0100
0000
0000
0000
0000
0000
0000
0000
1000
0001
0100
0000
0010
0000
0000
0000
1000
0000
0000
0000
0100
0000
0000
0000
1000
0000
0000
0000
0001
0000
0000
0000
,
0001
1000
0001
1000
0001
0000
0010
0000
1000
0010
1000
0010
1000
0000
0001
0000
,
0010
0100
0001
1000
0001
1000
0010
0001
,
0010
0000
0001
0000
1000
0000
0001
0000
0010
0100
0001
1000
0010
0100
0001
0100
,
1000
0010
0100
1000
0001
0100
1000
0001
,
0100
0000
1000
0000
0100
0000
1000
0000
0100
0000
0001
0010
0001
0000
1000
0010
,
1000
0100
1000
0010
1000
0001
0100
1000
,
0010
0000
1000
0000
0010
0000
1000
0000
0001
0000
0100
0000
0001
0000
1000
0100
0010
0000
0100
0000
0001
0000
1000
0000
0010
0000
1000
0000
0001
0010
0100
0000
,
1000
0001
0100
1000
0001
1000
0010
1000
,
0001
1000
0010
1000
0001
0000
0100
0000
1000
0001
1000
0001
0100
0000
1000
0000
,
0001
1000
0100
1000
0100
0001
0010
0100
,
0001
0000
1000
0000
0001
0000
1000
0000
0001
0000
1000
0000
0001
0000
1000
0000
0001
0100
1000
0000
0100
0000
0001
0000
0100
0000
1000
0000
0100
0010
0001
0000
,
2002
0000
3003
0012
0000
0000
0003
0000
,
2200
0000
3300
0021
0000
0000
0030
0000
,
2002
0000
3003
0210
0000
0000
0300
0000
,
2200
0000
3300
0120
0000
0000
0030
0000
,
0001
0000
1000
0000
0010
0000
0001
1000
,
0010
0000
1000
0000
0100
0000
0001
0010
,
1000
0000
0001
0000
1000
0001
0100
0010
,
1000
0000
0000
0001
0000
0000
0100
0000
0000
0000
1000
0100
0010
0001
0010
0100
,
1000
0000
0000
0000
0001
0000
1000
0000
0010
0001
0000
0010
0001
0000
1000
0000
,
0010
0000
0100
0000
1000
0000
0001
0000
1000
0000
0000
0010
0000
0000
1000
0000
,
0001
0000
0100
0000
1000
0000
0010
1000
0010
0000
0100
0000
0001
0000
0100
0001
,
0100
0000
1000
0000
0001
0000
0100
0000
1000
0000
0001
0010
0001
0000
1000
0000
,
0000
0000
0001
0100
1000
0000
0100
0000
1000
0000
0001
0100
1000
0000
0001
0000
,
1000
0000
0010
0000
0100
0000
1000
0000
0001
0000
0010
0001
0010
0000
1000
0000
,
0001
0000
1000
0000
0010
0000
1000
0010
1000
0000
0001
0000
0010
0000
0100
0001
,
1000
0000
0010
0000
1000
0000
0001
0000
0010
0001
1000
0001
1000
0010
0100
1000
,
0100
0000
0000
0000
0000
0000
0000
0000
1000
0100
0010
0000
0001
0000
0010
0000
0100
0000
0000
0000
1000
0000
0010
0000
0001
0000
0000
0000
0100
0000
0000
0000
,
0010
0000
0001
0010
1000
0000
0100
0000
1000
0000
0100
1000
0100
0010
0001
0100
,
0001
0000
1000
0001
0010
0001
1000
0100
,
1000
0100
1000
0000
0001
0100
0001
0000
0100
0000
0010
0000
0001
0000
1000
0000
,
0010
0000
0000
0000
0000
0000
0000
0000
0001
1000
0010
0000
0100
0000
0000
0000
0001
0000
0000
0000
0010
0000
0000
0000
0001
0000
0000
0000
1000
0000
0000
0000
,
1000
0001
1000
0001
1000
0000
0100
0000
0001
0100
0001
0100
0001
0000
1000
0000
,
0100
0010
1000
0001
1000
0001
0100
1000
,
0100
0000
1000
0000
0001
0000
1000
0000
0100
0010
1000
0001
0100
0010
1000
0010
,
0001
0000
1000
0000
0010
0000
1000
0000
0001
0010
0001
0000
1000
0000
0100
0000
,
1000
0100
1000
0000
0001
0100
0001
0000
0010
0100
0010
0000
0001
0000
1000
0000
,
0001
0000
1000
0000
0010
0000
1000
0000
0001
1000
0001
1000
0001
1000
0010
0000
,
1000
0000
0000
0000
0001
0010
0100
1000
0100
0000
0001
0000
0010
0000
0100
0000
1000
0000
0100
0000
0010
0000
1000
0000
0010
0000
0100
1000
0001
0000
0100
0000
,
0010
0100
1000
0001
0100
1000
0001
1000
,
0010
1000
0100
1000
0001
0100
1000
0001
,
1000
0001
0010
0000
0100
0000
1000
0000
0001
0010
0100
0000
1000
0000
0001
0000
,
0100
0000
0001
0000
1000
0000
0000
0000
0001
0000
1000
0000
0100
0000
0000
0000
1000
0000
0001
0000
0100
0000
0010
0000
0001
0000
1000
0000
0100
0010
0001
0000
,
0020
0000
0000
0000
,
0000
0000
0000
0000
,
0030
0000
0000
0000
;
