#TITLE:Speed;
#ARTIST:Atari Teenage Riot;
#GENRE:HARDCORE TECHNO;
#MUSIC:Speed.ogg;
#BANNER:Speed.png;
#BACKGROUND:Speed-bg.png;
#SAMPLESTART:55.372;
#SAMPLELENGTH:15;
#SELECTABLE:YES;
#OFFSET:-0.117;
#BPMS:0.000=165.066
,76=660.262
,192=165.066
,218=660.262
,346=330.131
,354=660.262
,370=330.131
,378=660.262
,394=330.131
,402=660.262
,418=330.131
,426=660.262
,440=165.066
,470.500=660.262
,476=165.066;
#STOPS:28=0.909
,29.500=0.545
,32=0.909
,33.500=0.545
,36=0.909
,37.500=0.545
,188=0.182
,189=0.182
,190=0.182
,191=0.182
,209=0.182
,209.500=0.182
,210=0.182
,210.500=0.182
,211=0.182
,211.500=0.182
,212=0.182
,212.500=0.182
,213=0.182
,213.500=0.182
,214=0.182
,214.500=0.182
,215=0.091
,215.500=0.091
,216=0.091
,216.500=0.091
,456=0.545
,458.500=0.909
,460=0.545
,462.500=0.909
,464=0.545
,466.500=0.909
,468=0.545
,470.500=0.909;
#DISPLAYBPM:165:660;

//--------------- dance-single - XLev450X-bSP ----------------
#NOTES:
     dance-single:
     XLev450X:
     Beginner:
     7:
     0,0,0,0,0:
0000
0000
0000
0000
,
0000
0000
0000
0000
,
0000
0000
0000
0000
,
0000
0000
0000
0000
,
0000
0000
0000
0000
,
0000
0000
0000
0000
,
1001
0000
0010
0000
,
0100
0001
0000
0100
0010
0000
0000
0000
,
1000
0001
0000
0100
0010
0000
0000
0000
,
0100
0001
0000
1000
0010
0000
0000
0000
,
0110
0000
0000
0000
,
0001
1000
0010
0100
,
0001
1000
0010
0100
,
0001
1000
0010
0100
,
0001
0000
0010
0000
0100
1000
0010
0000
,
0001
1000
0010
0100
,
0001
0010
1000
0001
,
0100
0010
1000
0001
,
0100
0000
0010
0000
,
0001
0000
0000
0000
,
1000
0000
0000
0000
,
0010
0000
0000
0000
,
0100
0000
0000
0000
,
0001
0000
0000
0000
,
0000
0000
0000
0000
,
1000
0000
0000
0000
,
0000
0000
0000
0000
,
0001
0000
0000
0000
,
0100
0000
0000
0000
,
0010
0000
0000
0000
,
1000
0000
0000
0000
,
0001
0000
0000
0000
,
0100
0000
0000
0000
,
0010
0000
0000
0000
,
0000
0000
0000
0000
,
1000
0000
0000
0000
,
0001
0000
0000
0000
,
0100
0000
0000
0000
,
0010
0000
0000
0000
,
0001
0000
0000
0000
,
1000
0000
0000
0000
,
0010
0000
0000
0000
,
0000
0000
0000
0000
,
0100
0000
0000
0000
,
0001
0000
0000
0000
,
1000
0000
0000
0000
,
0010
0000
0000
0000
,
0220
0000
0000
0000
,
0330
0001
1000
0010
,
0000
0100
0001
0010
,
0000
1000
0010
0100
,
0000
0001
1000
0010
,
0000
0010
1000
0001
,
0100
0010
0001
1000
,
0010
0100
0001
0000
,
0000
0000
1000
0000
,
0000
0000
0010
0000
,
0000
0000
0100
0000
,
0000
0000
0001
0000
,
0000
0000
1000
0000
,
0000
0000
0010
0000
,
0000
0000
0100
0000
,
0000
0000
0001
0000
,
0000
0000
1000
0000
,
0000
0000
0010
0000
,
0000
0000
0100
0000
,
0000
0000
0001
0000
,
0000
0000
1000
0000
,
0000
0000
0010
0000
,
0100
0000
0001
0000
,
0000
0000
1000
0000
,
0000
0000
0010
0000
,
0000
0000
0100
0000
,
0000
0000
0000
0000
,
0000
0000
1000
0000
,
0000
0000
0001
0000
,
0000
0000
0100
0000
,
0000
0000
0000
0000
,
0000
0000
0010
0000
,
0000
0000
1000
0000
,
0000
0000
0001
0000
,
0000
0000
0100
0000
,
0000
0000
0010
0000
,
0000
0000
1000
0000
,
0000
0000
0001
0000
,
0100
0000
0001
0000
,
0000
0000
1000
0000
,
0010
0000
0100
0000
,
0000
0000
0001
0000
,
0000
0000
0100
0000
,
0000
0000
0010
0000
,
0000
0000
1000
0000
,
0000
0000
0001
0000
,
0100
0000
0010
0000
,
0000
0000
0001
0000
,
0000
0000
1000
0000
,
0000
0000
0001
0000
,
0000
0000
1000
0000
,
0000
0000
0010
0000
,
0100
0000
0001
0000
,
0000
0000
1000
0000
,
0000
0000
0001
0000
,
0000
0000
0010
0000
,
0000
0000
0100
0000
,
0000
0000
0001
0000
,
1000
0000
0010
0000
,
0000
0000
0100
0000
,
0000
0000
0001
0000
,
0000
0000
0010
0000
,
0000
0000
1000
0000
,
0001
0100
1000
0010
,
0100
0000
0001
1000
,
0010
1000
0100
0001
,
1000
0000
0010
0100
,
0001
1000
0000
0010
0000
1000
0000
0000
,
0010
0001
0000
1000
0000
0100
0000
0000
,
0001
1000
0000
0010
0000
0100
0000
0000
,
0001
1000
0000
0010
0000
0100
0000
0000
,
0000
0001
0000
0000
0000
0000
0000
0000
,
0000
1001
0000
0000
0000
0000
0000
0000
0000
0000
0000
0000
0000
0000
0000
0000
;

//--------------- dance-single - XLev450X-BSP ----------------
#NOTES:
     dance-single:
     XLev450X:
     Easy:
     12:
     0,0,0,0,0:
0000
0000
0000
0000
,
0000
0000
0000
0000
,
0000
0000
0000
0000
,
0000
0000
0000
0000
,
0000
0000
0000
0000
,
0000
0000
0000
0000
,
1001
0000
0110
0000
,
1000
0001
0000
0100
0001
0000
0000
0000
,
0100
0001
0000
1000
0010
0000
0000
0000
,
0100
0001
0000
0010
1000
0000
0000
0000
,
2002
0000
0000
0000
0000
0000
0000
3003
,
0100
0010
0000
1000
0001
0000
0100
0000
,
0010
0001
0010
0000
1000
0010
0100
0000
,
0001
0000
1000
0010
,
0100
0001
0100
0000
1000
0010
1000
0000
,
0010
0100
0001
0000
,
1000
0010
0100
0000
,
0001
1000
0010
0100
,
0001
0000
1000
0000
,
0001
0000
0000
0000
,
1000
0000
0000
0000
,
0010
0000
0000
0000
,
0100
0000
0000
0000
,
0001
0000
0010
0000
,
0001
0000
0000
0000
,
1000
0000
0010
0000
,
0100
0000
0000
0000
,
0001
0000
0000
0000
,
0010
0000
0000
0000
,
0001
0000
0000
0000
,
1000
0000
0000
0000
,
0001
0000
0100
0000
,
0001
0000
0000
0000
,
1000
0000
0010
0000
,
1000
0000
0000
0000
,
0001
0000
0100
0000
,
0010
0000
0000
0000
,
1000
0000
0001
0000
,
0100
0000
0000
0000
,
0010
0000
0001
0000
,
1000
0000
0000
0000
,
0010
0000
0100
0000
,
1000
0000
0000
0000
,
0001
0000
0010
0000
,
0100
0000
1000
0000
,
0001
0000
1000
0000
,
0010
0000
0001
0000
,
0100
0001
0100
1000
,
0010
0001
0100
0000
0001
0000
1000
0000
,
0010
0000
0100
0000
0001
0000
1000
0100
,
0010
0001
1000
0010
,
0100
0000
0001
0000
1000
0000
0010
0100
,
0001
0000
1000
0000
0020
0030
2000
3000
0002
0003
0200
0300
0020
0030
2000
3000
,
0002
0003
0200
0300
0020
0030
2000
3000
0002
0003
0200
0300
0020
0030
2000
3000
,
0002
0003
0200
0300
0020
0030
2000
3000
0001
0000
0000
0000
0000
0000
0000
0000
,
0000
0000
1000
0000
,
0000
0000
0010
0000
,
0100
0000
0001
0000
,
1000
0000
0010
0000
,
0000
0000
0001
0000
,
0000
0000
0010
0000
,
0001
0000
1000
0000
,
0010
0000
0100
0000
,
0000
0000
0001
0000
,
0000
0000
1000
0000
,
0001
0000
0100
0000
,
0010
0000
1000
0000
,
0000
0000
0001
0000
,
0000
0000
0100
0000
,
0010
1000
0001
0100
,
1000
0100
0001
0000
,
0000
0000
0100
0000
,
0000
0000
0010
0000
,
0001
0000
1000
0000
,
0010
0000
0100
0000
,
0000
0000
0001
0000
,
0000
0000
0010
0000
,
0001
0000
0010
0000
,
1000
0000
0001
0000
,
0000
0000
0100
0000
,
0000
0000
0010
0000
,
0001
0000
1000
0000
,
0010
0000
0100
0000
,
0000
0000
0001
0000
,
0000
0000
0010
1000
,
0001
0010
1000
0001
,
0010
1000
0100
0000
,
0001
0000
0010
0000
,
0001
0000
1000
0000
,
0001
0000
0100
0000
,
0010
0000
0001
0000
,
1000
0000
0010
0000
,
0100
0000
0001
0000
,
0010
0000
0001
0000
,
1000
0000
0010
0000
,
0100
0000
0010
0000
,
1000
0000
0001
0000
,
0100
0000
0010
0000
,
1000
0000
0001
0000
,
0100
0000
0010
0000
,
1000
0000
0100
0000
,
0001
0000
0100
0000
,
0001
0000
1000
0000
,
0010
0000
0100
0000
,
0001
0000
1000
0000
,
0010
0000
0100
0000
,
1000
0000
0001
0000
,
0100
0000
0010
0000
,
1000
0000
0001
0000
,
0100
0000
0010
0000
,
0000
1000
0001
0100
0000
0000
0010
0000
,
0100
0001
1000
0010
0000
0000
0001
0000
,
1000
0010
0100
0000
0001
0000
0010
0000
,
0001
1000
0010
0100
0000
0000
0010
0000
,
0101
1000
0010
0100
0000
0101
1010
0000
,
0101
0010
1000
0001
0000
0110
0001
0000
,
1000
0010
0100
0001
0000
1000
0001
0000
,
0100
0010
1000
0001
0000
0100
0000
0000
,
0000
0001
0000
1000
0000
0001
0000
0000
,
0000
1010
0000
0000
0000
0000
0000
0000
0000
0000
0000
0000
0000
0000
0000
0000
;

//--------------- dance-single - XLev450X-DSP ----------------
#NOTES:
     dance-single:
     XLev450X:
     Medium:
     15:
     0,0,0,0,0:
0000
0000
0000
0000
,
0000
0000
0000
0000
,
0000
0000
0000
0000
,
0000
0000
0000
0000
,
0000
0000
0000
0000
,
0000
0000
0000
0000
,
1000
0000
0001
0000
0100
0010
0001
0000
,
1000
0010
0000
0100
0001
1000
0010
0000
,
0100
0001
0000
0100
0001
1000
0010
0000
,
0100
0001
0000
1000
0010
0100
0001
0000
,
1001
0000
0000
0000
,
0001
1000
0010
0100
0001
0000
0010
0000
,
0001
0010
0001
0000
1000
0010
0100
0000
,
0001
1000
0010
0100
0000
1000
0010
0000
,
0100
0001
1000
0000
0100
0010
1000
0000
,
0001
0000
0100
0000
0010
1000
0001
0000
,
0010
1000
0100
0000
0010
0100
0001
0000
,
0000
1000
0010
0000
0100
0001
1000
0000
,
1001
0000
0000
0000
,
0001
0000
1000
0000
,
0010
0000
0100
0000
,
0010
0000
0001
0000
,
1000
0000
0010
0000
,
0100
0000
0001
0000
,
1000
0000
0010
0000
,
0001
0000
1000
0001
,
0000
1000
0010
0000
,
0100
0001
1000
0000
,
0010
0000
0100
0000
,
0001
0000
1000
0000
,
0010
0000
1000
0010
,
1000
0001
0000
0100
,
0000
0010
0000
1000
,
0000
0010
0000
0001
,
0100
0010
0000
0010
,
1000
0100
0010
0001
,
0010
1000
0001
0000
,
0010
0000
0001
0000
,
0010
0000
1000
0001
,
1000
0000
0010
0000
,
0100
0000
0001
0000
,
1000
0000
0010
0000
,
0100
0000
0001
1000
,
0010
0000
0100
0000
,
0001
0000
1000
0000
,
0010
0000
0100
0000
,
0001
1000
0010
0100
,
0002
0003
2000
3000
0020
0030
0200
0300
,
0001
0000
1000
0000
0010
0000
0000
0000
1000
0000
0000
0000
0001
0000
0000
1100
,
0000
0000
0000
0000
0010
0000
0000
0000
0001
0000
0000
0000
1000
0000
0000
0101
,
0000
0000
0100
0000
0010
0000
0001
0100
,
1000
0000
0000
0000
0010
0000
0000
0001
0000
0100
0000
0000
0001
0000
1000
0000
,
0010
0000
0100
0000
0002
0003
2000
3000
0020
0030
0200
0300
0002
0003
2000
3000
,
0002
0003
0020
0030
2000
3000
0200
0300
0002
0003
0020
0030
2000
3000
0200
0300
,
0002
0003
0020
0030
0200
0300
0002
0003
1000
0000
0000
0000
0010
0000
0000
0000
,
0000
0100
0000
0001
,
1000
0000
0010
0000
,
0000
0001
0100
0000
,
0000
0001
1010
0000
,
0100
0000
0001
0000
,
1000
0000
0010
0000
,
0000
0100
0001
0000
,
0010
0000
0001
1000
,
0000
0010
0000
0100
,
0000
0001
1000
0010
,
0000
0100
0001
0000
,
1000
0000
0010
0000
,
0100
0001
0000
0000
,
1000
0010
1000
0000
,
0001
0100
0001
0000
,
1000
0010
1000
0000
,
0001
0000
0100
0000
,
0010
0000
1000
0000
,
0001
0000
0100
0000
,
0001
0100
0001
0000
,
1000
0000
0010
0000
,
0100
0000
0001
0000
,
1000
0000
0010
0000
,
1000
0001
0100
0000
,
0010
0000
1000
0000
,
0001
0000
0100
0000
,
0010
0000
1000
0000
,
0001
0100
0010
0000
,
1000
0010
1000
0000
,
0001
0100
0010
0000
,
1000
0001
1000
0000
,
0010
0100
0001
0000
,
1000
0000
0010
0100
,
0001
1000
0001
0100
0010
0000
1000
0000
,
0001
1000
0100
0010
,
0100
1000
0001
0100
,
0001
1000
0010
1000
,
0001
0100
0010
0000
,
0100
0000
0000
0000
0001
0010
0100
0000
,
1000
0001
0100
1000
0010
0000
1000
0000
,
0010
0001
0100
0010
,
0001
0010
0100
0010
,
1000
0010
1000
0001
,
0010
1000
0001
0000
,
0100
0000
0010
0001
,
1000
0000
0100
1000
0001
0000
1000
0000
,
0001
0010
0100
1000
,
0001
0010
0100
1000
,
0001
0100
0010
0100
,
0010
0100
1000
0000
,
1000
0000
0010
0100
,
0001
1000
0100
0001
0010
0000
0100
0000
,
0010
1000
0100
1000
,
0001
0010
0001
0100
,
0010
1000
0100
1000
,
0010
0000
0001
0000
0100
0001
1000
0000
0000
1000
0100
0000
0001
0000
0000
0000
,
0100
0000
0000
0000
0001
0000
1000
0000
0000
0000
0001
1000
0100
0000
0001
0000
,
0010
0001
0100
0000
0010
0001
1000
0000
0100
0000
0010
0000
0100
0000
0000
0000
,
0001
0000
1000
0000
0010
0000
0100
0000
0000
0000
0001
0000
1000
0000
0010
1000
,
0010
0010
1000
0001
0000
0110
0101
0000
,
1010
0001
0100
0010
0000
0101
1010
0000
,
0110
0001
1000
0010
0000
0110
1010
0000
,
0101
0010
0100
0001
0000
1001
0000
0000
,
0000
0100
0000
0010
0000
0100
0000
1000
,
0000
0101
0000
0000
0000
0000
0000
0000
0000
0000
0000
0000
0000
0000
0000
0000
;

//--------------- dance-single - XLev450X-ESP ----------------
#NOTES:
     dance-single:
     XLev450X:
     Hard:
     18:
     0,0,0,0,0:
0000
0000
0000
0000
,
0000
0000
0000
0000
,
0000
0000
0000
0000
,
0000
0000
0000
0000
,
0000
0000
0000
0000
,
0000
0000
0000
0000
,
0011
0000
0000
0000
0010
0100
0001
0000
,
1001
0010
0000
0110
0001
1000
0010
0000
,
1100
0001
0000
0101
0010
1000
0010
0000
,
1001
0010
0000
1001
0010
0100
1000
0000
,
2002
0000
0000
3003
,
0010
0100
0001
0000
1000
0010
0100
1000
,
0001
0100
0010
0000
0100
0001
1000
0010
,
0100
1000
0001
0100
1000
0000
0010
1000
,
0001
0000
0100
0010
0001
0000
0100
1000
,
0010
0100
0001
0000
1000
0100
0001
0000
,
1000
0010
0100
0000
0001
0010
1000
0000
,
0100
0001
1000
0010
0100
0001
2000
0000
,
0010
0100
0001
3010
,
0001
0010
0001
0100
,
0001
1000
0010
0100
,
0001
0010
0001
1000
,
0010
0100
0010
1000
,
0010
0100
0001
1000
,
0010
1000
0100
1000
,
0001
0010
0001
0010
,
0001
1000
0100
1000
,
0100
1000
0001
0100
,
0001
0100
0001
0010
,
0100
0010
0100
0010
,
0001
1000
0100
1000
,
0010
1000
0001
0100
,
0001
0010
0001
1000
,
0010
1000
0100
1000
,
0100
0010
0100
1000
,
0010
0100
0010
0100
,
0010
1000
0100
0010
,
0001
0100
0001
1000
,
0100
0010
0100
0010
,
0001
0100
0001
0100
,
0010
1000
0001
0010
,
0001
0100
0010
1000
,
0001
1000
0010
0100
,
0010
0100
0010
1000
,
0001
0100
0010
1000
,
0001
0010
0100
0010
,
0001
1000
0100
0010
,
0001
0000
0000
0000
1000
0000
0000
0000
0001
0000
0000
0000
1000
0000
0000
0001
,
0000
0000
0100
0000
0001
0000
0000
0000
1000
0000
0000
0000
0010
0001
0000
1000
,
0000
0000
0000
0000
0010
0100
0000
0001
0000
1000
0000
0010
0100
0001
0000
1000
,
0000
0000
0000
0000
0010
0000
0000
0000
0100
0000
0000
0000
0001
0000
0000
1000
,
0000
0000
0000
0000
1000
0010
0000
0100
0000
0001
0000
0100
1000
0000
0010
0000
,
0100
0000
1001
1010
0101
0110
0101
0011
,
1010
1001
0101
1010
0110
1100
0101
1010
,
0101
1010
0001
0100
0010
0000
0100
0000
,
0010
0100
0001
0100
,
0001
0010
0001
1000
,
0010
1000
0010
1000
,
0100
0010
0100
1000
,
0010
1000
0010
1000
,
0100
0010
0100
1000
,
0001
0100
0001
1000
,
0100
1000
0100
0010
,
0100
1000
0010
0100
,
0001
1000
0010
1000
,
0010
1000
0100
0010
,
0100
1000
0001
0010
,
0001
0100
0001
1000
,
0100
0010
0001
0010
,
0001
0010
0100
1000
,
0100
1000
0001
1000
,
0010
0100
0001
1000
,
0010
0100
0001
1000
,
0100
1000
0100
1000
,
0001
0010
0001
0010
,
0001
1000
0010
0100
,
0010
0100
0010
1000
,
0001
0100
0010
0100
,
0010
0100
0001
1000
,
0001
0100
0010
1000
,
0001
1000
0100
1000
,
0010
0100
0001
0010
,
0001
1000
0100
1000
,
0001
0100
0001
1000
,
0010
0100
0010
0100
,
0010
1000
0001
1000
,
0100
1000
0010
1000
,
0010
0000
0100
0000
0001
0000
1000
0010
,
0100
0001
1000
0010
0001
0000
1000
0000
,
0010
0100
0010
0100
,
0001
0010
0001
1000
,
0100
0010
0001
0010
,
0001
0100
0010
1000
,
0001
0000
0100
0000
0010
0000
0001
0100
,
0010
1000
0001
0010
0100
0000
1000
0000
,
0100
1000
0100
0010
,
0001
0100
0010
1000
,
0010
1000
0001
0100
,
0010
1000
0010
1000
,
0010
0000
0100
0000
0001
0000
1000
0010
,
0100
0001
1000
0010
0001
0000
0100
0000
,
0001
0010
0100
0010
,
0001
0010
0001
1000
,
0001
0010
0100
1000
,
0010
0100
0010
1000
,
0010
0000
0100
0000
0001
0000
1000
0010
,
0100
0001
1000
0010
0100
0000
0010
0000
,
0001
0100
0010
1000
,
0001
0100
0001
1000
,
0100
1000
0010
1000
,
0010
1000
0010
1000
0001
0010
0001
0010
0001
0100
0010
0100
0010
0100
0001
0010
,
0100
1000
0100
0010
0100
1000
0010
0100
0010
0100
0010
1000
0100
1000
0100
0010
,
0100
0010
0001
0010
0001
0100
0010
0100
0001
0100
0001
0010
0100
0010
0100
1000
,
0010
1000
0100
1000
0100
0010
0100
1000
0010
0100
0010
1000
0100
0010
0100
1000
,
1001
0010
0100
0001
0000
1001
0101
0000
,
1010
0010
0100
0001
0000
1001
0101
0000
,
1010
0010
0100
0001
0000
1001
0010
0000
,
0100
0001
1000
0010
0000
0101
0000
0000
,
0000
0010
0000
0100
0000
1000
0000
0001
,
0000
1010
0000
0000
0000
0000
0000
0000
0000
0000
0000
0000
0000
0000
0000
0000
;
