#TITLE:Spectrik CraZe;
#ARTIST:StormTaker21;
#GENRE:TECHNO;
#MUSIC:Spectrik CraZe.ogg;
#BANNER:Spectrik CraZe.png;
#BACKGROUND:Spectrik CraZe-bg.png;
#SAMPLESTART:60.981;
#SAMPLELENGTH:15;
#OFFSET:-0.029;
#BPMS:0=126
,175=252
,176=126;
#STOPS:175=0.22;
#BGSTAGE:17;

//--------------- dance-single - XLev450X-bSP ----------------
#NOTES:
     dance-single:
     XLev450X:
     Beginner:
     4:
     0,0,0,0,0:
0000
0000
0000
0000
,
0000
0000
0000
0000
,
0000
0000
0000
0000
,
0000
0000
0000
0000
,
1000
0001
0100
0010
,
0001
1000
0010
0100
,
0001
1000
0010
0000
,
1000
0001
0100
0010
,
0001
1000
0010
0000
,
0100
0001
1000
0010
,
0100
0001
1000
0000
,
0010
0001
1000
0010
,
0100
0001
1000
0000
,
0010
1000
0001
0000
,
0100
0001
0100
0000
,
0010
1000
0001
0000
,
2002
0000
0000
0000
0000
0000
0000
3003
,
0220
0000
0000
0000
0000
0000
0000
0330
,
2002
0000
0000
0000
0000
0000
0000
3003
,
0220
0000
0000
0000
0000
0000
0000
0330
,
0010
0010
0010
0000
,
0100
0100
0100
0000
,
0001
1000
0001
0000
,
1000
0010
1000
0000
,
0100
0001
0010
0000
,
0100
0001
1000
0000
,
0010
0100
0001
0000
,
1000
0010
0100
0000
,
0001
1000
0010
0100
,
0001
1000
0010
0100
,
2002
0000
0000
0000
,
0000
0000
0000
0000
0000
0000
0000
3003
,
0010
1000
0001
0100
,
0010
0001
1000
0010
,
0001
1000
0010
0100
,
0001
1000
0010
0001
,
0001
1000
0010
0000
,
0100
0001
1000
0000
,
0100
1000
0010
0000
,
0100
0001
1000
0000
,
0001
0100
0010
0000
,
0001
1000
0010
0100
,
0001
0010
1000
0000
,
0001
0100
0010
1001
,
0010
1000
0001
0000
,
0100
0010
0001
0000
,
1000
0010
0100
0001
,
1000
0001
0100
0010
,
1000
0000
0001
0000
,
0100
0010
1000
0000
,
0001
0000
0010
0000
,
0100
0000
0001
1000
,
0010
0000
0100
0000
,
0001
0000
1000
0010
,
0001
0000
0100
0000
,
1000
0000
0001
0100
;

//--------------- dance-single - XLev450X-BSP ----------------
#NOTES:
     dance-single:
     XLev450X:
     Easy:
     7:
     0,0,0,0,0:
0000
0000
0000
0000
,
0000
0000
0000
0000
,
0000
0000
0000
0000
,
0000
0000
0000
0000
,
0001
1000
0010
0100
,
0001
0100
0010
0000
,
0001
1000
0001
0100
,
0010
0001
1000
0000
,
0010
1000
0001
0100
,
0010
1000
0001
0100
,
0010
0000
0001
1000
,
0010
0000
0100
0000
0001
0100
0010
0000
,
1000
0001
0010
0000
,
0100
0000
0001
0000
1000
0010
0100
0000
,
0001
0010
0100
0001
,
1000
0000
0010
0000
0100
0001
0010
0000
,
2000
0000
0000
3000
0002
0000
0000
0003
,
0200
0000
0000
0300
0020
0000
0000
0030
,
0002
0000
0000
0003
2000
0000
0000
3000
,
0020
0000
0000
0030
0200
0000
0000
0300
,
0001
0001
0001
0000
1000
0000
0010
0000
,
0100
0100
0100
0000
0001
0000
0010
0000
,
0010
0010
1000
0000
0001
0000
0010
0000
,
0100
0001
1000
0000
0010
0000
0100
0000
,
0001
1000
0010
0000
,
0100
0001
1000
0000
,
0010
0001
1000
0010
,
0100
0001
1000
0010
,
0100
0001
1000
0010
,
0100
0001
1000
0000
0010
0100
0010
0000
,
2002
0000
0000
0000
,
0000
0000
0000
0000
0000
0000
0000
3003
,
0001
0000
1000
0000
0010
0100
0001
0000
,
0010
1000
0100
0000
,
1000
0000
0001
0000
0100
0010
0001
0000
,
1000
0010
0100
0000
,
1000
0000
0001
0000
0100
0001
0010
1000
,
0001
0100
0010
0000
,
0100
0000
0001
0000
1000
0010
0100
0001
,
1000
0010
0100
0000
,
0001
0000
1000
0000
0010
0100
0001
0000
,
0010
1000
0001
0010
,
0100
0001
0010
0000
1000
0010
0100
0000
,
0001
0010
0100
0001
0010
0100
2002
3003
,
0010
0000
0100
0000
0001
0010
0100
0000
,
0001
0000
1000
0000
0010
0100
0001
0000
,
0010
1000
0100
0001
,
0010
0100
0001
0010
,
1000
0000
0100
0001
,
0010
0000
0100
0001
,
1000
0000
0010
0100
,
0001
0000
0000
0000
1000
0000
0010
0100
,
0001
1000
0010
0000
,
1000
0001
0100
0000
,
0010
1000
0001
0000
,
0100
0000
0010
0000
0001
1000
0010
0100
;

//--------------- dance-single - XLev450X-DSP ----------------
#NOTES:
     dance-single:
     XLev450X:
     Medium:
     11:
     0,0,0,0,0:
0000
0000
0000
0000
,
0000
0000
0000
0000
,
0000
0000
0000
0000
,
0000
0000
0000
0000
,
1000
0001
0100
0000
0010
0000
0001
0000
,
1000
0100
0001
0010
1000
0000
0001
0000
,
0010
0001
0010
0000
1000
0000
0100
0000
,
0010
0100
0001
0000
0010
0000
0100
0000
,
0001
1000
0010
0100
,
0001
0000
1000
0000
0010
1000
0100
0000
,
0001
0000
0010
0000
0100
0001
1000
0000
,
0010
0000
0100
0000
0001
0010
0001
0000
,
1000
0000
0000
0000
0010
0000
0100
0001
,
1000
0000
0010
0000
0100
0000
0001
0010
,
0001
0000
0000
0000
1000
0000
0010
0100
,
0001
0000
0010
0000
1000
0001
0100
0000
,
0010
0000
1000
0000
0001
0100
0010
0000
,
1000
0000
0001
0000
0010
0100
0001
0000
,
1000
0000
0000
0010
0000
0000
0100
0000
0001
0000
0000
1000
0000
0000
0100
0000
,
0010
0000
0000
0100
0000
0000
0001
0000
1000
0000
0000
0010
0000
0000
0100
0000
,
0001
0000
1000
0000
0010
0001
0010
0000
,
1000
0000
0010
0000
0100
0001
0010
0000
,
1000
0000
0100
0000
0010
0001
1000
0000
,
0010
0000
0100
0000
1000
0001
0100
0010
,
0001
0000
1000
0000
0010
0100
1000
0000
,
0001
0000
0010
0000
0100
0001
1000
0000
,
0010
0000
0100
0000
0001
0010
0100
0000
,
0001
0000
1000
0000
0010
0100
0010
0000
,
0001
1000
0010
1000
,
0001
0010
0001
0000
1000
0010
0100
0000
,
0001
1000
0010
0000
0100
0001
0010
0000
,
2002
0000
0000
0000
0000
0000
0000
3003
,
1000
0001
0100
0010
1000
0001
0010
0000
,
0001
0000
1000
0000
0100
1000
0100
0000
,
0010
0100
0001
1000
0010
0100
0001
0000
,
0010
0000
1000
0000
0010
0100
0001
0000
,
0001
1000
0010
0000
0100
0001
0010
0100
,
0001
0000
1000
0000
0010
0100
0001
0100
,
0010
0000
1000
0000
0010
0100
0001
1000
,
0010
0000
0100
0000
0010
0100
1001
0000
,
0010
0100
0001
0000
1000
0010
0100
0000
,
0001
0010
0100
0000
1000
0001
0100
0000
,
0010
1000
0001
0000
0100
0010
1000
0000
,
0001
0000
0100
0000
0010
0000
1000
0000
0001
0010
0100
0000
2002
0000
3003
0000
,
1000
0000
0000
0010
0000
0000
0100
0000
0001
0000
0000
0010
0000
0000
0100
0000
,
1000
0000
0000
0100
0000
0000
0001
0000
0010
0000
0000
1000
0000
0000
0010
0000
,
0001
1000
0010
0000
0100
0010
0001
0000
,
1000
0010
0100
0001
1000
0010
0100
0010
,
0001
0000
0000
1000
0000
0000
0010
0000
0100
0000
0000
0001
0000
0000
0010
0000
,
0100
0000
0000
1000
0000
0000
0010
0000
0100
0000
0000
0001
0000
0000
1000
0000
,
0000
0011
0000
0100
0000
0000
1000
0000
0010
0000
0000
0100
0000
0000
0001
0000
,
1000
0000
0000
0010
0000
0000
0100
0000
0001
0000
0000
1000
0000
0000
0010
0000
,
0100
0000
0000
0001
0000
0000
1000
0000
0010
0000
0000
0100
0000
0000
0001
0000
,
1000
0000
0000
0010
0000
0000
0100
0000
0001
0000
0000
1000
0000
0000
0000
0001
,
0000
0100
0000
0000
0010
0000
1000
0000
0001
0000
0000
0100
0000
0000
0010
0000
,
1000
0000
0000
0001
0000
0000
0100
0000
0010
0000
0000
1000
0001
0100
0010
0000
;

//--------------- dance-single - XLev450X-ESP ----------------
#NOTES:
     dance-single:
     XLev450X:
     Hard:
     15:
     0.600892,1.010855,0.027137,0.06332,0.538218,465,462,3,7,0,0,0.600892,1.010855,0.027137,0.06332,0.538218,465,462,3,7,0,0:
0000
0000
0000
0000
,
0000
0000
0000
0000
,
0000
0000
0000
0000
,
0000
0000
0000
0000
,
0010
0000
0100
0000
0001
0000
0010
0000
0100
0000
0010
0000
0001
0010
0000
1000
,
0001
0000
0100
0000
0001
0000
1000
0000
0010
0000
0100
0000
1000
0001
0000
1000
,
0001
0000
0010
0000
0001
0000
1000
0000
0010
0000
0100
0000
0010
1000
0000
0100
,
0010
0000
1000
0000
0100
0000
0010
0000
0001
0000
0010
0000
1000
0010
0100
0001
,
0100
0000
1000
0000
0010
0000
1000
0000
0010
0000
1000
0000
0010
1000
0000
0010
,
0001
0000
1000
0000
0001
0000
0010
0000
0100
0000
1000
0000
0100
0010
0000
0001
,
0100
0000
1000
0000
0001
0000
0100
0000
0001
0000
0100
0000
0010
0100
0000
1000
,
0010
0000
1000
0000
0001
0000
0100
0000
0010
0000
0100
0000
1000
0010
0100
0001
,
1000
0000
0010
0000
0100
0000
1000
0000
0010
0000
1000
0000
1000
0100
1000
0001
,
0010
1000
0100
0010
0001
1000
0010
0000
,
0100
0000
1000
0000
0100
0000
0010
0000
0001
0000
0100
0000
0001
1000
0100
1000
,
0010
0100
0001
0100
0001
0100
0010
0000
,
2000
0000
0000
0000
0000
0000
0000
0000
0000
0000
0000
0000
0000
0000
0000
0000
0000
0000
0000
0000
0000
0000
0000
0000
0100
0000
0000
0000
0000
0000
0000
0000
0000
0000
0000
0000
0000
0000
0000
0000
0000
0000
0000
0000
0000
0000
0000
0000
0010
0000
0000
0000
0000
0000
0000
0000
0000
0000
0000
0000
0000
0000
0000
0000
0000
0000
0000
0000
0000
0000
0000
0000
0001
3000
0000
0000
0000
0000
0000
0000
0000
0000
0000
0000
0000
0000
0000
0000
0000
0000
0000
0000
0000
0000
0000
0000
,
0200
0000
0000
0000
0000
0000
1000
0000
0000
0000
0000
0000
0010
0000
0000
0000
0000
0000
0001
0300
0000
0000
0000
0000
,
0100
0010
0100
0001
1000
0010
0100
1000
0001
0100
0001
0100
,
0010
1000
0001
1000
0100
0001
0010
1000
0010
0100
0010
1000
,
0001
0100
0010
0100
0001
1000
0010
1000
,
0100
0000
0010
0000
0100
0000
0010
0000
0100
0000
1000
0000
0100
1000
0100
0010
,
0100
1000
0001
1000
0001
1000
0010
0100
,
0001
0000
0010
0000
0100
0000
1000
0000
0010
0000
1000
0000
0010
1000
0100
0010
,
0001
0100
0010
1000
0010
0100
0001
1000
,
0100
0000
1000
0000
0100
0000
1000
0000
0010
0000
0100
0000
0001
0100
1000
0001
,
0010
0100
0001
0100
0001
1000
0010
1000
,
0100
0000
1000
0000
0001
0000
0010
0000
0100
0000
1000
0000
0010
1000
0001
0010
,
0100
1000
0001
0010
,
0100
0010
0100
0010
0001
0100
0010
0100
,
1000
0100
0010
0001
0010
0100
1000
0100
0010
0001
0010
0100
1000
0100
0010
0001
,
0010
1000
0010
0001
0100
0010
1000
0010
0001
0100
1000
0001
0100
0010
1000
0100
0010
0001
1000
0010
0100
0001
1000
0010
,
0100
0010
0100
1000
0001
1000
0100
0000
,
0001
0010
0001
0100
0010
1000
0100
0000
,
0001
0100
0001
1000
0100
1000
0100
0000
,
0010
0100
0001
0100
0001
0010
0001
0000
,
0010
1000
0001
1000
0010
0100
0010
1000
,
0010
0000
0000
0000
0000
0000
0000
0000
0000
0000
0000
0000
0000
0000
0000
0000
0000
0000
0000
0000
0000
0000
0000
0000
0100
0000
0000
0000
0000
0000
0000
0000
0000
0000
0000
0000
0000
0000
0000
0000
0000
0000
0000
0000
0000
0000
0000
0000
0001
0000
0000
0000
0000
0000
0000
0000
0000
0000
0000
0000
0000
0000
0000
0000
0000
0000
0000
0000
0000
0000
0000
0000
0100
0000
0000
0000
0000
0000
0000
0000
0000
0000
0000
0000
0000
0000
0000
0000
0000
0000
0000
0000
0000
0000
0000
0000
0001
0000
0000
0000
0000
0000
0000
0000
0000
0000
0000
0000
0000
0000
0000
0000
0000
0000
0000
0000
0000
0000
0000
0000
1000
0000
0000
0000
0000
0000
0000
0000
0000
0000
0000
0000
0000
0000
0000
0000
0000
0000
0000
0000
0000
0000
0000
0000
0002
0000
0000
0000
0000
0000
0000
0000
0000
0000
0000
0000
0000
0000
0003
0000
0000
0000
0000
0000
0000
0000
0000
0000
2000
0000
0000
0000
0000
0000
0000
0000
0000
0000
0000
3000
0000
0000
0000
0000
0000
0000
0000
0000
0000
0000
0000
0000
,
0010
0000
1000
0000
0100
0000
0010
0000
0001
0000
1000
0000
0002
0003
0010
0000
,
0001
1000
0100
0010
0100
0010
0101
0000
,
0010
0100
0001
0100
0001
0010
0100
0000
,
0100
0010
0001
1000
0010
1000
0001
0000
,
0001
0100
0010
1000
0001
0010
0100
0000
,
0100
0000
0000
0000
0000
0000
0000
0000
0000
0000
0000
0000
0000
0000
0000
0000
0000
0000
0000
0000
0000
0000
0000
0000
1000
0000
0000
0000
0000
0000
0000
0000
0000
0000
0000
0000
0000
0000
0000
0000
0000
0000
0000
0000
0000
0000
0000
0000
0010
0000
0000
0000
0000
0000
0000
0000
0000
0000
0000
0000
0000
0000
0000
0000
0000
0000
0000
0000
0000
0000
0000
0000
1000
0000
0000
0000
0000
0000
0000
0000
0000
0000
0000
0000
0000
0000
0000
0000
0000
0000
0000
0000
0000
0000
0000
0000
0001
0000
0000
0000
0000
0000
0000
0000
0000
0000
0000
0000
0000
0000
0000
0000
0000
0000
0000
0000
0000
0000
0000
0000
0010
0000
0000
0000
0000
0000
0000
0000
0000
0000
0000
0000
0000
0000
0000
0000
0000
0000
0000
0000
0000
0000
0000
0000
2002
0000
0000
0000
0000
0000
0000
0000
0000
0000
0000
0000
0000
0000
0000
0000
0000
0000
0000
0000
0000
0000
0000
0000
0000
0000
0000
0000
0000
0000
0000
3003
0000
0000
0000
0000
0000
0000
0000
0000
0000
0000
0000
0000
0000
0000
0000
0000
,
0010
0100
0001
1000
0010
0100
0010
1000
,
0100
1000
0010
0100
0010
0100
0010
1000
,
0010
0100
0001
0100
0010
1000
0010
1000
0001
0010
0001
0010
0100
1000
0001
1000
,
0001
0010
0100
0010
0100
1000
0001
0100
0010
1000
0100
0010
0001
0010
0100
1000
,
0010
0100
0000
0001
0000
0000
1000
0000
0100
0010
0000
1000
0000
0000
0010
0000
,
0001
0100
0000
0010
0000
0000
0100
0000
1000
0001
0000
0010
0000
0000
0100
0000
,
1000
0010
0000
0001
0000
0000
0100
0000
0001
1000
0000
0010
0000
0000
0100
0000
,
0010
0100
0000
0001
0000
0000
1000
0000
0010
0100
0000
0001
0010
0001
0100
0000
,
1000
0010
0000
0100
0000
0000
0001
0000
0100
1000
0000
0010
0000
0000
0001
0000
,
0100
0010
0000
1000
0000
0000
0001
0000
0010
0001
0000
1000
0000
0000
0010
0000
,
0100
0010
0000
1000
0000
0000
0001
0000
1000
0010
0000
0100
0000
0000
0010
0000
,
0001
1000
0000
0010
0000
0000
0001
0000
0010
1000
0000
0100
0010
0100
1001
0000
;
