#TITLE:Spaced Out;
#SUBTITLE:;
#ARTIST:Enola Quintet;
#TITLETRANSLIT:;
#SUBTITLETRANSLIT:;
#ARTISTTRANSLIT:;
#GENRE:LOUNGE;
#CREDIT:;
#MUSIC:Spaced Out.ogg;
#BANNER:Spaced Out.png;
#BACKGROUND:Spaced Out-bg.png;
#CDTITLE:./CDTITLES/BEATMANIA.PNG;
#SAMPLESTART:0.137;
#SAMPLELENGTH:15.000;
#SELECTABLE:YES;
#OFFSET:-0.137;
#BPMS:0.000=175.978;
#STOPS:;
#BGSTAGE:27;
#DISPLAYBPM:175;
#BGCHANGES:;
#FGCHANGES:;

//--------------- dance-single - XLev450X-bSP ----------------
#NOTES:
     dance-single:
     XLev450X:
     Beginner:
     2:
     0,0,0,0,0:
0000
0000
0000
0000
,
0000
0000
0000
0000
,
0000
0000
0000
0000
,
0000
0000
0000
0000
,
0001
0001
0001
0000
,
1000
0000
0001
0000
,
0010
0010
0010
0000
,
0100
0000
0001
0000
,
1000
0000
0100
0000
,
0001
0000
1000
0000
,
0010
0000
0000
0000
,
0100
0000
0001
0000
,
1000
0000
0000
0000
,
0010
0000
0100
0000
,
0001
0000
0000
0000
,
1000
0000
0010
0000
,
0100
0000
0001
0000
,
1000
0000
0010
0000
,
0000
0000
0100
0000
,
0001
0000
0010
0000
,
1000
0000
0000
0000
,
0100
0000
0010
0000
,
1000
0000
0000
0000
,
0001
0000
0100
0000
,
0010
0010
0010
0000
,
0001
0000
1000
0000
,
0100
0100
0100
0000
,
0010
0000
0001
0000
,
0001
0001
0001
0000
,
1000
0000
0010
0000
,
1000
1000
1000
0000
,
0110
0000
0000
0000
,
0001
0000
1000
0000
,
0001
0000
0100
0000
,
0010
0000
0100
0000
,
0001
0000
0000
0000
,
1000
0000
0001
0000
,
0010
0000
0100
0000
,
0001
0000
0100
0000
,
0010
0000
0000
0000
,
1001
0000
0000
0000
,
0010
0000
0100
0000
,
0001
0000
0000
0000
,
1000
0000
0010
0000
,
0100
0000
0000
0000
,
0010
0000
0001
0000
,
1000
0000
0000
0000
,
0100
0000
1000
0000
,
0010
0000
0000
0000
,
0001
0000
1000
0000
,
0010
0000
0100
0000
,
0001
0000
1000
0000
,
0010
0000
0000
0000
,
0001
0000
1000
0000
,
0010
0000
0100
0000
,
0001
0000
1000
0000
,
0110
0000
0000
0000
;

//--------------- dance-single - XLev450X-BSP ----------------
#NOTES:
     dance-single:
     XLev450X:
     Easy:
     6:
     0,0,0,0,0:
0000
0000
0000
0000
,
0000
0000
0000
0000
,
0000
0000
0000
0000
,
0000
0000
0000
0000
,
0001
1000
0010
0100
,
0001
0000
1000
0000
,
0010
0001
0100
1000
,
0010
0000
0100
0000
,
1001
0000
0010
0000
,
0100
0001
0010
0000
,
1000
0000
0010
0000
,
0100
0001
0010
1000
,
0100
0000
0001
0000
,
0010
0001
1000
0000
,
0010
0000
1000
0000
,
0001
0100
0010
1000
,
0001
0000
0010
0000
,
1000
0000
0100
0000
,
0001
0000
1000
0000
,
0010
1000
0001
0000
,
0100
0000
0010
0000
,
0010
0001
0100
0000
,
1000
0000
0001
0000
,
0100
0000
0010
0000
,
1001
0000
1010
0000
,
0001
1000
0010
0000
0100
0000
0001
0000
,
0010
0000
0100
0000
,
0010
0001
0010
0000
0100
0000
1000
0000
,
0010
0000
1000
0000
,
0001
0100
0001
0000
1000
0010
1000
0000
,
0001
0000
0100
0010
,
1001
0000
0000
0000
,
0010
0001
1000
0000
,
0100
0001
0010
0000
,
1000
0000
0001
0000
,
0100
0000
0010
0000
1000
0001
0100
0000
,
0010
0000
1000
0000
,
0001
0010
0100
0000
,
1000
0010
0100
0000
,
0010
0001
0100
1000
,
0010
0000
0001
0000
,
1000
0000
0010
0000
,
0100
0000
0001
0000
,
1000
0001
0100
0010
,
1000
0000
0001
0000
,
0010
0000
0100
0000
,
0001
1000
0010
0000
,
0100
0001
1000
0010
,
0100
0000
0001
0000
,
1000
0001
0010
0000
,
1000
0000
0001
0000
,
0010
0100
0001
1000
,
1010
0000
0001
0000
,
0010
0001
0010
0000
0100
1000
0100
0000
,
0010
0000
0100
0000
,
0001
1000
0010
0100
,
1001
0000
0000
0000
;

//--------------- dance-single - XLev450X-DSP ----------------
#NOTES:
     dance-single:
     XLev450X:
     Medium:
     9:
     0,0,0,0,0:
0000
0000
0000
0000
,
0000
0000
0000
0000
,
0000
0000
0000
0000
,
0000
0000
0000
0000
,
0001
0000
0000
0010
0000
0000
0100
0000
0010
0000
0001
0000
1000
0000
0000
0000
,
0000
0000
0010
0000
0000
0100
0000
0000
,
0001
0000
1000
0000
0010
0100
0000
1000
,
0010
0100
0010
0001
,
0100
0000
0001
1000
,
0000
0010
0100
0000
0001
0000
1000
0000
,
0100
1000
0100
0000
0010
0001
0010
0000
,
0000
0000
0010
0000
0000
0100
0000
0001
,
1000
0000
0000
0010
0100
0000
1000
0000
,
0000
0001
0000
0000
0100
0000
0010
0000
,
1000
0000
0000
0010
0100
0000
0001
0000
,
0000
0000
0100
0000
0000
0001
0000
1000
,
0010
0000
0000
0100
1000
0000
0010
0000
,
0001
0000
0000
0100
0010
0000
0001
0000
,
0000
0000
1001
0000
0000
1010
0000
0000
,
0110
0000
0001
1000
,
0010
0000
0000
0100
0001
0000
0010
0000
,
0100
0001
1000
0010
0100
0001
1000
0010
,
0100
0000
0000
0010
0001
0000
0100
0000
,
1000
0000
0000
0010
0100
0000
0001
0000
,
0010
0000
1000
0000
0000
0010
0000
0000
,
0100
0000
0001
0000
0000
0100
0000
0000
,
0001
0000
1000
0000
0000
0010
0000
0100
,
0001
0000
1000
0000
0010
0000
0001
1000
,
0001
0000
0010
0000
0000
0100
0000
0000
,
0001
0000
1000
0000
0010
0000
0100
0001
,
0000
0000
0101
0000
0000
1010
0000
0110
,
0001
0000
0000
1000
0010
0000
0100
0001
,
1000
0000
0010
0000
0000
0100
0000
1001
,
0000
0000
0000
0000
0000
1001
0000
0000
,
0010
0100
0001
0000
1000
0010
0000
0000
,
0100
0000
0001
0000
1000
0010
0000
0000
,
0100
0000
0001
0000
0000
1000
0000
0010
,
0000
0100
0001
1000
,
0010
0000
0100
0001
1000
0000
0010
0100
,
0001
0000
1000
0010
0100
0001
1000
0000
,
0010
0000
0100
0001
,
0000
0010
0001
0000
0100
1000
0000
0010
,
0100
0000
0000
0001
0010
0000
0100
0000
,
0000
0000
1000
0000
0000
0010
0000
0000
,
0100
0000
0001
1000
0000
0000
0000
0000
,
0010
0100
0001
0010
,
1000
0000
0000
0010
0100
0000
0001
0000
,
0000
1000
0010
0100
,
0001
0010
0100
1000
0000
0000
0010
0000
,
0000
0000
1000
0000
0000
0001
0000
0000
,
0100
0010
1000
0001
,
0000
0000
0100
0000
0000
0010
0000
0000
,
1000
0001
0010
0100
,
0001
1000
0010
0100
0001
1000
0010
0100
,
0001
0000
0000
1000
0010
0000
0100
0000
,
0001
0000
1010
0000
0000
0101
0000
0000
,
0110
0000
0000
0000
;

//--------------- dance-single - XLev450X-ESP ----------------
#NOTES:
     dance-single:
     XLev450X:
     Hard:
     11:
     0,0,0,0,0:
0000
0000
0000
0000
,
0000
0000
0000
0000
,
0000
0000
0000
0000
,
0000
0000
0000
0000
,
1000
0000
0000
0010
0000
0000
0100
0000
0010
0000
1000
0000
0100
0000
0001
0000
,
0000
0000
0001
0000
0000
1000
0000
0000
,
0000
1000
0001
0000
0100
0001
0000
1000
,
0100
0010
0100
0010
1000
0100
0001
0010
,
0001
0000
0000
0000
0010
0100
0010
0000
,
0001
1000
0100
1000
0010
0100
0000
0001
,
0010
0000
0000
1000
0000
0000
0100
0000
,
0001
0100
0001
0000
0010
0100
0000
0001
,
0010
0000
0010
0000
0100
0010
0100
0000
,
0010
0100
0001
0010
0100
1000
0000
0100
,
0010
0000
0001
0000
0001
0100
0000
0001
,
0000
1000
0010
0000
0001
1000
0000
0000
,
0010
0100
0001
0010
0100
0000
0000
0000
,
0001
1000
0100
1000
0100
0000
0000
0000
,
0000
0000
1001
0000
0000
1010
0000
0010
,
0001
0000
0100
0000
0001
0010
0000
1000
,
0010
0000
0000
0010
0001
0000
0000
0000
,
0001
0100
0010
1000
0010
0100
0001
0010
,
1100
0000
0101
0000
,
0110
0000
0010
1000
0010
1000
0100
0010
,
0001
0000
1000
0000
0000
0100
0000
0000
,
0001
1000
0001
0010
,
0001
0000
1000
0000
0000
0001
0000
0100
,
0001
1000
0001
1000
,
0001
0000
0100
0000
0000
0001
0000
0000
,
0100
1000
0100
0010
,
0100
0000
1000
0000
0000
0100
0000
0001
,
0010
1000
0000
0010
0001
0000
0010
1000
,
0001
0000
0010
0000
0000
0100
0000
0010
,
0000
0000
1000
0000
0000
0010
0000
0000
,
0100
0010
0001
1000
0000
0001
0000
0000
,
0100
0010
0001
0100
0001
0010
0001
0010
,
0100
0000
0010
0000
0000
0001
0000
0000
,
0001
0100
0001
1000
,
0100
0000
0010
1000
0001
0000
0100
0000
,
0100
1000
0100
1000
0100
0010
0001
0010
,
0100
0000
0000
0000
0001
0010
0001
0000
,
0100
1000
0100
0010
0001
0100
0000
1000
,
0010
0000
0000
0100
0000
0000
0000
0000
,
0000
0100
0001
0000
0010
1000
0000
0010
,
0100
0000
0000
0001
1000
0000
0010
0000
,
0000
0100
0010
0000
0001
0000
0100
0000
,
1000
0000
0000
0001
0100
0000
0000
0010
,
0000
1000
0001
0000
0100
0010
0000
1000
,
0001
0000
0000
0010
0100
0000
0001
0000
,
1000
0010
0100
0001
1000
0000
0010
0000
,
0000
0100
1000
0000
0010
0000
0001
0000
,
0000
0010
0100
0000
0001
1000
0000
0010
,
0100
0000
0000
0001
1000
0010
0001
0000
,
0100
0001
1000
0010
0100
0001
1000
0001
,
0100
0000
0000
0001
1000
0000
0000
0000
,
0010
0000
0001
0000
0000
1000
0000
0000
,
0101
0000
0000
0000
;
