#TITLE:Sorry;
#SUBTITLE:;
#ARTIST:Tom Orlando feat. Pallaso;
#TITLETRANSLIT:;
#SUBTITLETRANSLIT:;
#ARTISTTRANSLIT:;
#GENRE:;
#CREDIT:;
#MUSIC:Sorry.ogg;
#BANNER:Sorry.png;
#BACKGROUND:Sorry-bg.png;
#CDTITLE:;
#SAMPLESTART:12.078;
#SAMPLELENGTH:15.000;
#SELECTABLE:YES;
#OFFSET:-0.080;
#BPMS:0.000=160.027;
#STOPS:;
#BGSTAGE:16;
#DISPLAYBPM:160;
#BGCHANGES:;
#FGCHANGES:;

//--------------- dance-single - XLev450X-bSP ----------------
#NOTES:
     dance-single:
     XLev450X:
     Beginner:
     2:
     0,0,0,0,0:
0000
0000
0000
0000
,
0000
0000
0000
0000
,
0000
0000
0000
0000
,
0000
0000
0000
0000
,
0000
0000
0000
0000
,
0000
0000
0000
0000
,
0000
0000
0000
0000
,
0000
0000
0000
0000
,
0000
0000
0000
0000
,
0000
0000
0000
0000
,
0000
0000
0000
0000
,
0000
0000
0000
0000
,
0000
0000
0000
0000
,
0000
0000
0000
0000
,
0000
0000
0000
0000
,
0000
0000
0000
0000
,
0010
0000
0010
0000
,
0010
0000
0000
0000
,
0100
0000
0100
0000
,
0100
0000
0000
0000
,
0001
0000
0001
0000
,
0001
0000
0000
0000
,
1000
0000
1000
0000
,
1000
0000
0000
0000
,
0010
0100
0010
0000
,
0001
1000
0001
0000
,
0010
0000
0000
0000
,
0001
0000
0000
0000
,
1000
0000
0010
0000
,
0100
0000
0000
0000
,
0001
0000
1000
0000
,
0100
0000
0000
0000
,
0010
0000
0010
0000
,
0000
0000
0000
0000
,
0100
0000
0100
0000
,
0000
0000
0000
0000
,
0001
0000
0001
0000
,
0000
0000
0000
0000
,
1000
0000
1000
0000
,
0000
0000
0000
0000
,
0010
0010
0010
0000
,
0100
0100
0100
0000
,
0001
0001
0001
0000
,
1000
1000
1000
0000
,
0010
0000
0100
0000
,
0001
0000
0000
0000
,
1000
0000
0010
0000
,
0100
0000
0000
0000
,
0010
0000
0000
0000
,
0001
0000
0000
0000
,
1000
0000
0000
0000
,
0100
0000
0000
0000
,
0010
0000
0000
0000
,
0100
0000
0000
0000
,
0001
0000
0000
0000
,
1000
0000
0000
0000
,
1001
0000
0000
0000
;

//--------------- dance-single - XLev450X-BSP ----------------
#NOTES:
     dance-single:
     XLev450X:
     Easy:
     4:
     0,0,0,0,0:
0000
0000
0000
0000
,
0000
0000
0000
0000
,
0000
0000
0000
0000
,
0000
0000
0000
0000
,
0000
0000
0000
0000
,
0000
0000
0000
0000
,
0000
0000
0000
0000
,
0000
0000
0000
0000
,
0000
0000
0000
0000
,
0000
0000
0000
0000
,
0000
0000
0000
0000
,
0000
0000
0000
0000
,
0000
0000
0000
0000
,
0000
0000
0000
0000
,
0000
0000
0000
0000
,
0000
0000
0000
0000
,
0010
0000
0000
0000
,
0001
0000
0000
0000
,
1000
0000
0010
0000
,
0100
0000
0001
0000
,
0010
0000
0000
0000
,
1000
0000
0000
0000
,
0100
0000
0010
0000
,
1000
0000
0010
0000
,
0001
0001
0001
0000
,
1000
1000
1000
0000
,
0010
0010
0010
0000
,
0100
0100
0100
0000
,
0001
0000
0000
0000
,
1000
0000
0000
0000
,
0010
0000
0100
0000
,
0001
0000
1000
0000
,
0010
0100
0001
0000
,
1000
0010
0100
0000
,
0010
0100
0001
1000
,
0010
0000
0100
0000
,
0001
0000
1000
0000
,
0010
0100
0001
0000
,
1000
0000
0010
0000
,
0100
0000
0001
0000
,
1000
0010
1000
0000
,
0100
0001
0100
0000
,
0010
0100
0010
1000
,
0001
0100
0010
0000
,
0001
0000
1000
0000
,
0010
0000
0100
0000
,
0001
1000
0010
0000
,
0100
0001
1000
0010
,
2002
0000
0000
3003
,
0220
0000
0000
0330
,
2020
3030
0202
0303
,
2020
3030
0202
0303
,
0220
0000
0000
0330
,
2002
0000
0000
3003
,
2200
3300
0022
0033
,
2200
3300
0022
0033
,
1001
0000
0000
0000
;

//--------------- dance-single - XLev450X-DSP ----------------
#NOTES:
     dance-single:
     XLev450X:
     Medium:
     7:
     0,0,0,0,0:
0000
0000
0000
0000
,
0000
0000
0000
0000
,
0000
0000
0000
0000
,
0000
0000
0000
0000
,
0000
0000
0000
0000
,
0000
0000
0000
0000
,
0000
0000
0000
0000
,
0000
0000
0000
0000
,
0000
0000
0000
0000
,
0000
0000
0000
0000
,
0000
0000
0000
0000
,
0000
0000
0000
0000
,
0000
0000
0000
0000
,
0000
0000
0000
0000
,
0000
0000
0000
0000
,
0000
0000
0000
0000
,
0001
0010
0001
0000
,
0001
0010
0100
0000
,
0010
0100
0001
1000
,
0100
0000
0010
0000
0100
0001
1000
0000
,
0010
0100
0001
0000
,
0001
1000
0100
0000
,
0010
0100
0001
0100
,
0001
0000
0100
0000
0010
0100
1000
0000
,
0100
0010
0001
1000
,
0100
0000
0000
0001
0000
0000
0100
0000
0010
0000
0000
0000
0000
0000
0000
0000
,
0001
0100
0001
0010
,
0001
0000
0100
0000
0010
0001
0100
0000
,
0010
1000
0100
0000
,
0001
0100
0010
0000
,
0001
1000
0100
1000
,
0010
0000
0100
1000
0001
0010
1001
0000
,
0000
1000
0100
1000
,
0010
0100
0010
0000
,
0001
0100
0010
1000
,
0001
0000
0010
0000
0100
0001
0010
0000
,
0100
1000
0100
0000
,
0001
1000
0100
0000
,
0100
0010
0100
1000
,
0001
0000
0010
0000
0001
0100
0010
0000
,
0100
1000
0010
0100
,
0001
0000
1000
0100
0010
0000
1000
0000
,
0001
0100
0001
1000
,
0010
0000
1000
0010
0001
0000
0010
0000
,
0100
1000
0001
1000
,
0010
0000
0100
0001
0010
0000
1000
0000
,
0001
0100
0001
1000
,
0001
0100
0010
0001
0100
1000
0010
0000
,
0200
0000
0000
0300
,
0002
0000
0000
0003
,
2000
3000
0020
0030
,
0200
0300
0002
0003
,
2000
0000
0000
3000
,
0020
0000
0000
0030
,
0200
0300
0002
0003
,
0200
0300
0020
0030
,
1001
0000
0000
0000
;

//--------------- dance-single - XLev450X-ESP ----------------
#NOTES:
     dance-single:
     XLev450X:
     Hard:
     11:
     0,0,0,0,0:
0000
0000
0000
0000
,
0000
0000
0000
0000
,
0000
0000
0000
0000
,
0000
0000
0000
0000
,
0000
0000
0000
0000
,
0000
0000
0000
0000
,
0000
0000
0000
0000
,
0000
0000
0000
0000
,
0010
0100
0001
0100
0010
0000
0001
0000
,
0010
0000
0000
1000
0000
1000
0001
0010
,
0100
1000
0200
0000
0300
0000
0001
0100
,
0010
0100
0001
0100
0001
0010
0100
0000
,
1000
0001
0100
0010
1000
0000
0100
0000
,
0001
0000
0000
0100
0000
1000
0001
0010
,
0100
1000
0200
0000
0300
0000
1000
0010
,
0100
0001
1000
0100
0001
1000
0100
0000
,
0000
0010
0001
0100
0010
0100
0010
1000
,
0001
0010
0001
0010
0000
0010
0001
0100
,
0001
1000
0010
0100
0001
1000
0001
1000
,
0010
0100
0010
1000
0000
0000
1001
0000
,
0000
0010
0001
1000
0010
1000
0100
1000
,
0000
0100
0001
0100
0001
0100
0010
0000
,
0100
1000
0001
0010
0100
1000
0010
1000
,
0001
0010
0001
1000
0010
1000
0001
0000
,
0000
0100
0010
1000
0001
1000
0100
0010
,
0100
1000
0100
1000
0000
0000
0001
0100
,
0001
0100
0010
0000
0001
0010
0100
1000
,
0001
0000
0000
0000
1000
0000
0000
0100
0000
0000
0010
0000
0000
0000
0010
0000
,
0001
0100
0010
0100
0000
1000
0100
0010
,
0001
0010
0100
1000
0000
1000
0010
0100
,
0001
1000
0100
1000
0001
0010
0100
1000
,
0001
1000
0010
1000
0000
0000
0110
0000
,
0000
1000
0001
1000
0100
0010
0000
1000
,
0001
1000
0100
0010
0000
1000
0100
1000
,
0010
0100
0001
1000
0001
1000
0100
1000
,
0001
0010
0100
1000
0000
0010
0001
1000
,
0010
1000
0010
0100
0001
0010
0100
1000
,
0001
1000
0100
1000
0001
0000
0001
0010
,
0100
1000
0001
0010
0001
0100
0010
0100
,
0001
0100
0001
1000
0002
0000
0003
0000
,
0000
0010
0100
1000
0001
1000
0001
0100
,
0010
0100
0001
0100
0000
1000
0100
0010
,
0100
1000
0001
0100
0001
0010
0001
1000
,
0100
1000
0010
0100
0000
1000
0010
0100
,
0001
0100
0010
1000
0010
1000
0010
0100
,
0001
1000
0001
1000
0010
0100
0001
1000
,
0010
1000
0010
0100
0010
0100
0001
1000
,
0100
0010
0100
1000
0010
1000
0010
0000
,
0001
0010
0100
0010
0001
0000
0100
0000
,
0010
0000
0000
1000
0000
1000
0001
0100
,
0010
0100
0002
0000
0003
0000
0001
1000
,
0100
0010
0100
1000
0010
1000
0100
0000
,
0100
0010
0001
1000
0010
0000
0100
0000
,
0010
0000
0000
0100
0000
1000
0001
0010
,
0100
1000
0200
0000
0300
0000
0001
0100
,
0010
0100
0001
0100
0001
0010
0100
0000
,
1010
0000
0000
0000
;
