#TITLE:So What;
#ARTIST:PRIDASK;
#GENRE:BASS HOUSE;
#MUSIC:So What.ogg;
#BANNER:So What.png;
#BACKGROUND:So What-bg.png;
#CDTITLE:./CDTitles/DANCERUSH STARDOM.png;
#SAMPLESTART:88.125;
#SAMPLELENGTH:15;
#SELECTABLE:YES;
#BPMS:0=128;

//--------------- dance-single - XLev450X-bSP ----------------
#NOTES:
     dance-single:
     XLev450X:
     Beginner:
     3:
     0,0,0,0,0:
0000
0000
0000
0000
,
0000
0000
0000
0000
,
0000
0000
0000
0000
,
1000
0000
0001
0000
,
1000
0000
0000
0000
,
0010
0000
0001
0000
,
0010
0000
0000
0000
,
1000
0000
0100
0000
,
1000
0000
0000
0000
,
0100
0000
0010
0000
,
0100
0000
0000
0000
,
0001
0000
1000
0000
,
0001
0000
0100
0000
,
0010
0000
0000
0000
,
1000
0000
0001
0000
,
0010
0010
0010
0000
,
1000
0001
0100
0000
,
1000
0000
0001
0000
,
0110
0000
0000
0000
,
0010
0000
1000
0000
,
0001
0000
0000
0000
,
0100
0000
0001
0000
,
1000
0000
0000
0000
,
1000
0000
1000
0000
,
1000
0000
0000
0000
,
0001
0000
0001
0000
,
0001
0000
0000
0000
,
0100
0000
1000
0000
,
0010
0000
0001
0000
,
0100
0000
0010
0000
,
1000
0000
0001
0000
,
0010
0000
0100
0000
,
0010
0000
0000
0000
,
0001
0000
0100
0000
,
0001
0000
0000
0000
,
1001
0000
0000
0000
,
0000
0000
0000
0000
,
0010
0000
0010
0000
,
0010
0000
0000
0000
,
0100
0000
1000
0000
,
0100
0000
0000
0000
,
0001
0001
0001
0000
,
1000
1000
1000
0000
,
0010
0100
0010
0000
,
0010
0000
0100
0000
,
1001
0000
0000
0000
,
0000
0000
0000
0000
,
0001
0001
0001
0000
,
1000
0010
1000
0000
,
0100
0100
0100
0000
,
0001
1000
0001
0000
,
1000
0010
0100
0000
,
0001
0100
0001
0000
,
0010
1000
0001
0000
,
0110
0000
0000
0000
,
1001
0000
0000
0000
;

//--------------- dance-single - XLev450X-BSP ----------------
#NOTES:
     dance-single:
     XLev450X:
     Easy:
     6:
     0,0,0,0,0:
0000
0000
0000
0000
,
0000
0000
0000
0000
,
0000
0000
0000
0000
,
1000
0000
0001
1000
,
0010
0000
0100
1000
,
0001
0000
0010
0100
,
0010
0000
0001
0010
,
0001
0000
1000
0000
,
0001
0000
0100
0000
,
0010
0000
1000
0001
,
0200
0000
0000
0310
,
0100
0000
0001
0000
,
1000
0001
1000
0000
,
0010
0000
1000
0000
,
0001
0100
0001
0000
,
0001
0000
1000
0000
,
0001
0000
1000
0010
,
0100
0000
0001
0100
,
0020
0030
2000
3000
0002
0003
0200
0300
,
0001
1000
0001
0000
,
1000
0010
1000
0000
,
0100
0001
0100
0000
,
0010
0100
0010
0000
,
1000
0010
0100
0001
,
1000
0001
0100
0000
,
0010
1000
0001
0100
,
0010
0000
0000
0100
,
0001
0001
0001
0000
,
1000
1000
1000
0000
,
1000
0010
1000
0010
,
0100
0001
0100
1000
,
0001
0001
0001
0000
,
0100
0100
0100
0000
,
0010
1000
0001
0100
,
0020
0000
0000
0130
,
1001
0000
0000
0000
,
0000
0000
0000
0000
,
0001
0001
0001
0000
,
1000
1000
1000
0000
,
1000
0010
1000
0000
,
0010
0100
0010
0000
,
0001
1000
0001
0000
,
0100
0010
1000
0000
,
0001
0100
0001
1000
,
0010
0100
0001
0100
,
2002
0000
0000
0000
,
0000
0000
3003
0000
,
1000
0000
0001
0000
0100
0010
0100
0000
,
1000
0000
0010
0000
0001
0010
0001
0000
,
1000
0000
0100
0000
1000
0010
1000
0000
,
0100
0001
0100
0000
,
0001
0000
1000
0000
0010
1000
0010
0100
,
0001
0000
1000
0000
0001
0100
0010
1000
,
0001
0000
0010
0000
1000
0010
1000
0000
,
0001
0000
0100
0000
0010
1000
0010
0000
,
2002
0000
0000
0000
0000
0000
0000
3003
;

//--------------- dance-single - XLev450X-DSP ----------------
#NOTES:
     dance-single:
     XLev450X:
     Medium:
     9:
     0,0,0,0,0:
0000
0000
0000
0000
,
0000
0000
0000
0000
,
0000
0000
0000
0000
,
1000
0000
0001
0000
0100
0010
1000
0000
,
0001
0000
1000
0000
0001
0100
0010
0000
,
0101
0101
0010
1000
0001
0100
0010
0000
,
1000
0000
0001
0000
1000
0010
0100
0000
,
0001
0000
0010
0001
1000
0010
0100
0000
,
0001
0000
0010
0001
0010
0000
1000
0000
,
0010
0100
0010
0000
1000
0001
0100
0000
,
0020
0000
0030
1001
,
0001
0100
1000
0001
,
0100
0010
1000
0000
,
0001
0010
0001
0000
1000
0010
1000
0000
,
0100
0001
1000
0010
0100
0000
0001
0000
,
1000
0000
0001
0000
0100
0010
1000
0000
,
0001
0000
0100
0000
0010
1000
0001
0000
,
0100
0000
0010
0000
1000
0010
0100
0000
,
0002
0003
2000
3000
0020
0030
0200
0300
,
0001
0000
1000
0001
0100
0000
0010
0000
,
1000
0001
0100
0010
1000
0000
0001
0000
,
1000
0000
0010
0100
0001
0000
1000
0000
,
0001
0100
0010
1000
0001
0100
0010
0000
,
0001
0000
1000
0000
0001
0100
0010
0000
,
1000
0000
0001
0000
1000
0010
0100
0000
,
1000
0000
0001
0000
0100
0010
0001
0000
,
1000
0010
0100
0001
1000
0010
0100
0000
,
0001
1000
0010
1000
,
0001
0100
0010
0000
1000
0001
0100
0000
,
0010
0001
1000
0010
,
0100
0010
1000
0010
0100
0001
1000
0000
,
0101
0000
1010
0000
0110
0001
1000
0000
,
0101
0000
0110
0000
1001
0100
0010
0000
,
1000
0000
0001
0000
0100
0010
1000
0001
,
0100
0000
0001
0000
1000
0000
0010
0100
,
0002
0000
0000
0000
,
0000
0000
0003
1001
,
0010
0000
1000
0000
0001
0100
0010
0000
,
1000
0000
1000
0000
0001
0100
0010
0000
,
0001
0000
0001
0000
1000
0010
1000
0000
,
0100
0001
1000
0010
0100
0000
0000
0000
,
1000
0000
0001
0000
0100
0010
1000
0000
,
0001
0000
0100
0000
1000
0010
0100
0000
,
0001
0000
1000
0000
0010
0100
0001
0000
,
0202
0303
2020
3030
0220
0330
2002
3003
,
0220
0000
0000
0000
,
0000
0000
0000
0330
,
1000
0000
0001
0000
0100
0001
1000
0010
,
0100
0000
0001
0000
1000
0010
0100
0000
,
0001
0000
1000
0000
0010
0100
0001
1000
,
0010
0000
0100
0000
0001
1000
0010
0100
,
0001
0000
1000
0000
0001
1000
0010
0000
,
0100
0000
0001
0000
0100
0001
0100
0000
,
0010
0000
1000
0000
0001
0100
0010
1000
,
0001
0000
0100
0000
0010
1000
0001
0100
,
0020
0000
0000
0000
0000
0000
0000
0000
0000
0000
0000
0000
0000
0000
0000
0000
0000
0000
0000
0000
0000
0030
0000
1001
;

//--------------- dance-single - XLev450X-ESP ----------------
#NOTES:
     dance-single:
     XLev450X:
     Hard:
     14:
     0,0,0,0,0:
0000
0000
0000
0000
,
0000
0000
0000
0000
,
2002
0000
3003
0110
,
0202
0000
0000
0303
0000
0000
0010
0000
1000
0000
0010
0000
1000
0000
0010
0000
0100
0000
0001
0000
1000
0000
0100
0000
,
2000
0000
0000
3000
0000
0000
0001
0000
0100
0000
0010
0000
0100
0010
0001
1000
0100
0001
0020
0000
0000
0030
0000
0000
,
1001
0000
0000
1001
0000
0000
0100
0000
1000
0000
0010
0000
1000
0000
0001
0000
0100
0000
0001
0000
0010
0000
0001
0000
,
0200
0300
0000
0100
1000
0001
1000
0010
0100
0002
0003
0000
,
2020
0000
0000
0000
0000
0000
0000
0000
0000
0000
0000
0000
3030
0000
0000
0000
0000
0000
0000
0000
0000
0000
0000
0000
0001
0000
0000
0000
0000
0000
0000
0000
1000
0000
0000
0000
0000
0000
0000
0000
0010
0000
0000
0000
0000
0000
0000
0000
1000
0000
0000
0000
0000
0000
0000
0000
0000
0001
0000
0000
0000
0000
0000
0000
0000
0000
0000
0000
0100
0000
0000
0000
0001
0000
0000
0000
0000
0000
0000
0000
0100
0000
0000
0000
0000
0000
0000
0000
0001
0000
0000
0000
0000
0000
0000
0000
,
0010
0000
0000
0000
0000
0000
0000
0000
0000
0100
0000
0000
0000
0000
0000
0000
0000
0000
0000
0000
1000
0000
0000
0000
0010
0000
0000
0000
0000
0000
0000
0000
0100
0000
0000
0000
0000
0000
0000
0000
0001
0000
0000
0000
0000
0000
0000
0000
2000
0000
0000
0000
0000
0000
0000
0000
0000
0000
0000
0000
0000
0000
0000
0000
0000
0000
0000
0000
0000
0000
0000
0000
3200
0000
0000
0000
0000
0000
0000
0000
0000
0000
0000
0000
0300
0000
0000
0000
0000
0000
0000
0000
0000
0000
0000
0000
,
0022
0000
0000
0033
0000
0000
0100
0000
1000
0000
0001
0000
0010
0000
0100
1000
0010
0000
0001
0000
0010
0001
0100
0000
,
2000
0000
3000
0001
0010
0001
0200
0000
0000
0002
0000
0303
,
2000
0000
3100
0001
0100
0000
0010
0000
,
0001
0010
0001
1000
0010
0000
0100
0000
,
0001
1000
0010
0100
0001
1000
0010
0100
,
0001
0000
1000
0000
0010
0000
0100
1000
0002
0000
0003
0000
1001
0000
0000
0000
,
0010
0000
0100
1000
0100
0000
0001
0010
0001
0000
0010
0000
0001
0000
0100
0000
,
1000
0000
0010
0100
0010
0000
0001
0100
1000
0000
0001
0000
0010
0000
1000
0000
,
0100
0001
1000
0010
0100
0001
0010
0100
,
0202
0303
2020
3030
0220
0330
2002
3003
,
0010
0000
0000
1000
0001
0000
0100
0000
0010
0000
1000
0000
0002
0000
0003
0000
,
0010
0000
0001
0000
1000
0010
0000
0100
0001
0000
0100
0000
2000
0000
3000
0000
,
0010
0000
0000
0000
0100
0000
0001
0000
1000
0010
0001
0000
0200
0000
0300
0000
,
1000
0000
0001
0000
0100
0001
0000
1000
0010
0000
0100
0000
0001
0000
1000
0000
,
0020
0030
0000
0100
0001
0000
1000
0000
0010
0000
0100
0000
0001
0010
0000
0001
,
1000
0000
0010
0000
0100
0000
0001
0000
1000
0000
0010
0000
0001
0100
0000
0100
,
0010
0000
1000
0000
0001
0000
0100
0000
0010
0000
1000
0000
0001
0100
0000
1000
,
0010
0001
0010
0100
0010
1000
0010
0100
0001
0100
0001
0100
1000
0010
1000
0010
,
0001
0000
0000
1000
0000
0000
0010
0000
1000
0000
0001
0000
0100
0000
0000
0000
,
0001
0000
0010
0000
0001
0000
1000
0001
0010
0000
0100
0000
0001
0000
0000
0000
,
1000
0000
0010
0000
0001
0010
0001
0000
1000
0000
0010
0000
0100
0000
0000
0000
,
0001
1000
0010
0100
0001
1000
0001
0000
,
0100
0000
0000
0010
0000
0000
1000
0000
0000
0001
0000
0000
0001
0000
0100
0000
,
0010
0000
0000
1000
0000
0000
0001
0000
0000
0100
0000
0000
0010
0001
0010
1000
,
0010
0000
0000
0100
0000
0000
0001
0000
0000
1000
0000
0000
0010
0100
0010
0000
,
2000
3000
0010
0100
0001
1000
0010
0100
,
2002
0000
0000
0000
,
0000
0000
0000
0000
0000
3003
0110
0000
,
2000
0000
3000
0001
0100
0000
0010
0000
,
0001
0010
0001
1000
0010
0000
0100
0000
,
0001
1000
0010
0100
0001
1000
0010
0100
,
0001
0000
1000
0000
0010
0000
0100
1000
0002
0000
0003
0000
1001
0000
0000
0000
,
0010
0000
0100
1000
0100
0000
0001
0010
0001
0000
0010
0000
0001
0000
0010
0000
,
1000
0000
0010
0100
0010
0000
0001
1000
0001
0000
1000
0000
0010
0000
0000
0000
,
0100
0001
1000
0010
0100
0001
0010
0100
,
0202
0303
2020
3030
0220
0330
2002
3003
,
0220
0000
0000
0000
,
0000
0000
0000
0000
0000
0000
0000
0000
0000
0000
0000
0000
0000
0000
0000
0000
0000
0000
0000
0000
0000
0000
0000
0000
0330
0000
0000
0000
0000
0000
0000
0000
0100
0000
0000
0000
0000
1000
0000
0000
0001
0000
0000
0000
0100
0000
0000
0000
2000
0000
0000
0000
0000
0000
0000
0000
3100
0000
0000
0000
0000
0000
0000
0000
,
0010
0000
0001
0010
0001
0000
1000
0000
0010
0000
0100
0001
0100
0000
1000
0000
,
0010
0001
0010
0000
0010
1000
0010
0000
0001
1000
0001
0100
0020
0000
1030
0000
,
0100
0000
0010
0001
0010
0000
1000
0010
1000
0000
0001
0000
0200
0000
0310
0000
,
0001
0000
1000
0010
0100
0001
1000
0010
0100
0000
0001
0000
1000
0000
0010
1000
,
0010
0000
0001
1000
0010
0000
0100
0000
0001
0000
1000
0000
0020
0000
0130
0000
,
0100
0000
0010
0001
0010
0000
1000
0000
0010
0000
0100
0000
2000
0000
3001
0000
,
0001
0000
0100
0001
1000
0000
0010
0000
0100
0000
0001
1000
0002
0000
1003
0000
,
0001
1000
0100
0010
1000
0100
0001
0010
0100
0010
1000
0100
0010
0001
0010
0100
,
2002
0000
0000
0000
0000
0000
0000
0000
0000
0000
0000
0000
0000
0000
0000
0000
0000
0000
0000
0000
0000
0000
0000
0000
0000
0000
0000
0000
0000
0000
0000
0000
0000
0000
0000
0000
0000
0000
0000
0000
0000
0000
0000
0000
0000
0000
0000
0000
0000
0000
0000
0000
0000
0000
0000
0000
0000
0000
0000
0000
0000
0000
0000
0000
0000
0000
0000
0000
0000
0000
0000
0000
0000
0000
0000
0000
0000
0000
0000
0000
0000
0000
0000
0000
3003
0000
0000
0000
0000
0000
0000
0000
0000
0000
0000
0000
0000
0000
0000
0000
0000
0000
0000
0000
0000
0000
0000
0000
0000
0000
0000
0010
0000
0000
0000
0000
0000
0000
0000
0000
1000
0000
0000
0000
0000
0000
0000
0000
0000
0000
0000
0000
0001
0000
0000
0000
0000
0000
0000
0000
0000
0000
0000
0000
0200
0000
0000
0000
0000
0000
0000
0000
0000
0000
0000
0000
0000
0000
0000
0000
0000
0000
0000
0000
0000
0000
0000
0000
0300
0000
0000
0000
0000
0000
0000
0000
0000
0000
0000
0000
0000
0000
0000
0000
1001
0000
0000
0000
0000
0000
0000
0000
;
