#TITLE:Skratch Education Lv-1;
#ARTIST:DJ Mass MAD Izm*;
#GENRE:DJ BATTLE;
#MUSIC:Skratch Education Lv-1.ogg;
#BANNER:Skratch Education Lv-1.png;
#BACKGROUND:Skratch Education Lv-1-bg.png;
#CDTITLE:./CDTitles/bm IIDX 32 Pinky Crush.png;
#SAMPLESTART:38.255;
#SAMPLELENGTH:15;
#OFFSET:-0.206;
#BPMS:0=200
,1=100
,29=105
,37=110
,45=115
,53=120
,61=125
,69=130
,77=135
,85=140
,93=145
,101=150
,109=155
,117=160
,125=165
,133=170
,141=175
,149=180
,157=185
,165=190
,173=195
,181=200;
#BGSTAGE:4;

//--------------- dance-single - DJ XLev450X*-bSP ----------------
#NOTES:
     dance-single:
     DJ XLev450X*:
     Beginner:
     3:
     0,0,0,0,0:
0000
0000
0000
0000
,
0000
0000
0000
0000
,
0000
0000
0000
0000
,
0000
0000
0000
0000
,
0000
0000
0000
0000
,
0000
0001
0000
1000
,
0000
0001
0000
1000
,
0000
0010
0001
1000
,
0000
0010
0100
0001
,
0000
0001
1000
0001
,
0000
0010
0010
0010
,
0000
1000
0000
0001
,
1000
0010
0000
1000
,
0000
0001
0001
0000
,
0000
1000
1000
0000
,
0000
0010
0010
0000
,
0000
0100
0100
0000
,
0000
0010
0001
0010
,
0000
1000
0100
1000
,
0000
0010
0100
0010
,
0000
0010
0001
1000
,
0000
0001
0000
1000
,
0000
0001
0000
0000
,
0000
0010
0000
0100
,
0000
0010
0000
0000
,
0000
0001
0000
0001
,
0000
0010
0000
0010
,
0000
0100
0000
0100
,
0000
1000
0000
1000
,
0000
0001
0000
0000
,
0000
0010
0000
0000
,
0000
0100
0000
0000
,
0000
1000
0000
0000
,
0000
1000
0000
1000
,
0000
1000
0000
0000
,
0000
0001
0000
0001
,
0000
0001
0000
0000
,
0000
1000
0000
1000
,
0000
0001
0000
0001
,
0000
1000
0000
1000
,
0000
0010
0010
0010
,
0000
0001
0000
1000
,
0000
0001
0000
0000
,
0000
0010
0000
0100
,
0000
0010
0000
0000
,
0000
1000
1000
1000
,
0000
0001
0001
0001
,
0000
1000
0000
0001
,
0000
1000
0000
0001
,
0000
1001
0000
0000
,
0000
1000
1000
1000
,
0000
0000
0000
0000
,
0000
0001
0001
0001
,
0000
1001
0000
0000
,
0000
0010
0010
0010
,
0000
0000
0000
0000
,
0000
0100
0100
0100
,
0000
0001
0000
0001
,
0000
0001
0000
0000
,
0000
1000
0000
1000
,
0000
1000
0000
0000
,
0000
0010
0000
0100
,
0000
0010
0000
0000
,
0000
0001
0000
0100
,
0000
1000
0000
0110
;

//--------------- dance-single - DJ XLev450X*-BSP ----------------
#NOTES:
     dance-single:
     DJ XLev450X*:
     Easy:
     7:
     0,0,0,0,0:
0000
0000
0000
0000
,
0000
0000
0000
0000
,
0000
0000
0000
0000
,
0000
0000
0000
0000
,
0000
0000
0000
0000
,
0000
0001
1000
0001
,
0000
0010
1000
0010
,
0000
0100
0010
0001
,
0000
1000
0001
0100
,
0000
0010
1000
0001
,
0100
1000
0001
0010
,
0000
1000
0001
1000
,
0010
1000
0001
0100
,
0000
0000
0001
0000
0010
0000
1000
0100
,
1000
0001
0010
0100
,
0000
0000
0010
0000
0001
0000
1000
0001
,
1000
0001
0100
1000
,
0010
0000
0001
0000
1000
0000
0001
0100
,
0001
1000
0010
0000
1000
0000
0001
0000
,
0000
0000
0100
0000
1000
0000
0010
1000
,
0010
0001
1000
0001
,
0000
0100
0001
1000
,
0001
0010
0100
1000
,
0001
0000
0010
0001
0010
0000
1000
0100
,
1000
0000
0001
1000
0001
0000
0100
0010
,
0100
0002
0013
0020
,
0130
0200
1300
2000
,
3001
0002
0103
0200
,
0310
0020
1030
2000
,
3001
1001
1001
1001
,
0000
0010
0001
1000
,
0000
0110
0110
0110
,
0000
0001
0100
0010
,
0000
0001
0000
1000
,
0010
0100
0000
0100
,
0010
1000
0000
1000
,
0001
0100
1000
1000
,
0100
1000
1000
0001
,
2000
3001
0001
1000
,
0002
1003
1000
0001
,
2000
3001
0100
0010
,
1001
0010
1000
0001
,
0000
0001
1000
0001
,
0000
0010
1000
0100
,
0000
0001
1000
0001
,
0100
0010
0000
1000
,
0000
0001
0000
1000
,
0000
0010
0000
0100
,
0000
0001
1000
0001
,
0000
2000
0000
0001
,
0000
0001
0000
3001
,
0000
0020
0000
0100
,
0000
0100
0000
0130
,
0000
0002
0000
1000
,
0000
1000
0000
1003
,
0000
0200
0000
0010
,
0000
0010
0000
0310
,
0000
0001
0000
1000
,
0000
0001
0010
0100
,
0000
1000
0000
0100
,
0000
0010
0100
0010
,
0000
1000
0000
0001
,
0000
1000
0001
1000
,
0000
0010
0000
0100
,
0000
0010
0100
1001
;

//--------------- dance-single - DJ XLev450X*-DSP ----------------
#NOTES:
     dance-single:
     DJ XLev450X*:
     Medium:
     12:
     0,0,0,0,0:
0000
0000
0000
0000
,
0000
0000
0000
0000
,
0000
0000
0000
0000
,
0000
0000
0000
0000
,
0000
0000
0000
0000
,
0000
0000
0000
0000
0001
0000
0000
0000
1000
0000
0000
0000
0001
0000
0000
0100
,
0000
0000
0010
0000
1000
0000
0000
0000
0001
0000
0000
0000
0001
0000
0000
1000
,
0000
0000
0001
0000
0100
0000
0000
0000
0010
0000
0000
0000
0000
1000
0000
0000
,
0001
0100
0010
0000
1000
0000
0001
0000
,
1000
0000
0010
1000
0001
0000
0100
0000
,
0001
0000
1000
0001
1000
0000
0010
0000
,
0100
0000
0001
0010
0001
0000
0001
0000
,
1000
0000
0010
1000
0010
0000
0100
0000
,
1000
0000
0001
1000
0001
1000
0010
0000
,
0110
0000
0010
0001
0010
0001
0010
0000
,
1010
0000
0010
1000
0010
1000
0010
0000
,
0101
0000
0010
0100
0010
0100
0010
0000
,
1001
0000
0001
0000
1000
0000
0001
0010
,
0001
0100
1000
0000
0001
0000
1000
0010
,
1000
0001
0100
0000
1000
0000
0001
1000
,
0001
1000
0010
0000
1000
0000
0010
0001
,
0100
0000
1000
0000
0001
0000
0000
0000
1000
0000
0000
0100
0000
0001
0000
0100
,
1000
0100
0010
1000
0001
1000
0010
0000
,
0001
0000
1000
0000
1000
0000
0100
0000
0001
0000
0000
0010
0000
1000
0000
0010
,
0001
0000
0010
0000
0100
0000
0001
0000
1000
0000
0001
0000
0100
0000
0001
0100
,
1000
0001
0010
0001
0010
0001
0100
0010
,
0100
0010
1000
0100
1000
0100
0010
0001
,
0100
0000
0010
1000
0010
1000
0100
0010
,
0100
0010
0001
0100
0001
0100
0010
1000
,
0100
0000
0000
0000
1001
0000
0000
0000
1001
0000
0000
0000
1100
0000
0000
1100
,
0000
0000
1001
0000
0100
0000
0000
0000
0100
0000
0000
0000
0010
0000
0000
0010
,
0000
0000
1000
0000
1010
0000
0000
0000
1010
0000
0000
0000
1001
0000
0000
1001
,
0000
0101
2002
0000
0000
0000
3003
0000
,
0000
0000
0001
0001
0000
1000
1000
0000
,
0010
0000
0100
0001
0000
0100
0001
0000
,
1000
0000
0010
0010
0000
0100
0100
0000
,
0001
0000
1000
0100
1000
0100
0010
0000
,
0001
0000
1000
0001
1000
0000
0001
1000
,
0020
0000
0130
0001
0100
0000
0001
0100
,
0020
0000
1030
0100
1000
0000
0001
0100
,
0020
0000
0000
0000
1030
0000
0001
0000
1000
0000
0000
0000
0001
0100
0000
0010
,
1000
0000
0001
0000
1000
0000
0001
0000
,
0010
0001
0010
0000
1000
0000
0001
0000
,
1000
0001
1000
0000
0010
0000
1000
0000
,
0010
0100
1000
0001
,
0010
0000
0001
0000
1000
0001
0000
1000
,
0010
0000
0010
0000
0010
0100
0000
0100
,
0010
0000
0001
0000
0001
0010
0000
0001
,
1000
0000
0001
0000
1000
0000
0001
1000
,
0001
0000
0000
0000
0000
0000
0000
0000
0000
0000
0000
0000
0000
0000
0000
0000
0000
0000
0000
0000
0000
0000
0000
0000
0001
0000
0000
0000
0000
0000
0000
0000
0000
0000
0000
0000
1000
0000
0000
0000
0000
0000
0000
0000
0000
0000
0000
0000
0001
0000
0000
0000
0000
0000
0000
0000
0000
0000
0000
0000
0010
0000
0000
0000
0000
0000
0000
0000
0000
0000
0000
0000
0001
0000
0000
0000
0000
0000
0000
0000
0000
0000
0000
0000
1000
0000
0000
0000
0000
0000
0000
0000
0000
0000
0000
0000
,
0010
0000
0000
0000
0000
0000
0000
0000
0000
0000
0000
0000
1000
0000
0000
0000
0000
0000
0000
0000
0000
0000
0000
0000
0001
0000
0000
0000
0000
0000
0000
0000
0000
0000
0000
0000
1000
0000
0000
0000
0000
0000
0000
0000
0000
0000
0000
0000
0001
0000
0000
0000
0000
0000
0000
0000
0000
0000
0000
0000
0100
0000
0000
0000
0000
0000
0000
0000
0000
0000
0000
0000
0001
0000
0000
0000
0000
0000
0000
0000
0000
0000
0000
0000
1000
0000
0000
0000
0000
0000
0000
0000
0000
0000
0000
0000
,
0100
0000
0000
0000
0000
0000
0000
0000
0000
0000
0000
0000
1000
0000
0000
0000
0000
0000
0000
0000
0000
0000
0000
0000
0010
0000
0000
0000
0000
0000
0000
0000
0000
0000
0000
0000
1000
0000
0000
0000
0000
0000
0000
0000
0000
0000
0000
0000
0100
0000
0000
0000
0000
0000
0000
0000
0000
0000
0000
0000
0010
0000
0000
0000
0000
0000
0000
0000
0000
0000
0000
0000
0100
0000
0000
0000
0000
0000
0000
0000
0000
0000
0000
0000
0010
0000
0000
0000
0000
0000
0000
0000
0000
0000
0000
0000
,
0100
0000
0000
0000
0000
0000
0000
0000
0000
0000
0000
0000
1000
0000
0000
0000
0000
0000
0000
0000
0000
0000
0000
0000
0010
0000
0000
0000
0000
0000
0000
0000
0000
0000
0000
0000
0100
0000
0000
0000
0000
0000
0000
0000
0000
0000
0000
0000
0001
0000
0000
0000
0000
0000
0000
0000
0000
0000
0000
0000
1000
0000
0000
0000
0000
0000
0000
0000
0000
0000
0000
0000
0010
0000
0000
0000
0000
0000
0000
0000
0000
0000
0000
0000
0100
0000
0000
0000
0000
0000
0000
0000
0000
0000
0000
0000
,
0010
0000
0000
0000
0000
0000
0000
0000
0000
0000
0000
0000
0100
0000
0000
0000
0000
0000
0000
0000
0000
0000
0000
0000
0001
0000
0000
0000
0000
0000
0000
0000
0000
0000
0000
0000
0100
0000
0000
0000
0000
0000
0000
0000
0000
0000
0000
0000
0001
0000
0000
0000
0000
0000
0000
0000
0000
0000
0000
0000
0010
0000
0000
0000
0000
0000
0000
0000
0000
0000
0000
0000
0001
0000
0000
0000
0000
0000
0000
0000
0000
0000
0000
0000
0100
0000
0000
0000
0000
0000
0000
0000
0000
0000
0000
0000
,
0010
0000
0000
0000
0000
0000
0000
0000
0000
0000
0000
0000
0100
0000
0000
0000
0000
0000
0000
0000
0000
0000
0000
0000
0001
0000
0000
0000
0000
0000
0000
0000
0000
0000
0000
0000
0100
0000
0000
0000
0000
0000
0000
0000
0000
0000
0000
0000
0001
0000
0000
0000
0000
0000
0000
0000
0000
0000
0000
0000
1000
0000
0000
0000
0000
0000
0000
0000
0000
0000
0000
0000
0100
0000
0000
0000
0000
0000
0000
0000
0000
0000
0000
0000
1000
0000
0000
0000
0000
0000
0000
0000
0000
0000
0000
0000
,
0001
0000
0000
0000
0000
0000
0000
0000
0000
0000
0000
0000
0100
0000
0000
0000
0000
0000
0000
0000
0000
0000
0000
0000
0001
0000
0000
0000
0000
0000
0000
0000
0000
0000
0000
0000
0010
0000
0000
0000
0000
0000
0000
0000
0000
0000
0000
0000
0001
0000
0000
0000
0000
0000
0000
0000
0000
0000
0000
0000
0100
0000
0000
0000
0000
0000
0000
0000
0000
0000
0000
0000
0010
0000
0000
0000
0000
0000
0000
0000
0000
0000
0000
0000
0100
0000
0000
0000
0000
0000
0000
0000
0000
0000
0000
0000
,
0010
0000
0000
0000
0000
0000
0000
0000
0000
0000
0000
0000
0100
0000
0000
0000
0000
0000
0000
0000
0000
0000
0000
0000
0002
0000
0000
0000
0000
0000
0000
0000
0000
0000
0000
0000
0000
0000
0000
0000
0000
0000
0000
0000
0000
0000
0000
0000
0100
0000
0000
0000
0000
0000
0000
0000
0000
0000
0000
0000
0000
0000
0000
0000
0000
0000
0000
0000
0000
0000
0000
0000
0103
0000
0000
0000
0000
0000
0000
0000
0000
0000
0000
0000
0000
0000
0000
0000
0000
0000
0000
0000
0000
0000
0000
0000
,
0000
0000
0001
0000
1000
0000
0001
0010
,
0000
1000
0010
0000
0100
0000
0010
0100
,
0000
0010
1000
0000
0001
0000
0010
0001
,
0000
0000
1000
0000
0010
0000
0000
0000
1000
0000
0000
0010
1000
0000
0100
0000
,
0001
0000
0000
0000
0001
0010
0100
0000
1000
0000
1000
0000
0010
0000
0000
0100
,
1000
0000
0001
0000
0100
0000
0010
0000
1000
0000
0001
0000
0100
1000
0000
0001
,
0010
0000
1000
0000
0001
0000
1000
0000
0001
0000
1000
0000
0010
0100
0000
0001
,
1000
0000
0100
0000
0001
0000
0100
0000
0001
0100
1000
0000
2002
0000
0000
0000
,
0000
0000
0000
0000
,
0000
0000
0000
0000
,
0000
0000
0000
0000
,
0000
0000
0000
0000
0000
3003
0000
0000
0000
0000
0000
0000
0000
0000
0000
0000
;

//--------------- dance-single - DJ XLev450X*-ESP ----------------
#NOTES:
     dance-single:
     DJ XLev450X*:
     Hard:
     15:
     0,0,0,0,0:
0000
0000
0000
0000
,
0000
0000
0000
0000
,
0000
0000
0000
0000
,
0000
0000
0000
0000
,
0000
0000
0000
0000
,
0000
0000
0000
0000
0001
0000
0000
0000
1000
0000
0000
0000
0010
0000
0000
1000
,
0000
0000
0001
0000
1000
0000
0000
0000
0100
0000
0000
0000
0010
0000
0000
1000
,
0000
0000
0001
0000
0010
0000
0001
0010
0001
0000
1000
0000
0010
0000
0000
0001
,
0000
1000
0001
0000
1000
0010
1000
0000
,
0010
0000
0000
0000
1000
0000
0001
0000
0010
0000
0000
0100
0000
0000
0010
0000
,
0010
1000
0000
0001
0100
0000
1000
0000
0010
0000
0001
1000
0010
0000
1000
0001
,
0010
1000
0010
1000
0100
0000
0001
1000
0010
0000
1000
0000
0001
0100
0000
1000
,
0000
0001
0000
1000
0010
0000
1000
0000
0001
0000
0000
1000
0000
0010
1000
0000
,
1002
0000
0003
0000
0001
0000
0010
1000
0010
1000
0001
0000
0001
0000
1000
0000
,
0010
0000
0000
0000
0001
0000
0010
0001
0010
0001
1000
0000
0001
0010
0100
0000
,
1000
0000
0001
0000
1000
0001
0010
1000
0001
0100
1000
0001
0010
0000
0100
0000
,
1000
0000
0100
0010
0001
0010
0001
0100
1000
0000
0001
0000
0100
0000
1000
0000
,
0120
0000
0130
0000
1000
0000
0001
0000
1000
0000
0000
0010
0000
0000
0100
0000
,
1000
0000
0001
0010
0001
0000
1000
0000
0010
0000
1000
0000
0000
1000
0000
0000
,
0001
0000
0000
0000
1000
0000
0100
0000
0001
0010
0001
0000
0010
0000
0010
1000
,
0001
1000
0001
0100
0010
0000
1000
0000
0001
0000
0010
0000
1000
0000
0001
0000
,
0010
0000
1000
0000
0001
0000
1000
0000
0010
0000
0000
0001
0000
0000
1000
0000
,
0001
0000
0010
0000
1000
0000
0001
0000
0010
0000
0000
0100
0000
0000
1000
0000
,
0001
0000
0010
0000
0001
0000
1000
0000
0001
0000
0000
0100
0000
0000
1000
0000
,
0001
0000
0010
0000
0100
0000
0010
0001
0000
1000
0000
0100
0001
0000
0100
0000
,
1000
0100
0010
0001
1001
0000
0100
0000
0010
0000
0001
0010
0000
0010
0000
0001
,
0010
0100
1000
0000
1001
0000
0100
0000
0010
0000
1000
0010
0000
0010
0000
1000
,
0010
0000
0000
0100
0000
0000
0001
0000
0000
0000
0000
0000
1000
0000
0000
0000
0000
0000
0100
0000
0000
0010
0000
0000
0001
0000
0010
0000
0100
0000
1000
0000
0000
0100
0000
0000
0000
0000
0000
1000
0000
0000
0000
0000
0000
0001
0000
0000
,
0100
0000
0101
0000
1100
0000
0001
1000
0100
0000
0101
0000
1000
0001
0100
0010
,
1000
0001
0100
0000
0001
0000
0001
0000
0001
0000
0001
0000
0001
0000
0001
1000
,
0000
0100
0010
0001
0010
0000
0010
0000
0010
0000
0010
0000
0010
0000
0010
0100
,
0000
1000
0100
0001
0100
0000
0100
0000
0100
0000
0100
0000
0100
0000
0100
0010
,
0000
0001
0010
0100
2000
0000
0000
0000
0002
0000
0000
0000
0000
0000
0000
0000
,
3003
0000
0000
0000
0001
0000
1000
0100
1000
0000
0100
0000
0010
0000
0001
0000
,
1000
0000
0000
0000
0010
0000
0100
0001
0100
0000
0001
0000
0010
0000
0100
0000
,
1000
0000
0000
0000
0001
0000
0100
0010
0100
0000
0001
0000
1000
0000
0100
0000
,
0010
0000
0000
0000
0001
1000
0001
1000
0001
0000
0010
0000
0100
0000
1000
0000
,
1001
0000
0001
0001
0010
0001
0001
1000
,
0001
0100
0000
0001
1000
0000
1000
0000
0100
0000
0010
0000
0010
0000
0200
0000
,
2300
3020
0130
0100
0010
1000
1000
0001
,
1000
0100
0000
0010
0001
0100
0001
0100
0001
0000
0001
0000
0010
0000
0001
0000
,
1000
0000
0100
0000
0001
0100
1000
0000
0010
0000
0100
0000
1000
0000
0001
0000
,
1000
0000
0010
0000
1000
0100
0001
0000
0010
0000
0001
0000
0010
0000
1000
0000
,
0100
0000
1000
0000
0001
0100
0001
0000
1000
0000
0010
0000
1000
0100
0001
0000
,
0100
0000
1000
0000
0010
0001
0010
0000
1000
0000
0001
0010
0100
0000
1100
0000
,
0101
0100
1000
0001
0000
0110
0000
0001
,
1000
0000
0010
0000
1000
0100
0000
0001
,
0010
0000
1000
0000
0001
0010
0000
1000
,
0001
0000
0000
0000
0100
0000
0001
0010
1000
0100
0001
0100
1000
0100
0010
0001
,
0010
0100
1000
0000
0100
0000
0010
0000
0001
0000
0100
0000
0010
0000
1000
0000
,
0001
0100
0010
0100
0010
0100
0001
1000
,
0001
0010
0001
0100
0010
0100
0001
1000
,
0100
0010
0001
0010
0001
1000
0100
0010
,
0100
1000
0010
0100
0010
0100
0001
0010
,
0100
1000
0010
0000
0100
0000
1000
0000
0010
0000
0100
0000
0010
0000
1000
0001
,
0010
0100
1000
0000
0100
0000
0010
0000
0001
0000
0010
0000
0100
0000
0010
0000
,
0001
0010
1000
0100
0002
0000
0000
0000
1003
0000
0000
0000
2002
0000
0000
0000
,
3003
0000
0001
0000
1000
0000
0010
0100
,
0000
1000
0001
0000
0010
0000
0001
0010
,
0000
1000
0100
0000
1000
0000
0001
1000
,
0000
0010
1000
0000
0001
0010
0001
0000
,
1000
0100
0001
0000
0100
0000
0001
0000
1000
0000
0010
0000
1000
0000
0000
0001
,
0000
0000
0100
0000
0010
0000
1000
0000
0001
0000
0100
0000
0100
0000
0000
1000
,
0000
0000
0001
0000
0100
0000
1000
0000
0001
0000
0010
0000
1000
0000
0000
0100
,
0000
0001
1000
0001
0100
0010
2002
0000
,
0000
0000
0000
0000
,
0000
0000
0000
0000
,
0000
0000
0000
0000
,
0000
0000
0000
0000
0000
3003
0000
0000
0000
0000
0000
0000
0000
0000
0000
0000
;
