#TITLE:Silent Hill (2023 Christmas Special);
#SUBTITLE:;
#ARTIST:THOMAS HOWARD;
#TITLETRANSLIT:;
#SUBTITLETRANSLIT:;
#ARTISTTRANSLIT:;
#GENRE:;
#CREDIT:;
#MUSIC:Silent Hill.ogg;
#BANNER:Silent Hill.png;
#BACKGROUND:Silent Hill-bg.png;
#CDTITLE:./CDTITLES/DANCE DANCE REVOLUTION 3RDMIX.PNG;
#SAMPLESTART:33.090;
#SAMPLELENGTH:15.000;
#SELECTABLE:YES;
#OFFSET:0.000;
#BPMS:0.000=125.000;
#STOPS:;
#BGSTAGE:3;
#BGCHANGES:;
#FGCHANGES:;

//--------------- dance-single - StormTaker21 ----------------
#NOTES:
     dance-single:
     StormTaker21:
     Challenge:
     14:
     0,0,0,0,0:
0000
0000
0000
0000
,
0000
0000
0000
0000
,
0000
0000
0000
0000
,
0000
0000
0000
0000
,
0000
0000
0000
0000
,
0000
0000
0000
0000
0000
0000
0000
0000
1000
0000
0010
0100
0010
0000
0100
0000
,
0001
0000
1000
0010
0100
0000
0001
0000
1000
0000
0010
0100
0001
0000
1000
0000
,
0001
0000
0100
0010
0100
0000
0001
0000
1000
0000
0010
0100
0001
0000
1000
0000
,
0001
0000
1000
0010
1000
0000
0001
0000
0100
0000
0010
0100
0001
0000
1000
0000
,
0010
0100
0001
0000
1001
0000
0000
0000
0010
0100
0001
0000
0100
0000
0010
0000
,
1000
0001
1000
0000
0010
0000
0100
0010
0100
0010
0100
0001
0010
0000
0001
0000
,
0010
0000
0100
0001
1000
0000
0010
0000
0100
0000
0001
1000
0010
0000
0100
0000
,
0001
0000
1000
0001
1000
0000
0010
0000
0100
0001
1000
0000
0010
0000
0100
0000
,
0001
1000
0010
0000
1000
0000
0010
0000
1000
0000
0001
0100
0001
0000
0100
0000
,
0010
0000
1000
0001
1000
0000
0010
0000
0100
0000
0001
0000
1000
0000
0010
0000
,
1010
0000
0101
0000
0010
1000
0001
0000
0100
0000
0010
0000
1000
0000
0001
0000
,
0010
0100
0010
0100
0010
0100
0010
0001
0000
0100
0010
0000
1000
0000
0001
0000
,
0100
0010
1000
0000
0001
0000
0100
0000
0010
1000
0001
0100
0010
0000
1000
0000
,
0001
0000
0100
0000
0010
0000
1000
0000
0001
0100
0010
1000
0001
0000
0100
0000
,
0010
0000
0100
0000
0001
0000
0100
0000
0010
0100
0001
0000
0100
0010
0100
0000
,
0001
1000
0001
1000
1001
0010
1010
0001
,
1001
0000
0010
0000
0110
0000
0001
0000
0101
0000
0010
1000
0001
0000
0100
0000
,
0010
1000
0001
0100
0010
0000
1000
0000
0001
0100
0010
1000
0001
0000
0100
0000
,
0010
0000
0100
0000
0110
0000
0001
0000
0100
0010
1000
0000
0001
0000
0100
0000
,
0010
1000
0001
0100
0010
0000
1000
0000
1001
0000
0010
0100
0001
0000
0100
0000
,
0010
0000
1000
0000
1001
0000
0010
0000
0100
0000
1001
0000
0010
0100
0001
1000
,
0010
0000
0100
0000
0001
0000
1000
0000
0010
0100
0001
1000
0010
0100
0001
1000
,
0010
0000
1000
0000
0001
0000
0100
0000
0010
0100
0110
0000
0010
0000
0100
0000
,
0001
1000
0010
0100
0001
0000
1000
0000
0010
1000
0001
1000
0010
0000
1000
0000
,
0001
0000
1001
0000
1010
0000
0001
0000
1000
0000
0001
1000
0010
0000
0100
0000
,
0001
0000
1000
0000
0010
0100
0001
0000
0100
0000
0010
0000
1000
0000
0001
0000
,
1000
0010
0100
0000
0001
0000
1000
0000
0010
0100
0001
1000
0010
0000
0100
0000
,
0001
0100
0001
0100
0010
0000
1000
0000
1010
0000
0001
0000
0101
0000
0010
0000
,
0110
0000
0001
0000
1001
0000
0010
0000
0110
0000
0001
0100
0001
1000
0010
0000
,
0100
0000
0001
0100
0010
0000
1000
0000
0001
0100
0010
0100
0001
0000
1000
0000
,
0010
0000
0100
0000
0001
0000
1000
0000
0010
0100
0001
1000
0010
0000
0100
0000
,
0001
0100
0001
0100
0101
0010
1010
0010
,
0110
0000
0001
0000
0101
0000
0010
0000
1001
0000
0001
1000
0010
0100
0001
1000
,
0010
0000
0100
0000
0001
1000
0010
0100
0001
0000
0001
0000
0001
0001
0100
0010
,
0100
0000
0001
0000
0100
0000
0010
0000
1000
1000
1000
1000
1000
0000
0010
0000
,
0100
0010
0100
0001
0100
0000
0010
0000
1001
0000
0010
0100
0001
0000
1000
0000
,
0010
0100
0001
0000
1000
0000
0010
0000
0100
0001
0100
0010
1000
0001
0100
0000
,
0010
0000
1000
0000
0001
0000
0100
0000
0010
1000
0001
0100
0010
0000
1000
0000
,
0001
0000
0100
0000
0010
0000
0100
0000
0001
0100
0001
0100
0001
0100
0001
0100
,
0001
0100
0001
0100
0001
0000
0010
0000
0100
0000
0001
0000
0100
0000
0010
1000
,
0001
0000
0100
0000
0010
0000
1000
0000
1001
0000
0010
0100
0001
0000
0100
0000
,
0010
0000
0100
0001
0100
0000
0010
0000
1000
0000
0001
0000
1000
0000
0010
0000
,
0110
0000
0001
0000
0101
0000
0010
0000
1010
0000
0001
0100
0010
0000
1000
0000
,
0001
0100
0010
1000
0001
0100
0010
1000
,
0001
1000
0001
1000
0010
0100
0001
1000
0010
0000
0001
0100
0202
0000
0000
0000
,
0000
0000
0303
0000
;
