#TITLE:Shoot the Moon;
#SUBTITLE:;
#ARTIST:BEMANI Sound Team "TAG";
#TITLETRANSLIT:;
#SUBTITLETRANSLIT:;
#ARTISTTRANSLIT:TAG;
#GENRE:;
#CREDIT:;
#MUSIC:Shoot the Moon.ogg;
#BANNER:Shoot the Moon.png;
#BACKGROUND:Shoot the Moon-bg.png;
#CDTITLE:./CDTitles/NOSTALGIA Op.3.png;
#SAMPLESTART:85.776;
#SAMPLELENGTH:15.000;
#SELECTABLE:YES;
#OFFSET:-0.341;
#BPMS:0.000=138.000;
#STOPS:;
#BGSTAGE:16;
#BGCHANGES:;
#FGCHANGES:;

//--------------- dance-single - XLev450X-bSP ----------------
#NOTES:
     dance-single:
     XLev450X:
     Beginner:
     3:
     0,0,0,0,0:
0000
0000
0000
0000
,
0000
0000
0000
0000
,
0000
0000
0000
0000
,
0000
0000
0000
0000
,
0000
0000
0000
0000
,
0000
0001
0000
0000
0000
1000
0000
0000
,
0000
0010
0000
0000
0000
0000
0000
0000
,
0000
0100
0000
0000
0000
0001
0000
0000
,
0000
1000
0000
0000
0000
0000
0000
0000
,
0000
0010
0000
0010
0000
0010
0000
0000
,
0000
0001
0000
1000
0000
0010
0000
0000
,
0000
0100
0000
1000
0000
0001
0000
0000
,
0000
0100
0000
0001
0000
1000
0000
0000
,
0000
0010
0000
0000
0000
0100
0000
0000
,
0000
0001
0000
0000
0000
1000
0000
0000
,
0000
0010
0000
0000
0000
0100
0000
0000
,
0000
0001
0000
0000
0000
0010
0000
0000
,
0000
1000
0000
0000
0000
0010
0000
0000
,
0000
0001
0000
0000
0000
1000
0000
0000
,
0000
0010
0000
0000
0000
0100
0000
0000
,
0000
0001
0000
0000
0000
1000
0000
0000
,
0000
0010
0000
0000
0000
1000
0000
0001
,
0000
0010
0000
0000
0000
0100
0000
0001
,
0000
1000
0000
0000
0000
0010
0000
0100
,
0000
1001
0000
0000
0000
0000
0000
0000
,
0000
0010
0000
0000
0000
0100
0000
0000
,
0000
0001
0000
0000
0000
0000
0000
0000
,
0000
1000
0000
0000
0000
0010
0000
0000
,
0000
0100
0000
0000
0000
0000
0000
0000
,
0000
0001
0000
0000
0000
1000
0000
0000
,
0000
0010
0000
0000
0000
0000
0000
0000
,
0000
0100
0000
0000
0000
0001
0000
0000
,
0000
1000
0000
0000
0000
0000
0000
0000
,
0000
0010
0000
0100
0000
0001
0000
0000
,
0000
1000
0000
0010
0000
0100
0000
0000
,
0000
0001
0000
0000
0000
1000
0000
0000
,
0000
0001
0000
0000
0000
0000
0000
0000
,
0000
0010
0000
0100
0000
0001
0000
0000
,
0000
1000
0000
0010
0000
0100
0000
0000
,
0000
0001
0000
0000
0000
1000
0000
0000
,
0000
0010
0000
0000
0000
0000
0000
0000
,
0000
0100
0000
0000
0000
0001
0000
0000
,
0000
1000
0000
0000
0000
0000
0000
0000
,
0000
1000
0000
0000
0000
0001
0000
0000
,
0000
0010
0000
0000
0000
0000
0000
0000
,
0000
0100
0000
0000
0000
0001
0000
0000
,
0000
0010
0000
0000
0000
1000
0000
0000
,
0000
0001
0000
0000
0000
0100
0000
0000
,
0000
1001
0000
0000
0000
0000
0000
0000
,
0000
0010
0000
0000
0000
1000
0000
0000
,
0000
0001
0000
0000
0000
0000
0000
0000
,
0000
0100
0000
0000
0000
0001
0000
0000
,
0000
0010
0000
0000
0000
0000
0000
0000
,
0000
1000
0000
0000
0000
0001
0000
0000
,
0000
0100
0000
0000
0000
0000
0000
0000
,
0000
0010
0000
0000
0000
1000
0000
0000
,
0000
0001
0000
0000
0000
0000
0000
0000
,
0000
0010
0000
0000
0000
0010
0000
0000
,
0000
0010
0000
0000
0000
0000
0000
0000
,
0000
0100
0000
0000
0000
0100
0000
0000
,
0000
0100
0000
0000
0000
0000
0000
0000
,
0000
0001
0000
1000
0000
0010
0000
0000
,
0000
0100
0000
1000
0000
0001
0000
0000
,
0000
0010
0000
0100
0000
0001
0000
1000
,
0000
0010
0000
0000
0000
0100
0000
0001
,
0000
1001
0000
0000
0000
0000
0000
0000
;

//--------------- dance-single - XLev450X-BSP ----------------
#NOTES:
     dance-single:
     XLev450X:
     Easy:
     6:
     0,0,0,0,0:
0000
0000
0000
0000
,
0000
0000
0000
0000
,
0000
0000
0000
0000
,
0000
0000
0000
0000
,
0000
0000
0000
0000
,
0000
0001
0000
1000
0000
0010
0000
0000
,
0000
0100
0000
0001
0000
1000
0000
0000
,
0000
0010
0000
0100
0000
0001
0000
1000
,
0000
0220
0000
0000
0000
0000
0000
0000
,
0330
0001
0000
1000
0000
0010
0000
0100
,
0000
1000
0000
0001
0000
0100
0000
0010
,
0000
1000
0000
0000
0000
0001
0000
0000
,
0000
0100
0000
0010
0000
1000
0000
0001
,
0000
0010
0000
0000
0000
0100
0000
0001
,
0000
1000
0000
0000
0000
0010
0000
1000
,
0000
0001
0000
0100
0000
0010
0000
1000
,
0000
0010
0000
0000
0000
0100
0000
0000
,
0000
0001
0000
1000
0000
0001
0000
0000
,
0000
0100
0000
0001
0000
0010
0000
0000
,
0000
0010
0000
1000
0000
0100
0000
0001
,
0000
0010
0000
0100
0000
0001
0000
1000
,
0000
0010
0000
0000
0000
0100
0000
0001
,
0000
1000
0000
0000
0000
0010
0000
1000
,
0000
0001
0000
0000
0000
0100
0000
0010
,
0000
0002
0000
0000
0003
1000
0000
0010
,
0000
0002
0000
0003
0000
2000
0000
3000
,
0020
0000
0030
0100
0000
0001
0000
0010
,
0000
2000
0000
0000
3000
0002
0000
0003
,
0020
0000
0030
1000
0000
0001
0000
0010
,
0000
0200
0000
0000
0300
0002
0000
0003
,
0020
0000
0030
1000
0000
0001
0000
0100
,
0000
0020
0000
0000
0030
2000
0000
3000
,
0200
0000
0000
0000
0300
0002
0000
0003
,
0000
0010
0000
1000
0000
0001
0000
0000
,
0000
0100
0000
0010
0000
0001
0000
0000
,
0000
1000
0000
0001
0000
0100
0000
0010
,
0000
1000
0000
0000
0000
0001
0000
0010
,
0000
0100
0000
0001
0000
0000
0000
1000
,
0000
0001
0000
0100
0000
0010
0000
0000
,
0000
0001
0000
0010
0000
1000
0000
0001
,
0000
0100
0000
0000
0000
0010
0000
0000
,
0000
1000
0000
0001
0000
0010
0000
0100
,
0000
0001
0000
0000
0000
0010
0000
0000
,
0000
1000
0000
0001
0000
0100
0000
0010
,
0000
1000
0000
0000
0000
0001
0000
0000
,
0000
0010
0000
0100
0000
0001
0000
1000
,
0000
0010
0000
0001
0000
1000
0000
0010
,
0000
0100
0000
0001
0000
1000
0000
0010
,
0000
2002
0000
0000
0000
0000
0000
3003
,
0000
0010
0000
1000
0000
0001
0000
0000
,
0000
0100
0000
0001
0000
0010
0000
0000
,
0000
1000
0000
0010
0000
0100
0000
0001
,
0000
1000
0000
0001
0000
0010
0100
0001
,
0000
1000
0000
0000
0000
0001
0000
0100
,
0000
0010
0000
0000
0000
0001
0000
1000
,
0000
0010
0100
0001
0000
0001
1000
0010
,
0000
0100
0000
0000
0000
0001
0000
0000
,
0000
1000
0000
0001
0000
0100
0000
0010
,
0000
0001
0000
0000
0000
1000
0000
0010
,
0000
1000
0000
0000
0000
0100
0000
0001
,
0000
0010
0000
0100
0000
0001
0000
0000
,
0000
1000
0000
0001
0000
0100
0000
0000
,
0000
0010
0000
0100
0000
0001
0000
0000
,
0000
1000
0000
0001
0000
0010
0000
0100
,
0000
0001
0100
0010
0000
1000
0010
0100
,
0000
2002
0000
0000
0000
0000
0000
0000
,
3003
0000
0000
0000
;

//--------------- dance-single - XLev450X-DSP ----------------
#NOTES:
     dance-single:
     XLev450X:
     Medium:
     9:
     0,0,0,0,0:
0000
0000
0000
0000
,
0000
0000
0000
0000
,
0000
0000
0000
0000
,
0000
0000
0000
0000
,
0000
0000
0000
0000
,
0000
0001
0000
1000
0010
0100
0000
0001
,
0000
0100
0000
0010
1000
0001
0000
0000
,
0000
0100
0001
0010
0000
1000
0010
0100
,
0000
2002
0000
0000
0000
0000
0000
0000
,
3003
0000
0001
0000
0000
0100
0000
0000
1000
0000
0010
0000
0100
0000
0001
0000
,
0000
0000
0010
0000
0000
0100
0000
0000
1000
0000
0010
0000
0000
0000
0100
0000
,
0000
0000
1000
0000
0000
0001
0000
0000
0010
0000
0100
0000
1000
0000
0010
0000
,
0000
0001
0000
1000
0000
0010
0100
0001
,
0000
0000
0010
0000
0000
1000
0000
0000
0001
0000
0010
0000
0000
0000
0100
0000
,
0000
0000
0001
0000
0000
1000
0000
0000
0010
0000
0100
0000
0000
0000
0001
0000
,
0000
0000
0010
0000
0000
0100
0000
0000
0001
0000
1000
0000
0000
0000
0010
0000
,
0000
0100
0000
0001
0000
1000
0010
0100
,
0000
0001
0000
1000
0010
0100
0000
0001
,
0000
1000
0010
0100
0000
1000
0001
0000
,
0000
0100
0010
0001
0000
1000
0010
0100
,
0000
0001
0000
0000
0000
1000
0000
0010
,
0000
0100
0001
0010
0000
0000
0001
1000
,
0000
0010
1000
0100
0000
0000
0001
0010
,
0000
0100
0000
1000
0000
0010
0000
0100
,
0000
0001
0000
0000
0000
1000
0000
0010
,
0000
0100
0000
0001
0000
1000
0010
0100
,
0001
0000
0010
1000
0000
0100
0000
0001
,
0000
0010
0000
0100
0000
0001
1000
0010
,
0100
0000
0001
1000
0010
0100
0000
0000
,
0000
0001
0000
1000
0000
0010
0000
0000
,
0100
0000
0000
0000
0001
0000
1000
0000
0000
0000
0010
0000
0000
0100
0000
0000
,
0001
1000
0000
0010
0000
0100
0001
0010
,
0100
0000
1000
0010
0000
0100
0000
0000
,
0000
0001
0100
0010
0000
1000
0010
0100
,
0000
0001
0000
0000
1000
0001
0000
0100
,
0000
0010
0100
0001
0000
0010
1000
0010
,
0100
0000
0000
0001
0000
1000
0010
0100
,
0000
1000
0000
0000
0001
0000
0100
0010
,
0000
1000
0000
0001
0000
0100
0010
0100
,
0000
0001
0000
1000
0000
0001
0000
0010
,
0000
0100
0000
1000
0000
0001
0100
0010
,
0000
1000
0000
0001
0000
0100
0000
0010
,
0000
0001
0000
0000
0000
1000
0000
0000
,
0000
0010
0000
0100
0000
0001
0000
1000
,
0000
0010
0000
0000
0000
0100
0000
0001
,
0000
0001
1000
0010
0000
0100
1000
0010
,
0000
0100
0001
0010
0000
1000
0010
0100
,
0000
0001
1000
0010
0100
0001
1000
0010
,
0100
2002
0000
0000
0000
0000
0000
0000
,
3003
0001
0000
1000
0000
0010
0100
1000
,
0000
0010
0001
0100
0010
0000
1000
0001
,
0000
0010
0000
0100
0000
0001
0010
0100
,
0000
1000
0000
0010
0000
0100
0000
1000
,
0000
0001
0010
0100
0000
1000
0000
0010
,
0000
0200
0000
0000
0300
0001
0000
1000
,
0000
0010
0100
1000
0000
0001
0010
0100
,
0000
0001
0000
1000
0000
0020
0000
0000
,
0030
0100
0000
1000
0000
0010
0000
0100
,
0000
0001
0000
0100
0000
0010
1000
0001
,
0000
0100
0000
1000
0000
0001
0000
0100
,
0000
0010
0000
1000
0000
0001
0100
0010
,
0000
1000
0000
0000
0000
0001
0000
0100
,
0000
0010
0000
0000
0000
0100
0000
0001
,
0000
1000
0010
0100
0000
0001
0010
0100
,
0000
0001
1000
0010
0100
0001
1000
0010
,
0100
2002
0000
0000
0000
0000
0000
0000
,
3003
0000
0000
0000
;

//--------------- dance-single - XLev450X-ESP ----------------
#NOTES:
     dance-single:
     XLev450X:
     Hard:
     14:
     0,0,0,0,0:
0000
0000
0000
0000
,
0000
0000
0000
0000
,
0000
0000
0000
0000
,
0000
0000
0000
0000
,
0000
0000
0000
0000
,
0000
0001
1000
0010
0000
0100
1000
0001
,
1000
0100
0010
0001
0000
1000
0010
0100
,
0000
0001
1000
0010
1000
0001
1000
0010
,
1000
0020
0000
0000
0000
0000
0030
0000
,
0000
0000
0001
0000
0000
1000
0000
0000
0001
0000
0010
0000
0100
0000
0001
0000
,
0000
0000
1000
0000
0000
0100
0000
0000
0001
0000
0010
0000
0000
0000
0010
0000
,
0000
0000
0100
0000
0000
0001
0000
0000
1000
0000
0001
0000
0000
0000
1000
0000
,
0000
0000
0001
0000
0000
0100
0000
0000
1000
0000
0010
0000
1000
0000
0001
0000
,
0000
0000
0100
0000
0000
0001
0000
0000
0010
0000
0100
0000
1000
0000
0100
0000
,
0000
0000
0001
0000
0000
0100
0000
0000
0010
0000
1000
0000
0000
0000
0010
0000
,
0000
0000
0100
0000
0000
0010
0000
0000
0001
0000
1000
0000
0010
0000
0100
0000
,
0001
1000
0000
0010
0000
0100
0000
1000
,
0000
0001
0100
0010
0000
0001
0010
0100
,
1000
0001
0010
0100
0000
1000
0001
0100
,
0010
1000
0001
0100
0000
0010
0001
0100
,
1000
0010
0100
0010
0000
0001
1000
0010
,
0100
0001
0010
1000
0000
0001
0100
0010
,
0000
1000
0001
0100
0010
0000
1000
0001
,
0000
0100
0010
1000
0001
0100
0010
0100
,
0001
1000
0000
0010
0000
0100
0000
0001
,
0000
1001
0000
0000
0000
0010
0000
0000
,
0100
0000
0000
0001
0000
1000
0000
0010
,
0100
0001
0000
0000
0000
1000
0000
0000
,
0010
0000
0000
0100
0000
0001
1000
0010
,
0100
0001
0000
0010
0000
0100
0000
0001
,
1000
0000
0000
0000
0010
0000
0100
0000
1000
0000
0001
0000
0000
1000
0000
0000
,
0010
0100
0000
0001
0000
1000
0000
0010
,
0100
0000
0001
1000
0010
0100
0000
0001
,
0000
0010
1000
0001
0000
0100
1000
0010
,
0100
0001
0010
0100
0000
0001
0010
0100
,
1000
0001
0010
0100
0000
1000
0001
0100
,
0010
1000
0000
0001
0000
0100
0010
0001
,
0000
1000
0010
0100
0000
0010
0100
0001
,
0000
0010
1000
0000
0000
0001
0100
0010
,
0000
0001
1000
0010
0100
0001
1000
0010
,
0000
0000
0001
0000
0000
0000
0100
0000
0000
0000
0010
0000
1000
0100
0001
0000
,
0010
0100
0000
1000
0000
0010
0100
0001
,
0000
0001
0000
1000
0000
0010
0100
0001
,
0000
0010
0000
1000
0000
0001
0100
0010
,
0000
1000
0000
0001
0000
0100
0010
0001
,
0000
1000
0010
0100
0000
0001
1000
0010
,
0000
0100
0000
0001
0000
1000
0010
0100
,
0000
0001
1000
0010
0001
0100
0010
1000
,
0001
0000
0001
0010
0100
0010
0100
1000
0010
0100
0001
0010
0100
0010
0100
0000
,
0000
0000
0001
0000
0000
1000
0000
0000
0010
0000
0100
0000
0000
0000
0001
0000
,
0000
0000
0010
0000
0000
0100
0000
0000
0001
0000
1000
0000
0001
0010
0001
1000
,
0010
0001
0100
0000
0000
1000
0000
0000
0010
0000
0100
0000
0000
0000
0001
0000
,
1000
0000
0010
0000
0000
0100
0000
0000
0001
0000
0010
0000
0001
0100
0001
0010
,
0001
0010
0100
0000
0000
0010
0000
0000
0100
0000
0001
0000
1000
0000
0010
0000
,
0100
0000
1000
0000
0000
0010
0000
0000
0100
0000
0001
0000
0000
0000
0010
0000
,
1000
0000
0001
0000
0000
0100
0000
0000
0010
0000
0001
0000
0100
0000
1000
0000
,
0010
0000
0100
0000
0000
0000
0001
0000
0000
0000
0001
0010
0001
0100
0010
0100
,
0010
0100
0001
0000
1000
0000
0000
0010
0000
0100
0000
0000
0001
0000
1000
0000
,
0010
0000
0100
0000
0001
0000
1000
0010
0000
0100
0000
0000
0001
0000
0010
0000
,
0100
0000
0001
0000
1000
0000
0010
0100
0000
0001
0000
0000
1000
0000
0010
0000
,
0100
0000
0001
0000
1000
0100
0010
0000
0100
0001
0010
0000
1000
0100
0010
0000
,
0100
1000
0010
0100
0001
1000
0010
0100
,
0001
1000
0010
0100
0001
1000
0010
0100
,
0001
0000
0100
1000
0010
0100
0001
0000
1000
0000
0001
0010
0001
1000
0100
0000
,
0001
0000
0001
0100
0001
0010
0001
0100
0010
0100
0010
0100
0001
1000
0100
0010
,
0001
1000
0002
0000
0000
0000
0000
0000
0000
0000
0000
0000
0000
0000
0000
0000
,
0003
0000
0000
0000
;
