#TITLE:脱皮 ~Knock Out Regrets~;
#ARTIST:MAKI@TOGO.BAND;
#TITLETRANSLIT:Shedding ~Knock Out Regrets~;
#GENRE:J-PUNKISH GIRL;
#MUSIC:Shedding -Knock Out Regrets-.ogg;
#BANNER:Shedding -Knock Out Regrets-.png;
#BACKGROUND:Shedding -Knock Out Regrets--bg.png;
#CDTITLE:./CDTitles/pnm 12 Iroha.png;
#SAMPLESTART:48.746;
#SAMPLELENGTH:15;
#OFFSET:-0.079;
#BPMS:0=180;
#BGSTAGE:4;

//--------------- dance-single - XLev450X-bSP ----------------
#NOTES:
     dance-single:
     XLev450X:
     Beginner:
     4:
     0,0,0,0,0:
0000
0000
0000
0000
,
0000
0000
0000
0000
,
0000
0000
0000
0000
,
0000
0000
0000
0000
,
0000
1000
0000
1000
,
0000
0100
0000
1000
,
0000
0001
0000
0001
,
0000
0100
0000
0001
,
0000
0010
0000
0010
,
0000
0001
0000
0010
,
0000
0100
0000
0100
,
0000
1000
0000
0100
,
0000
2002
0000
3003
,
0000
1000
0000
0000
,
0000
0010
0000
0000
,
0000
0100
0000
0000
,
0001
0001
0000
0001
,
0000
1000
0000
1000
,
0000
0001
0000
0010
,
0000
0100
0000
0000
,
0000
2002
0000
3003
,
0000
0001
0000
0000
,
0000
0010
0000
0000
,
0000
0100
0000
0000
,
1000
1000
0000
1000
,
0000
0001
0000
0001
,
0000
0100
0000
0010
,
0000
1000
0000
0000
,
0000
0001
0000
0001
,
0000
0001
0000
0100
,
0000
1000
0000
1000
,
0000
1000
0000
0100
,
0000
0002
0000
0003
,
0000
2000
0000
3000
,
0000
0200
0000
0300
,
0000
1000
0000
0001
,
0000
1000
1000
0000
,
0001
0000
1000
0000
,
0010
0000
0100
0000
,
0010
0000
1000
0000
,
0100
0100
0100
0000
,
0010
0000
0001
0000
,
0100
0000
0010
0000
,
1000
0000
0001
0000
,
1000
1000
1000
0000
,
0001
0000
1000
0000
,
0010
0000
0100
0000
,
0010
0000
1000
0000
,
0001
0001
0000
0001
,
0000
0010
0000
0100
,
0000
2000
0000
3000
,
0000
0002
0000
0003
,
0000
0001
0000
0100
,
0000
0010
0000
1000
,
0000
0001
0000
0100
,
0000
1000
0000
0000
,
0000
1000
0000
0100
,
0000
0010
0000
0000
,
0000
0001
0000
0001
,
0000
0001
0000
0100
,
0000
1000
0000
1000
,
0000
1000
0000
0100
,
0000
0002
0000
0003
,
0000
2000
0000
3000
,
0000
0200
0000
0300
,
0000
1000
0000
0001
,
0000
1000
1000
0000
,
0001
0000
1000
0000
,
0010
0000
0100
0000
,
0010
0000
1000
0000
,
0100
0100
0100
0000
,
0010
0000
0001
0000
,
0100
0000
0010
0000
,
1000
0000
0001
0000
,
1000
1000
1000
0000
,
0001
0000
1000
0000
,
0010
0000
0100
0000
,
0010
0000
1000
0000
,
0001
0001
0000
0001
,
0000
0010
0000
0100
,
0000
2000
0000
3000
,
0000
0002
0000
0003
,
0000
0001
0000
0100
,
0000
0010
0000
1000
,
0000
0001
0000
0000
,
0000
0010
0000
0000
,
0000
0100
0000
0000
,
0000
1000
0000
0000
,
0000
2002
0000
0000
,
0000
0000
0000
3003
;

//--------------- dance-single - XLev450X-BSP ----------------
#NOTES:
     dance-single:
     XLev450X:
     Easy:
     6:
     0,0,0,0,0:
0000
0000
0000
0000
,
0000
0000
0000
0000
,
0000
0000
0000
0000
,
0000
0000
0000
0000
,
0000
1000
0000
1000
,
0000
0010
1000
0100
,
0000
0001
0000
0001
,
0000
0010
0001
0100
,
0000
0010
0000
0010
,
0000
1000
0001
1000
,
0000
2002
0000
0000
,
3003
1000
1000
0001
,
0001
1001
0000
0000
,
0000
1000
0001
1000
,
0100
0100
0000
0010
,
0000
0001
1000
0001
,
0100
0100
0010
1000
,
0000
0100
0010
0001
,
0000
1000
0010
0100
,
0001
0200
0000
0000
,
0300
1001
0000
0000
,
0000
0001
1000
0001
,
0100
0100
0000
0010
,
0000
1000
0001
1000
,
0100
0100
0010
0001
,
0000
0100
0010
1000
,
0000
1001
0000
0110
,
0000
1000
1000
1000
,
1000
0010
0100
0001
,
0000
0001
0100
0010
,
0000
1000
0100
0010
,
0000
0010
0100
1000
,
0000
0001
0000
0001
,
0000
0001
0010
0001
,
0010
0100
0000
0100
,
0000
0100
1000
0100
,
1000
0001
0100
0001
,
0001
1000
0000
0100
,
0000
0010
0001
0010
,
0010
0100
0000
1000
,
0000
0001
0100
1000
,
1000
0100
0000
0001
,
0000
1000
0100
0001
,
0001
0100
1000
0001
,
1000
0001
0010
0001
,
0001
1000
0000
0010
,
0000
0100
0001
0100
,
0100
0010
0000
1000
,
0000
0001
0001
1000
,
1000
0020
0000
0130
,
0010
2000
3000
0002
,
0003
0010
0010
0010
,
0010
0001
0001
1000
,
1000
0200
0300
0020
,
0030
0001
1000
0001
,
0000
0010
1000
0010
,
0000
0010
0100
0010
,
0000
0001
1000
0001
,
0000
0010
0100
0001
,
0000
0001
0100
0010
,
0000
1000
0100
0010
,
0000
0010
0100
1000
,
0000
0001
0000
0001
,
0000
0001
0010
0001
,
0010
0100
0000
0100
,
0000
0100
1000
0100
,
1000
0001
0100
0001
,
0001
1000
0000
0100
,
0000
0010
0001
0010
,
0010
0100
0000
1000
,
0000
0001
0100
1000
,
1000
0100
0000
0001
,
0000
1000
0100
0001
,
0001
0100
1000
0001
,
1000
0001
0010
0001
,
0001
1000
0000
0010
,
0000
0100
0001
0100
,
0100
0010
0000
1000
,
0000
0001
0001
1000
,
1000
0020
0000
0130
,
0010
2000
3000
0002
,
0003
0010
0010
0010
,
0010
0001
0001
1000
,
1000
0200
0300
0020
,
0030
0001
0100
0001
,
0100
0010
1000
0001
,
0000
1000
0100
1000
,
0100
0010
0001
1000
,
0000
1001
0000
0000
;

//--------------- dance-single - XLev450X-DSP ----------------
#NOTES:
     dance-single:
     XLev450X:
     Medium:
     10:
     0,0,0,0,0:
0000
0000
0000
0000
,
0000
0000
0000
0000
,
0000
0000
0000
0000
,
0000
0000
0000
0000
,
0000
0000
0001
0000
0000
0100
0010
0000
,
0000
1000
0010
0100
0000
0001
0000
0000
,
1000
0000
0100
0000
0000
0010
0100
0000
,
0000
1000
0100
0010
0000
0001
0000
0000
,
0100
0000
0010
0000
0000
1000
0010
0000
,
0000
0100
0010
1000
0000
0001
0000
0000
,
0100
0010
1000
0001
,
1000
0101
1010
1100
,
0011
0000
2002
0000
0000
0000
0000
3003
,
0000
1001
0000
0000
1000
0000
0001
0100
,
0000
0010
0000
0100
0010
0000
1000
0000
,
0001
0100
0001
0010
,
0100
0000
1001
0000
0000
0020
0000
0230
,
0000
2300
0000
3000
0000
0020
0000
0230
,
0000
0302
0000
0003
1000
0000
0100
0000
,
0001
0000
0100
0000
0000
1000
0000
0000
,
0001
0000
2002
0000
0000
0000
0000
3003
,
0000
1001
0000
0000
0001
0000
1000
0010
,
0000
0100
0000
0010
0100
0000
0001
0000
,
1000
0010
1000
0100
,
0010
0000
1001
0000
0000
0200
0000
0320
,
0000
0032
0000
0003
0000
0200
0000
0320
,
0000
2030
0000
3000
0001
0000
0010
0000
,
1000
0000
0010
0000
0001
0000
1000
0001
,
1000
0001
1000
0000
1000
0000
1000
0000
,
1000
0001
0100
0000
0010
0000
0100
0001
,
0010
0100
1000
0000
1000
0000
1000
0000
,
1000
0000
0001
0000
0100
0000
0010
2000
,
0000
3002
0000
0003
0010
0000
0100
1000
,
0000
1100
0000
0000
0010
0000
0100
0001
,
0000
0101
0000
0000
0001
0000
1000
0000
,
0001
1000
0000
0100
0010
1000
0010
0001
,
0010
1000
0110
0000
0001
0000
1000
0100
,
0000
0010
0000
0100
1000
0000
0010
0100
,
0000
0002
0000
0000
1000
0000
1000
0000
,
1003
0100
0100
0010
,
0010
0001
0000
1000
0100
0000
0100
0000
,
0100
0010
0001
0100
,
0010
1000
1000
1000
,
0001
0000
0010
0000
0000
1100
0000
0101
,
0000
0010
0010
0100
,
0100
1000
0000
0001
0010
0000
0010
0000
,
0010
0100
1000
0010
,
0100
0001
0001
0001
,
0001
0100
1000
0100
,
0001
0020
0030
1000
,
0010
0000
0001
0000
0000
0001
0000
0000
,
0001
0000
1000
0000
0000
1000
0000
0000
,
1000
0010
0001
0010
,
1000
0200
0300
0020
,
0030
0001
1000
0010
,
0000
0000
0100
0000
0001
0000
0010
0001
,
0010
1000
0100
1000
,
0000
0000
0001
0000
0100
0000
0010
0100
,
0010
1000
1000
1000
,
1000
0001
0100
0000
0010
0000
0100
0001
,
0010
0100
1000
0000
1000
0000
1000
0000
,
1000
0000
0001
0000
0100
0000
0010
2000
,
0000
3002
0000
0003
0010
0000
0100
1000
,
0000
1100
0000
0000
0010
0000
0100
0001
,
0000
0101
0000
0000
0001
0000
1000
0000
,
0001
1000
0000
0100
0010
0000
0010
0000
,
0010
0000
0110
0000
0001
0000
1000
0100
,
0000
0010
0000
0100
1000
0000
0010
0100
,
0000
0002
0000
0000
1000
0000
1000
0000
,
1003
0100
0100
0010
,
0010
0001
0000
1000
0100
0000
0100
0000
,
0100
0010
0001
0100
,
0010
1000
1000
1000
,
0001
0000
0010
0000
0000
1100
0000
0101
,
0000
0010
0010
0100
,
0100
1000
0000
0001
0010
0000
0010
0000
,
0010
0100
1000
0010
,
0100
0001
0001
0001
,
0001
0100
1000
0100
,
0001
0020
0030
1000
,
0010
0000
0001
0000
0000
0001
0000
0000
,
0001
0000
1000
0000
0000
1000
0000
0000
,
1000
0010
0001
0010
,
1000
0200
0300
0020
,
0030
0001
0100
1000
,
0100
0010
1000
0100
,
0001
0100
0010
0001
,
0010
1000
0001
0100
,
1000
2002
0000
0000
,
0000
0000
0000
3003
;

//--------------- dance-single - XLev450X-ESP ----------------
#NOTES:
     dance-single:
     XLev450X:
     Hard:
     14:
     0,0,0,0,0:
0000
0000
0000
0000
,
0000
0000
0000
0000
,
0000
0000
0000
0000
,
0000
0000
0000
0000
,
1001
0000
1000
0010
0000
0100
0001
0010
,
0000
1000
0010
0001
1000
0001
0000
1000
,
0100
1000
0001
0010
0000
0100
1000
0010
,
0000
0001
0010
1000
0001
1000
0000
0001
,
0100
0001
0010
0100
0000
0001
0100
1000
,
0000
0010
0001
0010
1000
0001
0000
1000
,
0010
1000
0100
0010
0001
1000
0001
1000
,
0001
1000
1001
0000
0011
0000
0110
0000
,
1100
0000
2002
0000
0000
0000
0000
3003
,
0000
0110
0000
0001
0010
0100
1000
0010
,
0100
0010
0000
0010
0100
0001
0010
0100
,
1000
0001
0100
0001
1000
0001
0010
0000
,
1100
0000
0011
0000
1000
0100
1000
0001
,
1000
0010
1000
0001
0100
1000
0100
0010
,
0100
0001
0010
1000
0010
0100
0010
0001
,
0100
0010
1000
0001
0010
0100
1000
0010
,
0100
0001
2002
0000
0000
0000
0000
3003
,
0000
0110
0000
1000
0010
0100
0001
0010
,
0100
0010
0000
0010
0100
1000
0010
0100
,
0001
1000
0100
1000
0001
1000
0010
0000
,
0101
0000
1010
0000
0001
0100
0001
1000
,
0001
0010
0001
1000
0100
0001
0100
0010
,
0100
1000
0010
0001
0010
0100
0010
1000
,
0100
0010
0002
0000
1000
0000
1000
0000
,
1003
0001
0201
0000
0010
0000
0001
0000
,
0310
1000
1020
0000
0100
0000
1030
0010
,
0100
0001
0021
0000
0100
0000
0001
0000
,
0130
1000
1200
0000
0010
0000
1300
0001
,
0000
0010
0200
0000
1000
0000
1000
0000
,
1300
0002
0100
0000
0100
0000
0100
0000
,
0103
0020
1000
0000
1000
0000
1000
0000
,
1030
0000
0001
0000
0010
0100
1000
0100
0010
0001
0010
0100
1000
0100
0010
0001
,
0010
0100
1000
0100
0010
0000
0000
0000
1010
0000
0000
0000
1000
0000
0100
0000
,
0000
1100
0000
0100
1000
0010
0100
0002
,
0000
2003
0000
3001
0010
0100
1000
0001
,
0010
0100
2000
0000
0100
0000
3001
0100
,
0010
2000
0000
0000
3010
0000
0000
0100
,
0001
0020
0000
0000
0130
0000
1000
0010
,
0001
0010
1000
0100
0001
0100
1000
0010
,
0100
0002
2000
3003
0000
0110
0000
1001
,
0000
0000
0100
0010
0100
0000
0000
0000
0101
0000
0000
0000
0001
0000
0010
0000
,
0000
0011
0000
0010
0001
0100
0010
2000
,
0000
3002
0000
1003
0010
0100
0001
1000
,
0010
0100
0002
0000
0000
1000
0000
0103
,
0000
0001
0101
0000
1100
0000
0101
0000
,
0011
1100
0001
1100
,
0011
0000
1001
0000
0100
1100
0000
0000
,
0011
0000
1010
0000
0001
0101
0000
0000
,
0100
1010
0011
1010
,
1100
0002
0003
2000
,
3000
0000
0001
1000
0010
0100
1000
0010
,
0001
0010
1000
0100
1000
0001
0010
1000
,
0001
0000
0100
1000
0001
0100
1000
0010
,
0100
1000
0010
0100
0001
0010
1000
0001
,
0100
2001
0100
0100
,
3100
1000
0002
0000
0100
0000
0100
0000
,
0103
0001
0020
0000
0100
0000
0100
0000
,
0130
1000
0020
0000
0100
0000
0100
0100
,
0030
0100
0210
0000
0010
0000
0010
0000
,
0310
0020
1000
0000
1000
0000
1000
0000
,
1030
2000
0001
0000
0001
0000
0001
0000
,
3001
0000
0010
0000
1000
0100
0010
0001
0010
0100
1000
0100
0010
0001
0010
0100
,
1000
0100
0010
0001
0010
0000
0000
0000
0100
0000
0000
0000
0001
0000
1000
0000
,
0000
0001
0000
1000
0010
0100
0001
2000
,
0000
3002
0000
0003
1000
0000
0001
0010
,
0100
0000
1000
0010
0100
0000
0010
1000
,
0001
0200
0000
0000
0301
0000
0010
0000
,
0001
2000
0000
0000
3100
0000
0010
0000
,
0001
1000
0010
0100
0001
0000
0100
0010
,
1000
0000
0101
0000
0000
1001
0000
0110
,
0000
0000
0001
1000
0001
0000
0000
0000
0010
0000
0000
0000
1000
0000
0001
0000
,
0000
1000
0000
0001
0100
0010
1000
0002
,
0000
2003
0000
3000
0001
0000
1000
0100
,
0010
0000
0001
0100
0010
0000
0100
0001
,
1000
0001
0020
0000
2030
0000
3020
0000
,
0032
2003
3010
0002
,
0023
0000
2030
0000
0100
3100
0000
0000
,
0110
0000
0002
0000
0100
0103
0000
0000
,
0010
1020
0130
0021
,
0130
0000
1100
0000
0000
0110
0101
0000
,
0000
0000
0011
0000
1000
0100
1000
0001
,
1000
0010
1000
0001
0100
1000
0100
0010
,
0100
0001
0010
1000
0010
0100
0010
0001
,
0100
0010
1000
0001
0010
0100
1000
0010
,
0001
0100
2002
0000
0000
0000
0000
0000
,
0000
0000
0000
0000
0000
0000
0000
0000
0000
0000
0000
0000
0000
0000
0000
0000
0000
0000
0000
0000
0000
0000
0000
0000
0000
0000
0000
0000
0000
0000
0000
0000
0000
0000
0000
0000
0000
0000
0000
0000
0000
0000
0000
0000
0000
0000
0000
0000
0000
0000
0000
0000
0000
0000
0000
0000
0000
0000
0000
0000
0000
0000
0000
0000
0000
0000
0000
0000
0000
0000
0000
0000
0000
0000
0000
0000
0000
0000
0000
0000
0000
0000
0000
0000
0000
0000
0000
0000
0000
0000
0000
0000
0000
0000
0000
0000
0000
0000
0000
0000
0000
0000
0000
0000
0000
0000
0000
0000
0000
0000
0000
0000
0000
0000
0000
0000
0000
0000
0000
0000
0000
0000
0000
0000
0000
0000
0000
0000
0000
0000
0000
0000
0000
0000
0000
0000
0000
0000
0000
0000
0000
0000
0000
0000
3003
0000
0000
0000
0000
0000
0000
0000
0000
0000
0000
0000
0000
0000
0000
0000
0000
0000
0000
0000
0000
0000
0000
0000
0000
0000
0000
0000
0000
0000
0000
0000
0000
0000
0000
0000
0000
0000
0000
0000
0000
0000
0000
0000
0000
0000
0000
0000
;
