#TITLE:Set Me Free (Hommarju Remix);
#ARTIST:Hommarju;
#MUSIC:Set Me Free (Hommarju Remix).ogg;
#BANNER:Set Me Free (Hommarju Remix).png;
#BACKGROUND:Set Me Free (Hommarju Remix)-bg.png;
#CDTITLE:./CDTitles/DANCERUSH STARDOM.png;
#SAMPLESTART:0.524;
#SAMPLELENGTH:15;
#OFFSET:-0.129;
#BPMS:0=152;
#BGSTAGE:28;

//--------------- dance-single - XLev450X-bSP ----------------
#NOTES:
     dance-single:
     XLev450X:
     Beginner:
     4:
     0,0,0,0,0:
0000
0000
0000
0000
,
0000
0000
0000
0000
,
0000
0000
0000
0000
,
0000
0000
0000
0000
,
0000
0000
0000
0000
,
0000
0000
0000
0000
,
0000
0000
0000
0000
,
0000
0000
0000
0000
,
0000
0001
0001
0001
,
0000
1000
1000
1000
,
0000
0010
0100
0010
,
0100
0010
0000
0000
,
0000
0001
1000
0001
,
0000
0010
1000
0010
,
0000
0100
0001
0100
,
0000
0001
0010
1000
,
0000
1000
1000
0100
,
0000
0010
0100
1000
,
0000
0001
0010
0100
,
0000
0100
0010
0000
,
0000
0010
1000
0010
,
0000
0001
0010
0001
,
0000
1000
0100
1000
,
0000
1000
0001
0010
,
0000
0100
0000
0001
,
0000
1000
0000
0000
,
0000
0010
0000
1000
,
0000
0100
0000
0000
,
0000
0010
0010
0001
,
0000
1000
0001
1000
,
0000
0010
0100
0010
,
0000
0010
1000
0010
,
0000
0001
1000
0001
,
0000
1000
0000
0001
,
0000
0100
0001
1000
,
0000
2002
0000
0000
,
3003
0010
0000
0001
,
0000
0010
0000
0100
,
0000
1000
0000
0100
,
0000
1000
0000
0001
,
0000
1000
0000
0001
,
0000
0010
0000
0000
,
0000
1000
0000
0100
,
0000
0001
0000
0000
,
0000
0001
1000
0001
,
0000
0010
0000
0100
,
0000
1000
0100
1000
,
0000
0001
0000
1000
,
0000
0001
0000
0010
,
0000
1000
0000
0000
,
0000
1000
0000
0100
,
0000
0001
0000
0000
,
0000
0001
0000
1000
,
0000
0001
0000
0000
,
0000
0010
0000
0100
,
0000
0000
0000
0000
,
0000
0001
1000
0001
,
0000
0010
0000
1000
,
0000
0100
1000
0100
,
0000
0001
0000
0000
,
0000
0010
1000
0010
,
0000
0100
0000
1000
,
0000
0001
0010
1000
,
0000
0001
0000
0000
,
0000
1000
0100
0001
,
0000
0010
1000
0010
,
0000
0100
1000
0001
,
0000
0001
1000
0010
,
0000
0100
0000
0001
,
0000
1000
0000
0000
,
0000
0001
0000
1000
,
0000
0002
0000
0000
,
0000
0003
0000
0000
;

//--------------- dance-single - XLev450X-BSP ----------------
#NOTES:
     dance-single:
     XLev450X:
     Easy:
     6:
     0,0,0,0,0:
0000
0000
0000
0000
,
0000
0000
0000
0000
,
0000
0000
0000
0000
,
0000
0000
0000
0000
,
0000
0000
0000
0000
,
0000
0000
0000
0000
,
0000
0000
0000
0000
,
0000
0000
0000
0000
,
0000
0001
1000
0010
,
0100
1000
0001
0100
,
1000
0000
0001
0010
1000
0000
0010
1000
,
0010
2002
0000
0000
0000
0000
0000
0000
,
0000
3003
0010
0000
1000
0000
0100
0000
,
1000
0010
1000
0000
0001
0000
0100
0000
,
1000
0001
0100
1000
,
0001
0010
0001
0000
1000
0010
1000
0000
,
0100
1000
0001
1000
,
0010
1000
0010
0000
0001
0000
0100
0000
,
1000
0000
0001
0010
0001
0000
1000
0010
,
1000
0100
1000
0000
,
0000
0001
1000
0100
,
1000
0010
1000
0010
,
0000
1000
0001
0100
,
0001
1000
0010
1000
,
0000
0100
1000
0001
,
1000
0001
0100
1000
,
0001
0000
0010
1000
,
0100
0002
0000
0000
,
0000
0003
0010
0000
1000
0000
0100
0000
,
0001
0000
1000
0000
0001
0010
0001
0000
,
1000
0100
1000
0010
,
1000
0000
0100
0000
1000
0010
1000
0000
,
0001
1000
0100
1000
,
0001
0000
0100
0000
1000
0001
1000
0000
,
0001
0000
0010
1000
0010
0000
0010
0100
,
0010
2002
0000
0000
0000
0000
0000
0000
,
0000
3003
0001
0000
1000
0000
0010
0000
,
0000
1000
0100
0001
,
0010
0001
1000
0001
,
0100
0010
1000
0010
,
0100
0001
1000
0001
,
0000
0010
1000
0100
,
0010
0010
0100
0001
,
1000
0200
0000
0000
0000
0000
0000
0000
,
0300
1000
0001
0010
,
1000
0000
0100
0000
1000
0000
0001
1000
,
0001
0010
1000
0100
,
0010
0000
0100
0000
1000
0000
0001
0010
,
0001
1000
0100
1000
,
0010
0000
0100
0000
1000
0000
0010
1000
,
0010
0001
1000
0100
,
0001
0000
0010
0000
1000
0000
0001
1000
,
0001
0001
1000
0010
,
0000
1000
0100
0001
,
0000
1000
0100
0001
,
0010
2002
0000
0000
,
0000
3003
0001
0000
1000
0000
0100
0000
,
1000
0000
0010
0001
0010
0000
0010
1000
,
0010
0100
1000
0001
,
0100
1000
0001
0100
,
0000
0010
1000
0100
,
1000
0000
0001
0010
0001
0000
1000
0010
,
1000
0100
1000
0001
,
0200
0000
0000
0000
0000
0000
0000
0000
0000
0010
0000
0000
0000
0000
0010
0000
0000
0000
0020
0000
0000
0000
0000
0000
,
0000
0330
0001
0000
1000
0000
0010
0000
,
1000
0000
0100
0000
1000
0000
0001
0010
,
1000
0000
0001
0000
0100
0000
1000
0001
,
1000
0001
0010
1000
0010
0000
0001
0000
,
1000
0010
0010
1000
,
0100
0000
1000
0001
0100
0000
1000
0000
,
0001
0000
0100
0000
0010
0001
0010
0000
,
1000
0000
0000
0020
0000
0000
0000
0000
0000
1000
0000
0000
0000
0000
1000
0000
0000
0000
2000
0000
0000
0000
0000
0000
,
0000
3030
1001
0000
0000
0000
0000
0000
;

//--------------- dance-single - XLev450X-DSP ----------------
#NOTES:
     dance-single:
     XLev450X:
     Medium:
     10:
     0,0,0,0,0:
0000
0000
0000
0000
,
0000
0000
0000
0000
,
0000
0000
0000
0000
,
0000
0000
0000
0000
,
0000
0000
0000
0000
,
0000
0000
0000
0000
,
0000
0000
0000
0000
,
0000
0000
0000
0000
,
0000
0001
1000
0010
,
1000
0000
0100
1000
0000
0000
0001
0000
0000
0010
0000
0000
,
1000
0000
0000
0001
0000
1000
0010
0000
0100
1000
0000
0001
,
0010
0000
2000
0000
0000
0001
0000
0001
0000
0002
0000
0000
,
0000
3003
0010
0000
1000
0000
0100
0000
,
1000
0000
0001
0010
0001
0000
1000
0100
,
1000
0001
1000
0100
,
1000
0000
0010
0000
1000
0000
0100
1000
,
1000
0001
1000
0100
,
0001
0000
0100
0000
1000
0010
1000
0000
,
0001
0010
0001
0000
1000
0000
0100
0000
,
1000
0000
0001
0010
1000
0000
1001
0000
,
0000
0001
1000
0100
,
1000
0001
0100
1000
,
0010
0100
1000
0010
,
0001
0000
0010
0001
0010
0000
1000
0100
,
1000
0100
1000
0001
,
0100
0000
1000
0000
0010
1000
0010
0000
,
0010
0100
1000
0001
,
0100
1001
0000
0000
,
0000
0010
1000
0100
,
1000
0000
0000
0001
0000
0010
0001
0000
1000
0010
0000
0100
,
1000
0000
0001
0100
0000
0000
0001
0000
0000
0010
0000
0000
,
1000
0000
0000
0100
0000
0010
0100
0000
0001
0010
0000
1000
,
0100
0001
1000
0100
,
1000
0000
0000
0010
0000
1000
0100
0000
0001
0010
0000
1000
,
0100
0000
0000
0001
0000
1000
0001
0000
1000
0001
0000
1000
,
0001
0000
2001
0000
0000
0001
0000
0001
0000
0002
0000
0000
,
0000
3003
0001
0000
1000
0000
0100
0000
,
0001
0010
1000
0100
,
0010
0001
1000
0100
,
0001
0000
1000
0000
0100
0000
0010
1000
,
0010
0001
1000
0100
,
0001
0000
0100
0001
0100
0000
0010
0100
,
0010
0000
0010
1000
0010
0000
1000
0001
,
1000
0001
0000
0000
0000
0000
0000
0000
,
0000
0000
0000
0010
0000
1000
0001
0000
0010
1000
0000
0010
,
1000
0000
0100
0001
0000
0001
1000
0000
0001
1000
0000
0010
,
1000
0000
0000
0010
0000
0001
0010
0000
1000
0100
0000
0001
,
1000
0000
0001
1000
0000
0010
1000
0000
0010
0100
0000
0000
,
0000
0000
0000
0001
0000
0001
0010
0000
1000
0100
0000
0001
,
0100
0000
0010
0100
0000
1000
0010
0000
1000
0001
0000
0000
,
0000
0000
0000
0001
0000
0001
0010
0000
0100
1000
0000
0001
,
1000
0000
0010
1000
0000
0010
0100
0000
0010
1000
0000
0000
,
0000
0001
1000
0100
,
0001
0000
1000
0001
0000
0000
0010
0000
0000
1000
0000
1000
,
0100
0000
0001
0010
0000
0100
0010
0000
1000
0001
0000
0100
,
0010
0100
2000
0000
0000
0001
0000
0001
0000
0002
0000
0000
,
0000
3003
0001
0000
1000
0000
0010
0000
,
0100
0000
0010
1000
0001
0000
0001
1000
,
0001
0010
1000
0100
,
1000
0000
0010
1000
0010
0000
0001
0010
,
0001
1000
0100
1000
,
0001
0000
0010
1000
0010
0000
0001
0010
,
0001
0000
1000
0100
0001
1000
0001
1000
,
0010
0000
0000
1000
0000
0000
0200
0000
0000
0000
0001
0000
0000
0000
0001
0000
0000
0000
0002
0000
0000
0000
0000
0000
,
0000
0000
0000
0303
0000
0000
0010
0000
0000
0000
0000
0000
1000
0000
0000
0000
0000
0000
0001
0000
0000
0000
0001
0000
,
0010
0000
1000
0010
0000
0100
0010
0000
1000
0001
0000
0010
,
1000
0000
0001
0010
0000
0000
0100
0000
0000
1000
0000
0000
,
0001
0000
0000
1000
0001
1000
0001
0000
0000
0010
1000
0010
,
1000
0001
0100
1000
,
0001
0000
0000
0100
0010
0100
0010
0000
0000
1000
0010
1000
,
0010
0000
0000
0001
0000
0001
0010
0000
1000
0100
0000
0001
,
1000
0000
0020
0000
0000
0100
0000
0100
0000
0200
0000
0000
,
0000
0330
1001
0000
0000
0000
0000
0000
;

//--------------- dance-single - XLev450X-ESP ----------------
#NOTES:
     dance-single:
     XLev450X:
     Hard:
     15:
     0,0,0,0,0:
0000
0000
0000
0000
,
0000
0000
0000
0000
,
0000
0000
0000
0000
,
0000
0000
0000
0000
,
0000
0000
0000
0000
,
0000
0000
0000
0000
,
0000
0000
0000
0000
,
0000
0000
0000
0000
,
0000
0001
1000
0010
,
0100
0000
0001
0010
0000
0000
1000
0000
0000
0001
0000
1000
,
0010
0000
0100
0001
1000
0010
0100
0001
1000
0010
0100
0001
,
1000
0010
0002
0000
0000
1000
0000
1000
0000
2000
0000
0000
,
3003
0000
0000
0001
0000
0000
1000
0000
0000
0010
0000
1000
,
0001
0000
0100
0010
0000
0000
1000
0000
0000
0010
0000
0001
,
0010
0000
0100
1000
0100
0001
0010
0000
0000
0100
0000
1000
,
0001
0000
1000
0010
0000
1000
0010
0000
0001
0100
0000
0001
,
1000
0000
0010
0100
0000
0000
0001
0000
0000
0010
0000
0001
,
0010
1000
0001
1000
,
0001
0000
0100
0001
0000
0000
1000
0000
0010
1000
0000
0000
,
0001
0000
0100
0010
0000
1000
0001
0000
1000
0010
0001
0100
,
0010
0100
1000
0001
0000
0000
0010
0000
0001
1000
0000
0000
,
0010
0000
0000
0100
0000
1000
0001
0000
0000
0100
0000
1000
,
0001
0000
0000
0010
0000
0001
0010
0000
0001
0010
0000
1000
,
0010
0000
0100
0010
0000
1000
0010
0000
0100
0010
0000
1000
,
0010
0000
0001
0010
0000
0000
1000
0000
0000
0101
0000
0000
,
1010
0000
0000
0010
0000
1000
0010
0000
1000
0000
0000
0010
,
0100
0000
1000
0001
0000
0000
1000
0000
0000
0010
0000
0001
,
0010
0000
0100
0000
0100
0000
2002
0000
0000
0000
0000
0000
0000
0000
0000
3003
0000
0000
0001
0000
0010
0000
0100
0000
,
1000
0100
0010
0001
0000
0000
1000
0000
0000
0010
0000
1000
,
0001
0000
0000
0010
0000
0001
0010
0100
0100
1000
0100
0001
,
0010
0100
1000
0010
0000
0000
0001
0000
0000
1000
0000
0000
,
0001
0000
0000
0001
1000
0010
0100
1000
0001
0010
1000
0001
,
0100
0100
0010
1000
0000
0000
0010
0000
0000
1000
0000
0000
,
0010
0000
0000
1000
0010
1000
0010
0000
0000
0001
0010
0001
,
0010
0000
0000
0001
0100
0001
0010
1000
0001
0100
0010
1000
,
0001
0010
2000
0000
0000
0001
0000
0010
0000
0200
0000
0000
,
0000
3300
0001
0100
1000
0100
0010
0001
,
1000
0000
0100
0000
0010
1000
0001
0000
0010
0000
0100
0000
1000
0001
0100
0000
,
1000
0000
0001
0000
0010
1000
0100
0000
1000
0000
0100
0000
0001
0100
0010
0000
,
0100
0000
0010
0000
1000
0001
0100
0000
0001
0000
1000
0000
0010
1000
0001
0100
,
0010
0001
1000
0010
0002
0000
0013
0000
2000
0000
3100
0000
0010
0000
0100
0000
,
1000
0000
0001
0000
0010
0100
1000
0000
0100
0000
0001
0000
0010
0001
1000
0000
,
0001
0000
0100
0000
0010
1000
0010
0000
1000
0000
0001
0000
0100
0001
1000
0001
,
0100
1000
0020
0000
0000
0000
0000
0000
0000
0000
0000
0000
0000
0000
0000
0000
,
0030
0011
1100
0110
,
1010
0000
0011
0001
0101
0100
0110
0010
,
1010
0011
1100
0101
,
1100
0000
1010
0100
0101
0010
1010
0100
,
0101
0000
0010
1000
0001
0010
1000
0100
,
0001
0000
0100
0010
1000
0000
0100
0000
1000
0000
0100
0000
0001
0000
0010
0000
,
0001
0000
0010
0100
1000
0000
0100
0000
0001
0000
1000
0001
0010
0000
0100
0000
,
1000
0000
0100
0010
0001
0000
1000
0000
0010
0000
0001
0100
1000
0000
0001
0010
,
0100
1000
0001
1000
0010
0000
0100
0001
,
0010
0000
1000
0100
0001
0010
0001
0100
,
1000
0000
0000
0001
0000
0000
0010
0000
0100
0000
1000
0000
0001
0000
0100
0000
0001
0000
1000
0000
0100
0000
0001
0000
,
0010
1000
0002
0000
0000
1000
0000
1000
0000
2000
0000
0000
,
0000
3003
0010
1000
0001
0100
1000
0001
,
0010
0000
0101
0000
0000
0000
1010
0000
0000
0000
0010
0000
1000
0000
0100
1000
,
0100
0001
0010
1000
0100
1000
0001
0010
,
1000
0000
0101
0000
0000
0000
1010
0000
0000
0000
0110
0000
0001
0000
1000
0100
,
0001
0100
1000
0010
1000
0100
1000
0001
,
0100
0000
0011
0000
0000
0000
1100
0000
0000
0000
0001
0000
1000
0000
0010
0001
,
0100
1000
0001
0010
1000
0100
1000
0001
,
1000
0000
0000
1002
0000
0000
0000
0000
0000
1000
0000
0000
0000
0000
1000
0000
0000
0000
2000
0000
0000
0000
0000
0000
,
0000
0000
3003
0000
2002
0000
3003
0000
1000
0000
0010
0000
1000
0000
0100
0010
,
0001
0000
0010
0000
0001
0000
1000
0001
0100
0000
1000
0100
0001
0000
1000
0001
,
0010
0000
0001
0100
1000
0000
0100
0000
1000
0000
0001
0000
0010
0000
1000
0000
,
0100
0000
1000
0000
0010
0000
0001
1000
0010
0000
1000
0001
0100
0000
0001
0010
,
1000
0001
1000
0001
0010
0000
0010
0000
1000
0000
0100
0000
1000
0000
0001
0000
,
0010
0000
0001
0100
1000
0000
0100
0000
1000
0000
0001
0000
0010
0000
1000
0000
,
0100
0000
0001
0100
1000
0100
0001
0000
0100
0000
1000
0000
0001
0000
0010
0100
,
1000
0000
0000
0000
0000
0000
0002
0000
0000
0000
0000
0000
0000
0000
0000
0000
0000
0000
0000
0000
1000
0000
0000
0000
0000
0000
0000
0000
1003
0000
0000
0000
0000
0000
0000
0000
1000
0000
0000
0001
0000
0000
1000
0000
0000
0001
0000
0000
,
1000
0001
1000
0001
1001
0000
0000
0000
0000
0000
0000
0000
0000
0000
0000
0000
;
