#TITLE:Session 1 -Genesis-;
#ARTIST:PRASTIK DANCEFLOOR;
#GENRE:ELECTRIC FUSION;
#MUSIC:Session 1 -Genesis-.ogg;
#BANNER:Session 1 -Genesis-.png;
#BACKGROUND:Session 1 -Genesis--bg.png;
#CDTITLE:./CDTitles/bm IIDX 17 SIRIUS.png;
#SAMPLESTART:27.735;
#SAMPLELENGTH:15;
#SELECTABLE:YES;
#OFFSET:0.259;
#BPMS:0.000=79
,35.000=178;
#DISPLAYBPM:79:178;
#STOPS:35.000=0.737;

//--------------- dance-single - XLev450X -水--bSP ----------------
#NOTES:
     dance-single:
     XLev450X -水-:
     Beginner:
     4:
     0,0,0,0,0:
0000
0000
0000
0000
,
0000
0000
0000
0000
,
0000
0000
0000
0000
,
0000
0000
0000
0000
,
0000
0000
0000
0000
,
0000
0000
0000
0000
,
0000
0000
0000
0000
,
0000
0000
0000
0000
,
0000
0000
0000
0000
,
0000
0001
1000
0010
,
0000
0100
0001
1000
,
0000
0001
1000
0010
,
0000
0100
0001
0010
,
0000
0001
0000
1000
,
0000
0001
0100
0010
,
0000
0001
1000
0010
,
0100
0001
0010
1000
,
0000
0010
0000
0100
,
0001
1000
0000
0100
,
0001
0010
0000
1000
,
0010
0100
0001
0010
,
1000
0010
0000
0001
,
1000
0010
0000
0100
,
1000
0001
0000
0100
,
0001
1000
0010
0100
,
0000
0001
0000
1000
,
0000
0010
0001
1000
,
0000
0010
0000
0100
,
0000
0001
1000
0001
,
0000
0010
0000
1000
,
0000
0001
0000
0100
,
0000
0010
0000
1000
,
0000
0001
0100
0010
,
0000
1000
0000
0010
,
0000
0100
0000
0001
,
0000
1000
0000
0010
,
0100
0001
0000
1000
,
0000
0001
0001
0001
,
0000
1000
1000
1000
,
0000
0010
1000
0001
,
0000
0100
0001
0010
,
0100
1001
0000
0000
,
0000
0010
0000
0100
,
0000
0101
0000
0000
,
0000
1000
0000
0010
,
0000
1010
0000
0000
,
0000
0100
0000
0010
,
0000
0110
0000
0000
,
0000
1001
0000
0000
,
0000
0010
0100
0001
,
0000
0010
0001
1000
,
0000
0001
1000
0010
,
0000
0001
0100
0010
,
0000
0001
0000
0010
,
0000
0100
0000
1000
,
0000
0100
0000
0010
,
0000
0001
0000
0010
,
0000
1000
0001
0100
,
0000
0010
1000
0001
,
0000
0010
0001
1000
,
0000
1000
0001
0100
,
0000
0010
0001
1000
,
0000
0010
0100
0001
,
0000
1000
0010
0100
,
0001
1000
0010
0100
,
0010
2002
0000
3003
,
0220
0000
0000
0000
,
0000
0000
0000
0000
,
0000
0000
0000
0000
,
0000
0000
0000
0000
,
0330
0000
0000
0000
;

//--------------- dance-single - XLev450X -水--BSP ----------------
#NOTES:
     dance-single:
     XLev450X -水-:
     Easy:
     7:
     0,0,0,0,0:
0000
0000
0000
0000
,
0000
0000
0000
0000
,
0000
0000
0000
0000
,
0000
0000
0000
0000
,
0000
0000
0000
0002
,
0000
0003
2000
0000
0000
3000
0020
0000
,
0000
0030
0200
0000
0000
0300
0002
0000
,
0000
0003
0020
0000
0000
0030
2000
0000
,
0000
3000
0200
0000
0000
0000
0300
0000
,
0020
0000
0000
0030
1000
0000
0000
0000
1000
0000
0000
0000
1000
0000
0000
0000
,
0000
0001
0100
0010
,
0000
0001
0010
1000
,
0001
0100
0010
0001
,
0000
1000
0010
0100
,
0000
0001
0100
0010
,
0000
0001
1000
0010
,
0100
0001
0010
1000
,
0001
0000
1000
0001
,
0010
0100
0010
0001
,
0000
0000
1000
0001
,
0100
0010
0001
1000
,
0010
0000
0100
0001
,
0010
0001
1000
0010
,
0000
0000
1000
0001
,
0010
0100
0001
0010
,
1000
0001
0001
1000
,
0000
0010
0100
0001
,
0000
1000
0001
0100
,
0000
0010
0001
1000
,
0000
0010
0001
1000
,
0000
0010
0100
0001
,
0000
1000
0001
0100
,
0010
0001
1000
0010
,
0000
0001
0001
1000
,
0000
1000
0010
0100
,
0000
0010
1000
0001
,
0100
0010
0001
0010
,
0000
0001
1000
0010
,
0000
0100
0001
1000
,
0000
0001
0100
0010
,
1000
0001
0010
0100
,
0001
0020
0000
0000
,
0030
1000
0001
0000
1000
0000
0100
0000
,
0100
0020
0000
0000
,
0030
0001
1000
0000
0001
0000
0010
0000
,
0010
0200
0000
0000
,
0300
1000
0001
0000
1000
0000
0010
0000
,
0010
0200
0000
0000
,
0300
1000
0001
0000
1000
0000
0020
0000
,
0000
0000
0000
0030
0001
0000
0000
0000
1000
0000
0000
0000
0020
0000
0000
0000
,
0000
0030
0100
0000
0001
0000
2000
0000
,
0000
3000
1000
0000
0001
0000
0200
0000
,
0000
0300
0010
0000
0001
0000
0020
0000
,
0000
0030
1000
0000
1000
0000
0001
0000
,
0001
0100
0100
0010
,
0010
1000
0010
0100
,
0001
0010
1000
0001
,
0010
0001
0001
1000
,
0010
0100
0001
1000
,
0001
0010
0100
0001
,
1000
0010
0100
2002
,
0000
3003
0001
0000
1000
0000
0010
0000
,
0100
1000
0001
0100
,
0010
1000
0001
0010
,
0100
1000
0001
0010
,
0100
0000
2002
0000
3003
0220
0000
0330
,
2002
0000
0000
0000
,
0000
0000
0000
0000
,
0000
0000
0000
0000
,
0000
0000
0000
0000
,
3003
0000
0000
0000
;

//--------------- dance-single - XLev450X -水--DSP ----------------
#NOTES:
     dance-single:
     XLev450X -水-:
     Medium:
     12:
     0,0,0,0,0:
0000
0000
0000
0000
,
0000
0000
0000
0000
,
0000
0000
0000
0000
,
0000
0000
0000
0000
,
0000
0000
0000
1000
,
0010
0000
0100
0000
0001
1000
0010
0000
,
0001
0000
1000
0000
0010
0100
1000
0000
,
0001
0000
0010
0000
1000
0010
0001
0000
,
1000
0000
0001
0000
0100
0010
0100
0000
,
2002
3003
0010
0001
0010
0000
1000
0010
,
0100
0000
0001
0010
0001
1000
0010
0100
,
0001
0000
0010
0001
0010
0000
1000
0010
,
0100
0000
0001
1000
0010
0000
0200
0000
,
0000
0300
0001
0000
0010
0000
0001
1000
,
0010
0000
0100
0000
1000
0000
0001
0100
,
0010
0000
0001
0000
1000
0000
0010
0100
,
0001
0000
1000
0000
0010
0000
0100
0001
,
1000
0100
0001
0000
0010
0001
1000
0000
,
0010
0100
0001
0000
1000
0010
0100
0001
,
0000
2000
0000
3000
0010
0001
0100
0000
,
1000
0000
0010
0100
0001
0100
1000
0010
,
0100
1000
0001
0000
0010
0001
1000
0000
,
0010
1000
0001
0000
0100
0010
1000
0001
,
0000
2000
0000
3000
0001
0010
0001
0100
,
1000
0010
0100
0001
1000
0010
0100
0001
,
2000
3000
0001
0000
0010
0000
1000
0001
,
0100
0000
0010
0000
0001
0000
0010
0001
,
0010
0000
1000
0000
0010
0000
0100
0001
,
1000
0000
0010
0000
0001
0000
0100
0010
,
0001
0000
1000
0000
0001
0000
0100
0010
,
0000
0010
0001
0000
1000
0000
0010
0100
,
0000
1000
0001
0000
0100
0000
0010
0000
,
0001
0000
1000
0000
0001
0100
0000
0010
,
1000
0001
0100
0010
,
0001
0000
1000
0000
0001
0000
1000
0001
,
0100
0000
0001
1000
0010
0000
0100
0000
,
0001
0000
0100
0000
0001
0000
1000
0001
,
0010
0000
0001
0000
1000
0000
0010
0100
,
0001
0000
1000
0000
0010
0000
0001
0100
,
0010
0000
0001
0000
1000
0000
0010
0100
,
0001
0000
1000
0001
0100
0010
1000
0001
,
0100
0010
2000
0000
0000
0000
0000
0000
,
3000
0002
0003
0001
0001
0001
0001
0001
,
0001
0001
0002
0000
0000
0000
0000
0000
,
0003
2000
3000
1000
1000
1000
1000
1000
,
1000
1000
2000
0000
0000
0000
0000
0000
,
3000
0002
0003
0001
0001
0001
0001
0001
,
0001
0001
0002
0000
0000
0000
0000
0000
,
0003
2000
3000
1000
1000
1000
1000
1000
,
0220
0330
0001
0010
0000
1000
0000
0001
,
0100
0000
0010
0000
0001
1000
0000
0010
,
0000
0001
0100
0000
0001
1000
0000
0010
,
0000
0001
0100
0000
0010
0001
0000
1000
,
0000
0010
2200
3300
2020
3030
2002
3003
,
0220
0330
0202
0303
0220
0330
2200
3300
,
0202
0303
2002
3003
0220
0330
0202
0303
,
2200
3300
0220
0330
0022
0033
0220
0330
,
2002
3003
0001
0010
0001
0000
1000
0010
,
0100
0000
0001
0010
1000
0001
0100
0010
,
1000
0000
0001
0010
0001
0000
1000
0010
,
0100
0000
0001
0010
1000
0001
0200
0000
,
0000
0300
0010
0001
0010
0000
1000
0010
,
0100
0000
0001
1000
0010
0100
0001
1000
,
0010
0000
0100
0001
1000
0000
0010
0100
,
0001
0000
1000
0010
0100
0001
1000
0010
,
0100
0001
0020
0030
0001
2000
3000
0010
,
2002
0000
0000
0000
,
0000
0000
0000
0000
,
0000
0000
0000
0000
,
0000
0000
0000
0000
,
3003
0000
0000
0000
;

//--------------- dance-single - XLev450X -水--ESP ----------------
#NOTES:
     dance-single:
     XLev450X -水-:
     Hard:
     17:
     0,0,0,0,0:
0000
0000
0000
0000
,
0000
0000
0000
0000
,
0000
0000
0000
0000
,
0000
0000
0000
0000
,
0000
0000
0000
0000
0000
0000
0000
0000
0000
0000
0000
0000
0000
0000
0000
0000
0000
0000
1000
0000
0000
0001
0000
0100
,
0010
0000
0000
0100
0000
1000
0001
0000
0000
0010
0000
0000
1000
0000
0001
0010
0000
1000
0100
0000
0000
0001
0000
1000
,
0001
0000
0000
1000
0000
0001
0010
0000
0000
0100
0000
0000
0001
0000
1000
0010
0000
0001
0100
0000
0000
0001
0000
0010
,
1000
0000
0000
0010
0000
1000
0100
0000
0000
0001
0000
0000
1000
0000
0001
0010
0000
1000
0100
0000
0000
0010
0000
1000
,
0001
0000
0000
0000
0000
0000
1000
0000
0000
0000
0001
0000
0010
0000
0000
0000
0000
0000
0100
0000
0000
0000
0000
0000
0001
0010
1000
0100
0001
1000
0100
0010
0001
0100
0010
0001
2000
0000
0000
0000
0000
0000
3000
0000
0000
0000
0000
0000
,
2002
0000
0000
3003
0001
0000
1000
0001
0010
0000
1000
0000
0100
0000
0001
0000
,
1000
0000
0100
0000
0010
0000
0001
0000
0010
0001
1000
0100
0001
0000
0100
0000
,
0010
1000
0001
1000
0010
0001
0100
0001
,
1000
0001
0010
1000
0100
0000
0001
0000
1000
0000
0100
0000
0020
0000
0000
0000
,
0000
0000
0030
0000
0001
0000
1000
0001
0010
0000
0100
0000
0001
0000
1000
0000
,
0010
0000
0100
0000
0001
0000
1000
0000
0010
0001
1000
0100
0010
0000
0001
0000
,
0100
1000
0001
0100
0010
0001
1000
0010
,
0100
0010
0001
0100
0001
0000
0000
0000
1000
0000
0000
0000
0010
0000
0100
1000
,
0001
0010
1000
0100
0020
0000
0000
0030
0100
0001
1000
0010
0100
0001
0010
0001
,
0010
0100
1000
0001
1000
0010
0100
0001
1000
0001
0010
0001
0010
1000
0202
0000
,
0000
0303
2020
0000
0000
0000
0000
3030
0001
0100
0010
1000
0001
0100
0010
1000
,
0100
0010
0100
0010
0100
1000
0001
0100
0001
0100
0001
0010
0100
1000
0001
1000
,
0010
0100
0001
0100
2002
0000
0000
3003
0001
0010
0001
0100
0001
1000
0100
0010
,
0100
0010
0001
0010
0100
1000
0100
0010
0100
0010
0001
1000
0010
0001
2020
0000
,
0000
3030
0202
0000
0000
0000
0303
0000
0001
0100
0010
1000
0001
0100
0010
1000
,
0100
1000
0100
1000
0001
0100
0010
1000
0010
1000
0001
0010
0100
0010
0100
1000
,
0001
0100
0010
0100
0010
0000
1000
0000
0001
0000
0010
0000
0100
0000
0001
0000
,
1000
0000
0100
0000
0001
0000
0100
0000
0001
0000
0010
0001
1000
0000
0010
0000
,
0100
1000
0001
1000
0010
0100
0001
1000
,
0100
0010
0100
0001
1000
0010
0100
1000
,
0001
0000
1000
0100
0001
0010
0100
0010
,
0001
0000
0100
0001
1000
0000
0001
0000
0010
0000
1000
0000
0100
0000
1000
0000
,
0001
0000
1000
0001
0100
0000
1000
0000
0010
0000
0100
0000
0001
0000
0100
0000
,
1000
0000
0001
1000
0010
0000
0100
0000
0001
0000
1000
0000
0010
0000
0100
0000
,
0002
0003
0010
1000
0001
0010
0100
0001
,
1000
0000
0100
0000
0001
0000
0100
0000
0001
0000
0010
0001
1000
0000
0010
0000
,
0100
0000
1000
0010
0001
0000
1000
0000
0010
0000
0100
1000
0001
0000
1000
0000
,
0100
0010
0100
0001
1000
0010
0100
1000
,
0001
0000
1000
0100
0001
1000
0100
0010
,
0001
0000
0100
0001
1000
0000
0001
0000
0010
0000
1000
0000
0100
0000
1000
0000
,
0001
0000
1000
0001
0100
0000
1000
0000
0010
0000
0100
0000
0001
0000
0100
0000
,
1000
0000
0001
1000
0010
0000
0000
0000
1000
0000
0000
0000
0001
0010
0001
0100
,
0001
0100
0010
0100
2001
0000
0000
0000
0000
0000
0000
0000
0000
0000
0000
0000
,
3000
0000
0020
0000
0000
0030
0001
0000
1000
0000
0010
0000
0100
0000
0010
0000
,
1000
0010
0210
0000
0000
0000
0000
0000
,
0300
0000
0020
0000
0000
0030
0001
0000
0100
0000
0010
0000
0100
0010
0001
0010
,
0100
0010
0100
1000
0200
0000
0000
0000
0000
0000
0000
0000
0000
0000
0000
0000
,
0300
0000
0020
0000
0000
0030
0001
0000
1000
0000
0001
0000
0010
0000
0100
0000
,
1000
0010
0200
0000
0000
0000
0000
0000
,
0000
0300
0002
0000
0000
0003
0010
0000
1000
0000
0100
0000
1000
0100
0001
1000
,
0010
0100
0001
0010
1000
0000
0000
0000
0001
0000
0100
0000
0000
0000
0010
0000
,
0000
0001
1000
0000
0001
0100
0000
0010
,
0000
0000
0001
0100
1000
0000
0000
0000
0010
0000
0100
0000
0000
0000
0001
0000
,
0000
1000
0010
0000
0100
1000
0000
0010
,
0000
0000
0100
0010
1001
0000
0000
0000
0110
0000
0000
0000
1001
0000
0000
0000
,
0101
1010
0110
1001
,
0110
0000
0001
0100
0010
1000
0001
0100
,
0010
0000
1000
0000
0100
0010
0100
0010
0001
0100
0010
1000
0001
0100
0010
0100
,
0010
0100
0001
0010
0001
0000
1000
0001
0010
0000
1000
0000
0100
0000
0001
0000
,
1000
0000
0100
0000
0010
0000
0001
0000
0010
0001
1000
0100
0001
0000
0100
0000
,
0010
1000
0001
1000
0010
0001
0100
0001
,
1000
0001
0010
1000
0100
0000
0001
0000
1000
0000
0100
0000
0020
0000
0000
0000
,
0000
0000
0030
0000
0001
0000
1000
0001
0010
0000
0100
0000
0001
0000
1000
0000
,
0010
0000
0100
0000
0001
0000
1000
0000
0010
0001
1000
0100
0010
0000
0001
0000
,
0100
1000
0001
0100
0010
0001
1000
0010
,
0100
0010
0001
0100
0001
1000
0001
0100
0010
1000
0001
0100
0010
0100
0010
0100
,
0001
0000
0000
0010
0000
0000
0100
0000
0000
0010
0000
0000
2000
0000
0000
0000
0000
0000
0000
0000
0000
3000
0000
0000
0001
0000
0010
0000
0100
0000
2000
0000
0000
0000
0000
0000
3000
0000
0000
0000
0000
0000
1001
0000
0000
0000
0000
0000
,
0210
0000
0000
0000
,
0000
0000
0000
0000
,
0000
0000
0000
0000
,
0000
0000
0000
0000
,
0300
0000
0000
0000
;
