#TITLE:Senses (RGR-Special);
#ARTIST:JT.1UP;
#BANNER:Senses (RGR-Special).png;
#BACKGROUND:Senses (RGR-Special)-bg.png;
#CDTITLE:./CDTitles/DDR ULTRAMIX4.png;
#MUSIC:Senses (RGR-Special).ogg;
#SAMPLESTART:18;
#SAMPLELENGTH:15;
#BPMS:0=120;

//--------------- dance-single - XLev450X ----------------
#NOTES:
     dance-single:
     XLev450X:
     Challenge:
     14:
     0,0,0,0,0:
0000
0000
0000
0000
,
0000
0000
0000
0000
,
0000
0000
0000
0000
,
0000
0000
0000
0000
,
0000
0000
0000
0000
,
0001
0000
0100
0000
1000
0000
0010
1000
0000
0001
0010
0000
0100
0000
1000
0000
,
0001
0000
0010
0001
0010
0000
1000
0010
0000
1000
0001
0000
0100
0000
1000
0000
,
0001
0000
0010
1000
0001
0000
1000
0000
0010
0000
1000
0010
1000
0000
0001
0000
,
0010
0000
1000
0100
0001
0000
1000
0000
0001
0010
0100
1000
0001
0010
0100
1000
,
0001
0000
1000
0000
0010
0000
0001
0010
0001
0000
1000
0000
0100
0000
1000
0000
,
0010
1000
0010
0000
0001
0010
0001
0000
0100
0010
0100
0000
0010
0100
0010
0000
,
0001
0000
0010
0000
1000
0000
0100
0001
1000
0000
0010
0000
1000
0000
0010
1000
,
0010
0000
0001
0010
0001
0000
0100
1000
0100
0000
0001
1000
0001
1000
0001
0000
,
0010
0000
1000
0000
0010
0000
0100
0000
1000
0000
0010
1000
0010
1000
0001
0100
,
0010
0000
1000
0000
0001
0000
0010
0000
0100
0000
0001
0010
0001
0010
0001
1000
,
0010
0000
1000
0000
0100
0000
1000
0000
0001
0000
1000
0010
1000
0001
1000
0100
,
0001
0000
0000
0000
0010
0000
0000
0000
1000
0000
0000
0000
0001
0000
0000
0000
1000
0100
0001
0000
1000
0000
0010
0000
1000
0000
0001
0000
0100
0000
0010
0000
,
1000
0000
0001
0000
0100
0000
1000
0000
0001
0000
1000
0001
0010
0000
1000
0010
,
0100
0000
1000
0000
0001
0000
0010
0001
0010
0000
1000
0010
1000
0000
0010
0000
,
0100
0000
1000
0000
0001
0000
1000
0000
0001
0000
0010
0000
0001
0000
0010
0001
,
0010
0000
1000
0000
0010
0000
1000
0010
1000
0000
0001
0010
0001
0000
0100
0000
,
1000
0000
0001
0000
0010
0000
1000
0010
1000
0000
0001
0000
0010
0000
0100
0000
,
0001
0100
0001
0000
1000
0000
0010
1000
0010
0000
0001
0000
0010
0000
1000
0001
,
1000
0000
0010
0000
1000
0001
1000
0100
0001
0000
1000
0000
0001
0000
0010
0000
,
1000
0000
0010
0000
0001
0000
0010
0000
0001
1000
0010
1000
0001
0000
0010
0000
,
0001
0000
1000
0000
0010
0000
0100
0000
1000
0000
0001
0010
0001
0000
1000
0000
,
0100
1000
0001
1000
0010
0001
0011
0000
,
0100
0000
1000
0000
0001
0000
1000
0000
0001
0000
1000
0001
1000
0000
0010
0000
,
1000
0100
1000
0001
0010
0100
0001
0000
,
1000
0000
1000
0000
0001
0000
1000
0000
0010
0000
0010
0000
1000
0000
0010
1000
,
0010
0001
0010
0100
1000
0010
0001
0000
,
0100
0000
1000
0000
0001
0000
0010
0000
0001
0000
0010
0001
0010
0000
1000
0000
,
0200
0000
0010
0000
0010
0000
0310
0000
,
0001
0000
1000
0000
0010
0000
0001
0010
0001
0000
1000
0000
0001
0000
0010
0000
,
1000
0000
0100
0000
0001
0000
0010
0100
1000
0000
0001
0000
1000
0000
0010
0000
,
1000
0000
0001
0000
0010
0000
0010
1000
0010
0000
0100
0000
1000
0000
0001
0000
,
0010
0000
0001
0000
1000
0010
0000
0100
0000
0001
0010
0000
1000
0000
0001
0000
,
0010
0000
0001
0010
0001
0000
1000
0010
1000
0000
0010
0000
0100
0000
0001
0000
,
1000
0000
0010
1000
0010
0000
0001
0010
0001
0000
0100
1000
0001
0000
0010
0000
,
1000
0000
0010
0000
1000
0000
0010
1000
0010
0000
0001
0000
0010
0000
1000
0000
,
0100
0000
1000
0000
0001
0000
0010
0000
0001
1000
0010
1000
0001
0100
0010
1000
,
0001
0001
1000
0010
1000
0010
0100
1000
,
0001
0000
0010
0001
0010
0000
1000
0000
0100
0000
1000
0000
0001
0000
1000
0000
,
0001
0000
1000
0001
1000
0000
0010
0000
1000
0000
0100
0000
1000
0000
0001
0000
,
0010
0000
0010
0100
0010
0000
1000
0000
0001
0000
0010
0000
1000
0000
0000
0000
,
0100
1000
0001
1000
0010
0100
1000
0010
,
1000
0000
0010
1000
0010
0000
0001
0000
0100
0000
0001
0100
0001
0000
1000
0000
,
0001
1000
0010
1000
0100
1000
0001
0010
,
0001
0000
1000
0001
1000
0000
0010
0000
1000
0000
0010
0000
0100
0000
1000
0000
,
0010
0001
1000
0010
0100
1000
0001
0010
,
1000
0001
0000
0010
0000
0001
0000
1000
0001
1000
0100
0001
1000
0010
0001
1000
,
0200
0000
0010
0000
0010
0000
0310
0000
,
0002
0000
1000
0000
1000
0000
1000
0000
,
0003
0000
0000
0000
0000
0000
0000
0000
;
