#TITLE:Senses (Kaiju Remix) (RGR-Special);
#ARTIST:JT.1UP;
#BANNER:Senses (Kaiju Remix) (RGR-Special).png;
#BACKGROUND:Senses (Kaiju Remix) (RGR-Special)-bg.png;
#CDTITLE:./CDTitles/DDR UNIVERSE3.png;
#MUSIC:Senses (Kaiju Remix) (RGR-Special).ogg;
#OFFSET:-0.001;
#SAMPLESTART:16;
#SAMPLELENGTH:15;
#BPMS:0=120;

//--------------- dance-single - XLev450X ----------------
#NOTES:
     dance-single:
     XLev450X:
     Challenge:
     13:
     0,0,0,0,0:
0000
0000
0000
0000
,
0000
0000
0000
0000
,
0000
0000
0000
0000
,
0000
0000
0000
0000
,
0000
0011
0000
1100
0000
0110
0000
1010
,
0000
0101
0000
0011
0000
1100
0000
1001
,
0000
1010
0000
0011
0000
1100
0000
0110
,
0000
0000
1001
0000
0000
0000
0001
0000
1000
0000
0001
0000
1000
0001
1000
0001
,
1000
0010
1000
0001
0010
0001
0010
0100
,
1000
0000
0001
0010
0001
0000
0010
0000
1000
0000
0100
0000
1000
0000
0001
0000
,
0000
0000
1000
0000
0010
0000
1000
0000
0010
0000
1000
0010
1000
0000
0001
0000
,
0010
0100
1000
0010
1000
0001
0010
0101
,
0000
0000
1000
0000
0001
0000
1000
0000
0000
0000
0010
0000
1000
0000
0010
1000
,
0010
0100
0001
0010
0000
0001
1000
0001
,
0100
1000
0001
0010
0000
1000
0010
1000
,
0010
0000
0001
0010
0001
0000
1000
0010
1000
0000
0100
0010
0100
0000
0001
0000
,
0010
1000
0001
0100
0000
0001
1000
0001
,
0010
0000
0001
0000
1000
0000
0001
0000
0000
0000
1000
0000
0010
0000
1000
0010
,
1000
0001
0010
1000
0000
0001
1000
0010
,
1000
0000
0010
1000
0010
0000
0001
0010
0001
0000
0100
0000
1000
0000
0001
0000
,
0100
1000
0001
0010
0000
1000
0010
1000
,
0000
0100
0001
0100
0000
0010
1000
0001
,
0010
1000
0001
1000
0000
0010
1000
0100
,
0001
0000
1000
0000
0010
0000
0001
0000
0010
0001
0010
0001
0100
1000
0010
0001
,
2000
0001
0000
3010
0000
0200
0000
1300
,
0000
0020
0000
0130
0000
0002
0000
0013
,
0000
2000
0000
3001
0000
0020
0000
0130
,
0000
2000
0000
3100
0000
0002
0000
0013
,
0100
0001
1000
0010
0000
0001
1000
0010
,
0100
1000
0001
0010
0000
0100
1000
0010
,
0001
0010
0100
1000
0100
0001
0010
1000
,
0001
0000
0100
0000
0010
0000
0001
0000
1000
0001
1000
0001
1000
0001
1000
0001
,
1000
0000
0010
0000
1000
0000
0100
0000
1000
0000
0001
0000
0010
0000
0001
0010
,
0001
0000
0100
0000
0000
1000
0000
0001
0010
0000
1000
0000
0001
0000
1000
0010
,
1000
0000
0001
0000
1000
0000
0010
0000
0100
0000
1000
0000
0001
0000
0010
0001
,
0010
1000
0001
0100
1000
0010
0101
0000
,
0010
1000
0010
1000
0100
1000
0001
0000
,
1000
0100
1000
0001
0010
0100
1000
0001
,
0000
0000
0001
0000
1000
0000
0010
0000
0100
0000
0001
0010
0001
0000
1000
0000
,
0100
0000
1000
0000
0001
0000
1000
0000
0001
1000
0001
0000
0010
1000
0010
0000
,
0100
1000
0001
0010
0000
0100
1000
0100
,
0001
0000
0010
0000
0001
0010
0001
0000
1000
0000
0100
0000
1000
0000
0000
0000
,
0010
1000
0010
0100
1000
0001
0101
0000
,
1000
0010
1000
0000
0100
0010
0101
0000
,
0010
1000
1010
0000
0010
0100
0110
0000
,
1000
0001
1001
0000
0010
0010
0100
0000
,
0001
0000
1000
0000
0001
0000
0010
0001
0010
0000
1000
0000
0001
0000
0100
0000
,
1000
0000
0010
0000
1000
0000
0001
0000
1000
0010
1000
0010
0100
0001
1000
0010
,
0200
0000
0302
0000
0023
0000
0230
0000
,
2300
0000
3200
0000
0302
0000
0023
0030
,
2002
0000
0000
0000
0000
0000
0000
0000
,
3003
0000
0000
0000
0000
0000
0000
0000
;
