#TITLE:Scatman (Ski Ba Bop Ba Dop Bop);
#ARTIST:Scatman John;
#MUSIC:Scatman (Ski Ba Bop Ba Dop Bop).ogg;
#BANNER:Scatman (Ski Ba Bop Ba Dop Bop).png;
#BACKGROUND:Scatman (Ski Ba Bop Ba Dop Bop)-bg.png;
#SAMPLESTART:15.954;
#SAMPLELENGTH:15;
#OFFSET:-0.076;
#BPMS:0=136.047;
#DISPLAYBPM:136;
#BGSTAGE:17;

//--------------- dance-single - XLev450X-bSP ----------------
#NOTES:
     dance-single:
     XLev450X:
     Beginner:
     3:
     0,0,0,0,0:
0000
0000
0000
0000
,
0000
0000
0000
0000
,
0000
0000
0000
0000
,
0000
0000
0000
0000
,
0000
0000
0000
0000
,
0001
0001
1000
0000
,
0010
0010
0100
0000
,
0001
0001
1000
0000
,
0010
0010
0100
0000
,
0001
0001
0000
0000
,
1000
1000
0000
0000
,
0100
0100
0000
0000
,
0010
0010
0000
0000
,
1000
0001
0000
0000
,
0010
0001
0000
0000
,
0100
1000
0000
0000
,
0100
0010
0000
0000
,
1001
0000
0000
0000
,
0000
0000
0000
0000
,
0000
0000
0000
0000
,
0000
0000
0000
0000
,
0010
0000
0001
0000
,
0100
0000
1000
0000
,
0010
0000
0100
0000
,
0001
0000
0000
0000
,
1000
0000
0100
0000
,
0001
0000
0010
0000
,
0100
0000
0001
0000
,
1000
0000
0010
0000
,
1001
0000
0000
0000
,
0000
0000
0000
0000
,
1001
0000
0000
0000
,
0000
0000
0000
0000
,
1000
0000
0010
0000
,
0100
0000
0001
0000
,
1000
0000
0001
0000
,
0100
0000
0010
0000
,
0010
0010
0000
0000
,
0100
0100
0000
0000
,
0001
0001
0000
0000
,
1000
1000
0000
0000
,
1001
0000
0000
0000
,
0010
0000
0100
0000
,
1000
0000
0001
0000
,
0010
0000
0100
0000
,
1000
0000
0000
0000
,
0010
0000
0100
0000
,
0001
0000
1000
0000
,
0010
0000
0100
0000
,
0001
0000
0000
0000
,
0010
0010
0000
0000
,
0100
0100
0000
0000
,
1001
0000
0000
0000
;

//--------------- dance-single - XLev450X-BSP ----------------
#NOTES:
     dance-single:
     XLev450X:
     Easy:
     7:
     0,0,0,0,0:
0000
0000
0000
0000
,
0000
0000
0000
0000
,
0000
0000
0000
0000
,
0000
0000
0000
0000
,
0000
0000
0000
0000
,
0001
1000
0001
0000
,
0010
1000
0010
0000
,
0100
0010
0100
0000
,
0001
0010
0001
0000
,
1000
0001
0100
0001
,
1000
0000
0010
0000
1000
0010
1000
0000
,
0001
0100
0001
0010
,
1000
0001
0100
0000
,
1000
0001
0100
0010
,
1000
0000
0010
0000
0100
0010
0100
0000
,
0001
0010
1000
0000
,
0001
1000
0001
0000
,
0001
0000
1000
0000
,
0010
0000
0100
0000
,
0001
0000
1000
0000
,
0010
0000
0100
0000
,
0001
0001
1000
0000
,
0010
1000
0010
0000
,
0100
0001
1000
0000
,
0001
0010
0100
0000
,
1000
0100
0010
0000
,
0001
0100
0001
0000
,
1000
0000
0010
0000
1000
0010
1000
0000
,
0001
0010
0100
0000
,
1001
0000
0000
0000
,
1001
0000
0000
0000
,
1001
0000
0000
0000
,
1001
0000
0000
0000
,
1000
0100
0001
0010
,
0100
1000
0001
0000
,
0010
0010
1000
0000
,
0100
0010
0001
0000
,
0100
0000
0001
0000
1000
0001
1000
0000
,
0010
1000
0010
0000
,
0100
0000
0100
0000
0010
0100
0010
0000
,
1000
0001
0100
0000
,
1001
0000
0000
0000
,
1000
0001
0010
0000
,
0100
1000
0100
0000
,
0010
0010
0100
0000
,
0001
0001
0010
0000
,
1000
0001
1000
0000
,
0100
0001
0010
0000
,
0100
1000
0010
0000
,
0100
0010
1000
0000
,
0001
0000
1000
0000
0001
1000
0001
0000
,
0010
0000
0100
0000
0010
0100
0010
0000
,
1001
0000
0000
0000
;

//--------------- dance-single - XLev450X-DSP ----------------
#NOTES:
     dance-single:
     XLev450X:
     Medium:
     10:
     0,0,0,0,0:
0000
0000
0000
0000
,
0000
0000
0000
0000
,
0000
0000
0000
0000
,
0000
0000
0000
0000
,
0000
0000
0000
0000
,
0001
0000
1000
0000
0010
0000
0100
0000
,
0001
0000
0010
0000
0010
0010
1000
0000
,
0001
0000
0100
0000
0001
0000
1000
0000
,
0010
0000
0100
0000
0001
0001
0001
0000
,
1000
0000
0010
0000
1000
0000
0000
0000
,
0100
0000
0001
0000
0100
0000
0010
0000
,
1000
0000
0010
0000
0100
0000
0000
0000
,
0001
0000
1000
0000
0010
0000
0100
0100
,
0100
0000
0001
0000
1000
0000
0010
0000
,
1000
0000
0001
0000
0100
0000
0000
0000
,
0010
0000
1000
0000
0010
0000
0001
0000
,
0010
0001
0010
0000
1000
0100
1000
0000
,
0001
0000
0000
1000
0000
0000
0010
0000
0000
0100
0000
0000
0001
0000
0000
0000
,
1000
0000
0000
0001
0000
0000
0100
0000
0000
0010
0000
0000
1000
0000
0000
0000
,
0010
0000
0000
0100
0000
0000
0001
0000
0000
0010
0000
0000
1000
0000
0000
0000
,
0001
0000
1000
0000
0001
0000
0000
0000
,
0001
0000
1000
0000
0010
0000
1000
0000
,
0100
0001
0010
0000
0101
0000
0000
0000
,
0001
0000
1000
0000
0010
1000
0010
0000
,
1010
0000
0110
0000
0011
0000
0000
0000
,
0001
0000
1000
0000
1000
0000
0100
0000
,
0001
0000
0100
0000
0010
0000
0000
0000
,
1000
0000
0010
0000
1000
0010
1000
0000
,
0100
0000
0010
0000
0001
0000
0000
0000
,
1000
0000
0000
0001
0000
0000
0100
0000
0000
0010
0000
0000
1000
0000
0000
0000
,
0001
0000
0000
0100
0000
0000
0010
0000
0000
1000
0000
0000
0010
0000
0000
0000
,
0100
0000
0000
0001
0000
0000
0010
0000
0000
1000
0000
0000
0100
0000
0000
0000
,
0001
0000
0000
1000
0000
0000
0010
0000
0000
0100
0000
0000
0001
0000
0000
0000
,
0001
0000
1000
0000
0010
0000
0100
0000
,
1000
0000
0001
0000
0010
0000
0000
0000
,
0100
0000
1000
0000
0001
0000
0100
0000
,
1000
0000
0010
0000
0100
0010
0100
0000
,
0001
0000
1000
0000
0001
0000
0000
0000
,
1000
0000
0010
0000
1000
0010
1000
0000
,
0001
0000
0100
0000
0001
0000
0000
0000
,
0010
0000
0100
0000
0010
0100
0010
0000
,
1001
0000
0000
0000
0000
0000
0000
0000
,
0001
0000
1000
0000
0100
0000
0001
0000
,
0010
0000
1000
0000
0010
0000
0000
0000
,
1000
0000
1000
0000
0100
0000
0001
0000
,
0010
0000
0100
0000
0001
0010
0001
0000
,
1000
0000
0001
0000
0100
0000
0000
0000
,
1000
0000
0010
0000
0100
0000
0000
0000
,
0010
0000
0100
0000
0001
0010
0001
0000
,
1000
0000
0010
0000
1000
0000
0000
0000
,
1000
0000
0001
0000
1000
0001
1000
0000
,
0010
0000
1000
0000
0010
1000
0010
0000
,
1001
0000
0000
0000
0000
0000
0000
0000
;

//--------------- dance-single - XLev450X-ESP ----------------
#NOTES:
     dance-single:
     XLev450X:
     Hard:
     14:
     0,0,0,0,0:
0000
0000
0000
0000
,
0000
0000
0000
0000
,
0000
0000
0000
0000
,
0000
0000
0000
0000
,
0000
0000
0000
0000
,
0001
0000
0000
1000
0000
0000
0010
0000
0000
0100
0000
0000
0001
0000
0000
0000
,
1000
0000
0000
0001
0000
0000
0100
0000
0000
1000
0000
0000
0010
0000
0001
0000
,
1000
0000
0000
0100
0000
0000
0001
0000
0000
1000
0000
0000
0010
0000
0000
0000
,
1000
0000
0000
0001
0000
0000
0100
0000
0000
1000
0000
0000
0010
0000
0000
0000
,
0001
0000
1000
0000
0010
1000
0100
0000
,
0001
0000
0010
0000
1000
0000
0100
0000
0001
0000
1000
0000
0010
0000
1000
0010
,
1000
0000
0001
0000
0100
0000
1000
0000
0001
1000
0000
0001
0000
0000
0000
0000
,
0001
0000
1000
0000
0010
0000
0100
0000
1000
0000
0001
1000
0100
0001
0010
1000
,
0010
0000
0000
0000
0001
0000
1000
0000
0010
1000
0000
0010
0000
0000
0100
0000
,
1000
0000
0001
0000
0010
0000
0100
0000
0001
0010
0000
1000
0000
0000
0001
0000
,
0100
0000
0000
0000
1000
0000
0001
0000
0010
1000
0000
0001
0000
0000
0000
0000
,
1000
0000
0100
0000
1000
0000
0010
0000
1000
0001
0000
0100
0000
0000
1000
0000
,
0000
0000
0001
0000
0010
0000
0100
0000
1000
0000
0001
0000
1000
0000
0010
0000
0001
0100
1000
0000
0100
0000
0001
0000
0100
0000
0001
0000
0010
0000
1000
0000
,
0001
0100
1000
0100
0001
0010
1000
0100
0001
0010
1000
0100
0001
0010
1000
0100
,
0001
0010
1000
0100
0001
0010
1000
0100
0001
0000
1000
0100
0001
1000
0000
0110
,
0000
0000
0000
0000
,
0001
0010
0001
0000
0010
1000
0010
0000
0100
0000
0000
0001
0000
0000
1000
0010
,
0000
1000
0000
0100
0010
1000
0100
0001
0010
0000
0000
0000
0000
0000
0001
1000
,
0010
0000
1000
0001
0000
0100
1000
0100
0001
1000
0010
1000
0010
0000
0100
0010
,
1000
0001
0000
1000
0000
0001
0000
0000
0010
0000
1000
0000
0100
0000
0000
0000
,
0001
1000
0001
0000
0000
0010
1000
0000
0010
0000
1000
0001
0000
0010
0000
1000
,
0001
0000
0100
1000
0001
0000
0000
1000
0010
0000
0000
0000
0001
0000
0000
0000
,
1000
0001
0000
1000
0010
0000
1000
0000
0010
1000
0010
0000
0001
0000
0010
0000
,
0100
0001
0100
0000
0001
0000
1000
0000
0001
1000
0001
0000
1000
0000
0010
0000
,
1000
0000
0000
0001
0000
0000
0100
0000
0000
1000
0000
0000
0001
0000
0100
0000
,
0001
0000
0000
1000
0000
0000
0010
0000
0000
0100
0000
0000
1000
0000
0001
0010
,
0001
0000
0000
1000
0000
0000
0001
0000
0000
0100
0000
0000
1000
0000
0001
0000
,
0100
0000
0000
0001
0000
0000
1000
0000
0000
0010
0000
0000
0100
0000
1000
0000
,
0001
1000
0001
0000
1000
0000
0010
0000
1000
0010
1000
0000
0010
0000
0001
0000
,
0010
0001
0010
0000
0100
0000
1000
0000
0001
0000
0100
0000
1000
0000
0000
0000
,
0001
0100
0010
1000
0010
0100
0001
0010
,
1000
0001
1000
0000
0001
0000
0100
0000
0010
0100
0010
0000
1000
0000
0010
0000
,
0001
0010
0001
0000
0010
1000
0010
0000
0100
0000
0000
0001
0000
0000
1000
0010
,
0000
1000
0000
0100
0010
1000
0100
0001
0010
0000
0000
0000
0000
0000
0001
1000
,
0010
0000
1000
0001
0000
0100
1000
0100
0001
1000
0010
1000
0010
0000
0100
0010
,
1000
0001
0000
1000
0000
0001
0000
0000
0010
0000
1000
0000
0100
0000
0001
0000
,
1000
0000
0000
0010
0000
0000
0000
0000
0000
0000
0000
1000
0001
1000
0001
1000
,
0001
0000
1000
0000
0010
1000
0100
0000
,
0001
0000
0010
0000
1000
0000
0100
0000
0001
0000
1000
0000
0010
0000
1000
0010
,
1000
0000
0001
0000
0100
0000
1000
0000
0001
1000
0000
0001
0000
0000
0000
0000
,
0001
0000
1000
0000
0010
0000
0100
0000
1000
0000
0001
1000
0100
0001
0010
1000
,
0010
0000
0000
0000
0001
0000
1000
0000
0010
1000
0000
0010
0000
0000
0100
0000
,
1000
0000
0001
0000
0010
0000
0100
0000
0001
0010
0000
1000
0000
0000
0001
0000
,
0100
0000
0000
0000
1000
0000
0001
0000
0010
1000
0000
0001
0000
0000
0000
0000
,
1000
0000
0100
0000
1000
0000
0010
0000
1000
0001
0000
0100
0000
0000
1000
0000
,
0001
0100
1000
0001
0010
0000
0100
0000
0001
0010
0000
0001
0000
1000
0001
0000
,
0100
0000
0001
0000
0100
0000
0001
0000
1000
0001
1000
0000
0010
0000
0100
0000
,
1001
0000
0000
0000
0000
0000
0000
0000
;
